  0
SECTION
  2
HEADER
  9
$ACADVER
  1
AC1021
  9
$ACADMAINTVER
 70
     1
  9
$DWGCODEPAGE
  3
ANSI_1252
  9
$LASTSAVEDBY
  1
fottrem
  9
$INSBASE
 10
0.0
 20
0.0
 30
0.0
  9
$EXTMIN
 10
0.0
 20
0.0
 30
0.0
  9
$EXTMAX
 10
1815.097784188713
 20
1319.988833422131
 30
0.0
  9
$LIMMIN
 10
0.0
 20
0.0
  9
$LIMMAX
 10
0.0
 20
0.0
  9
$ORTHOMODE
 70
     1
  9
$REGENMODE
 70
     1
  9
$FILLMODE
 70
     1
  9
$QTEXTMODE
 70
     0
  9
$MIRRTEXT
 70
     1
  9
$LTSCALE
 40
1.0
  9
$ATTMODE
 70
     1
  9
$TEXTSIZE
 40
0.125
  9
$TRACEWID
 40
0.05
  9
$TEXTSTYLE
  7
Standard
  9
$CLAYER
  8
KONTUR
  9
$CELTYPE
  6
ByLayer
  9
$CECOLOR
 62
   256
  9
$CELTSCALE
 40
1.0
  9
$DISPSILH
 70
     0
  9
$DIMSCALE
 40
5.0
  9
$DIMASZ
 40
3.5
  9
$DIMEXO
 40
1.0
  9
$DIMDLI
 40
1.25
  9
$DIMRND
 40
0.01
  9
$DIMDLE
 40
0.0
  9
$DIMEXE
 40
1.0
  9
$DIMTP
 40
0.0
  9
$DIMTM
 40
0.0
  9
$DIMTXT
 40
3.5
  9
$DIMCEN
 40
0.09
  9
$DIMTSZ
 40
0.0
  9
$DIMTOL
 70
     0
  9
$DIMLIM
 70
     0
  9
$DIMTIH
 70
     0
  9
$DIMTOH
 70
     0
  9
$DIMSE1
 70
     0
  9
$DIMSE2
 70
     0
  9
$DIMTAD
 70
     1
  9
$DIMZIN
 70
     3
  9
$DIMBLK
  1

  9
$DIMASO
 70
     1
  9
$DIMSHO
 70
     1
  9
$DIMPOST
  1

  9
$DIMAPOST
  1

  9
$DIMALT
 70
     0
  9
$DIMALTD
 70
     2
  9
$DIMALTF
 40
1.0
  9
$DIMLFAC
 40
1.0
  9
$DIMTOFL
 70
     1
  9
$DIMTVP
 40
0.0
  9
$DIMTIX
 70
     0
  9
$DIMSOXD
 70
     0
  9
$DIMSAH
 70
     0
  9
$DIMBLK1
  1

  9
$DIMBLK2
  1

  9
$DIMSTYLE
  2
Dimensjoner
  9
$DIMCLRD
 70
     0
  9
$DIMCLRE
 70
     0
  9
$DIMCLRT
 70
     0
  9
$DIMTFAC
 40
1.0
  9
$DIMGAP
 40
2.0
  9
$DIMJUST
 70
     0
  9
$DIMSD1
 70
     0
  9
$DIMSD2
 70
     0
  9
$DIMTOLJ
 70
     1
  9
$DIMTZIN
 70
     0
  9
$DIMALTZ
 70
     0
  9
$DIMALTTZ
 70
     0
  9
$DIMUPT
 70
     0
  9
$DIMDEC
 70
     0
  9
$DIMTDEC
 70
     0
  9
$DIMALTU
 70
     2
  9
$DIMALTTD
 70
     2
  9
$DIMTXSTY
  7
Standard
  9
$DIMAUNIT
 70
     0
  9
$DIMADEC
 70
     0
  9
$DIMALTRND
 40
0.0
  9
$DIMAZIN
 70
     0
  9
$DIMDSEP
 70
    46
  9
$DIMATFIT
 70
     3
  9
$DIMFRAC
 70
     0
  9
$DIMLDRBLK
  1

  9
$DIMLUNIT
 70
     2
  9
$DIMLWD
 70
    -2
  9
$DIMLWE
 70
    -2
  9
$DIMTMOVE
 70
     0
  9
$DIMFXL
 40
1.0
  9
$DIMFXLON
 70
     0
  9
$DIMJOGANG
 40
0.7853981633974483
  9
$DIMTFILL
 70
     0
  9
$DIMTFILLCLR
 70
     0
  9
$DIMARCSYM
 70
     0
  9
$DIMLTYPE
  6

  9
$DIMLTEX1
  6

  9
$DIMLTEX2
  6

  9
$LUNITS
 70
     2
  9
$LUPREC
 70
     3
  9
$SKETCHINC
 40
0.1
  9
$FILLETRAD
 40
10.0
  9
$AUNITS
 70
     0
  9
$AUPREC
 70
     1
  9
$MENU
  1
.
  9
$ELEVATION
 40
0.0
  9
$PELEVATION
 40
0.0
  9
$THICKNESS
 40
0.0
  9
$LIMCHECK
 70
     0
  9
$CHAMFERA
 40
6.0
  9
$CHAMFERB
 40
6.0
  9
$CHAMFERC
 40
0.0
  9
$CHAMFERD
 40
0.0
  9
$SKPOLY
 70
     0
  9
$TDCREATE
 40
2453353.758792488
  9
$TDUCREATE
 40
2453353.717125822
  9
$TDUPDATE
 40
2454417.396945694
  9
$TDUUPDATE
 40
2454417.355279028
  9
$TDINDWG
 40
0.1157776968
  9
$TDUSRTIMER
 40
0.1157776968
  9
$USRTIMER
 70
     1
  9
$ANGBASE
 50
0.0
  9
$ANGDIR
 70
     0
  9
$PDMODE
 70
     2
  9
$PDSIZE
 40
-0.01
  9
$PLINEWID
 40
0.0
  9
$SPLFRAME
 70
     0
  9
$SPLINETYPE
 70
     6
  9
$SPLINESEGS
 70
     8
  9
$HANDSEED
  5
130C
  9
$SURFTAB1
 70
     6
  9
$SURFTAB2
 70
     6
  9
$SURFTYPE
 70
     6
  9
$SURFU
 70
     6
  9
$SURFV
 70
     6
  9
$UCSBASE
  2

  9
$UCSNAME
  2

  9
$UCSORG
 10
0.0
 20
0.0
 30
0.0
  9
$UCSXDIR
 10
1.0
 20
0.0
 30
0.0
  9
$UCSYDIR
 10
0.0
 20
1.0
 30
0.0
  9
$UCSORTHOREF
  2

  9
$UCSORTHOVIEW
 70
     0
  9
$UCSORGTOP
 10
0.0
 20
0.0
 30
0.0
  9
$UCSORGBOTTOM
 10
0.0
 20
0.0
 30
0.0
  9
$UCSORGLEFT
 10
0.0
 20
0.0
 30
0.0
  9
$UCSORGRIGHT
 10
0.0
 20
0.0
 30
0.0
  9
$UCSORGFRONT
 10
0.0
 20
0.0
 30
0.0
  9
$UCSORGBACK
 10
0.0
 20
0.0
 30
0.0
  9
$PUCSBASE
  2

  9
$PUCSNAME
  2

  9
$PUCSORG
 10
0.0
 20
0.0
 30
0.0
  9
$PUCSXDIR
 10
1.0
 20
0.0
 30
0.0
  9
$PUCSYDIR
 10
0.0
 20
1.0
 30
0.0
  9
$PUCSORTHOREF
  2

  9
$PUCSORTHOVIEW
 70
     0
  9
$PUCSORGTOP
 10
0.0
 20
0.0
 30
0.0
  9
$PUCSORGBOTTOM
 10
0.0
 20
0.0
 30
0.0
  9
$PUCSORGLEFT
 10
0.0
 20
0.0
 30
0.0
  9
$PUCSORGRIGHT
 10
0.0
 20
0.0
 30
0.0
  9
$PUCSORGFRONT
 10
0.0
 20
0.0
 30
0.0
  9
$PUCSORGBACK
 10
0.0
 20
0.0
 30
0.0
  9
$USERI1
 70
     0
  9
$USERI2
 70
     0
  9
$USERI3
 70
     0
  9
$USERI4
 70
     0
  9
$USERI5
 70
     0
  9
$USERR1
 40
0.0
  9
$USERR2
 40
0.0
  9
$USERR3
 40
0.0
  9
$USERR4
 40
0.0
  9
$USERR5
 40
0.0
  9
$WORLDVIEW
 70
     1
  9
$SHADEDGE
 70
     3
  9
$SHADEDIF
 70
    70
  9
$TILEMODE
 70
     1
  9
$MAXACTVP
 70
    16
  9
$PINSBASE
 10
0.0
 20
0.0
 30
0.0
  9
$PLIMCHECK
 70
     0
  9
$PEXTMIN
 10
1.000000000000000E+20
 20
1.000000000000000E+20
 30
1.000000000000000E+20
  9
$PEXTMAX
 10
-1.000000000000000E+20
 20
-1.000000000000000E+20
 30
-1.000000000000000E+20
  9
$PLIMMIN
 10
0.0
 20
0.0
  9
$PLIMMAX
 10
12.0
 20
9.0
  9
$UNITMODE
 70
     0
  9
$VISRETAIN
 70
     0
  9
$PLINEGEN
 70
     1
  9
$PSLTSCALE
 70
     0
  9
$TREEDEPTH
 70
  3020
  9
$CMLSTYLE
  2
Standard
  9
$CMLJUST
 70
     0
  9
$CMLSCALE
 40
1.0
  9
$PROXYGRAPHICS
 70
     1
  9
$MEASUREMENT
 70
     0
  9
$CELWEIGHT
370
    -1
  9
$ENDCAPS
280
     0
  9
$JOINSTYLE
280
     0
  9
$LWDISPLAY
290
     0
  9
$INSUNITS
 70
     0
  9
$HYPERLINKBASE
  1

  9
$STYLESHEET
  1

  9
$XEDIT
290
     0
  9
$CEPSNTYPE
380
     0
  9
$PSTYLEMODE
290
     1
  9
$FINGERPRINTGUID
  2
{D453841C-06DF-11D4-B82A-0060B0CEDD4B}
  9
$VERSIONGUID
  2
{CA2339E5-4DC8-46B3-9824-E63A8B9754AB}
  9
$EXTNAMES
290
     1
  9
$PSVPSCALE
 40
0.0
  9
$OLESTARTUP
290
     0
  9
$SORTENTS
280
   127
  9
$INDEXCTL
280
     0
  9
$HIDETEXT
280
     1
  9
$XCLIPFRAME
290
     0
  9
$HALOGAP
280
     0
  9
$OBSCOLOR
 70
   257
  9
$OBSLTYPE
280
     0
  9
$INTERSECTIONDISPLAY
280
     0
  9
$INTERSECTIONCOLOR
 70
   257
  9
$DIMASSOC
280
     2
  9
$PROJECTNAME
  1

  9
$CAMERADISPLAY
290
     0
  9
$LENSLENGTH
 40
50.0
  9
$CAMERAHEIGHT
 40
0.0
  9
$STEPSPERSEC
 40
2.0
  9
$STEPSIZE
 40
6.0
  9
$3DDWFPREC
 40
2.0
  9
$PSOLWIDTH
 40
0.25
  9
$PSOLHEIGHT
 40
4.0
  9
$LOFTANG1
 40
1.570796326794897
  9
$LOFTANG2
 40
1.570796326794897
  9
$LOFTMAG1
 40
0.0
  9
$LOFTMAG2
 40
0.0
  9
$LOFTPARAM
 70
     7
  9
$LOFTNORMALS
280
     1
  9
$LATITUDE
 40
37.795
  9
$LONGITUDE
 40
-122.394
  9
$NORTHDIRECTION
 40
0.0
  9
$TIMEZONE
 70
 -8000
  9
$LIGHTGLYPHDISPLAY
280
     1
  9
$TILEMODELIGHTSYNCH
280
     1
  9
$SOLIDHIST
280
     1
  9
$SHOWHIST
280
     1
  9
$DWFFRAME
280
     2
  9
$DGNFRAME
280
     2
  9
$REALWORLDSCALE
290
     1
  9
$INTERFERECOLOR
 62
   256
  9
$CSHADOW
280
     0
  9
$SHADOWPLANELOCATION
 40
0.0
  0
ENDSEC
  0
SECTION
  2
CLASSES
  0
CLASS
  1
ACDBDICTIONARYWDFLT
  2
AcDbDictionaryWithDefault
  3
ObjectDBX Classes
 90
        0
 91
        3
280
     0
281
     0
  0
CLASS
  1
ACDBPLACEHOLDER
  2
AcDbPlaceHolder
  3
ObjectDBX Classes
 90
        0
 91
        1
280
     0
281
     0
  0
CLASS
  1
LAYOUT
  2
AcDbLayout
  3
ObjectDBX Classes
 90
        0
 91
        1
280
     0
281
     0
  0
CLASS
  1
DICTIONARYVAR
  2
AcDbDictionaryVar
  3
ObjectDBX Classes
 90
        0
 91
        3
280
     0
281
     0
  0
CLASS
  1
TABLESTYLE
  2
AcDbTableStyle
  3
ObjectDBX Classes
 90
     4095
 91
        3
280
     0
281
     0
  0
ENDSEC
  0
SECTION
  2
TABLES
  0
TABLE
  2
VPORT
  5
8
330
0
100
AcDbSymbolTable
 70
     1
  0
VPORT
  5
97
330
8
100
AcDbSymbolTableRecord
100
AcDbViewportTableRecord
  2
*Active
 70
     0
 10
0.0
 20
0.0
 11
1.0
 21
1.0
 12
907.5489047734412
 22
662.6768605593672
 13
0.0
 23
0.0
 14
1.0
 24
1.0
 15
0.0
 25
0.0
 16
0.0
 26
0.0
 36
1.0
 17
0.0
 27
0.0
 37
0.0
 40
1335.432219860348
 41
1.487654320987654
 42
50.0
 43
0.0
 44
0.0
 50
0.0
 51
0.0
 71
    16
 72
   100
 73
     1
 74
     1
 75
     0
 76
     0
 77
     0
 78
     0
281
     0
 65
     0
110
0.0
120
0.0
130
0.0
111
1.0
121
0.0
131
0.0
112
0.0
122
1.0
132
0.0
 79
     0
146
0.0
 60
     3
 61
     5
292
     1
282
     1
141
0.0
142
0.0
 63
   256
  0
ENDTAB
  0
TABLE
  2
LTYPE
  5
5
330
0
100
AcDbSymbolTable
 70
     2
  0
LTYPE
  5
14
330
5
100
AcDbSymbolTableRecord
100
AcDbLinetypeTableRecord
  2
ByBlock
 70
     0
  3

 72
    65
 73
     0
 40
0.0
  0
LTYPE
  5
15
330
5
100
AcDbSymbolTableRecord
100
AcDbLinetypeTableRecord
  2
ByLayer
 70
     0
  3

 72
    65
 73
     0
 40
0.0
  0
LTYPE
  5
16
330
5
100
AcDbSymbolTableRecord
100
AcDbLinetypeTableRecord
  2
Continuous
 70
     0
  3
Solid line
 72
    65
 73
     0
 40
0.0
  0
LTYPE
  5
12FA
330
5
100
AcDbSymbolTableRecord
100
AcDbLinetypeTableRecord
  2
CENTER
 70
     0
  3
____ _ ____ _ ____ _ ____ _ ____ _ ____ _ ____
 72
    65
 73
     4
 40
2.0
 49
1.25
 74
     4
 75
     0
340
0
 46
1.0
 50
0.0
 44
0.0
 45
0.0
 49
-0.25
 74
     4
 75
     0
340
0
 46
1.0
 50
0.0
 44
0.0
 45
0.0
 49
0.25
 74
     4
 75
     0
340
0
 46
1.0
 50
0.0
 44
0.0
 45
0.0
 49
-0.25
 74
     4
 75
     0
340
0
 46
1.0
 50
0.0
 44
0.0
 45
0.0
  0
ENDTAB
  0
TABLE
  2
LAYER
  5
2
330
0
100
AcDbSymbolTable
 70
    10
  0
LAYER
  5
10
330
2
100
AcDbSymbolTableRecord
100
AcDbLayerTableRecord
  2
0
 70
     0
 62
     7
  6
Continuous
370
    -3
390
F
347
0
  0
LAYER
  5
F1
330
2
100
AcDbSymbolTableRecord
100
AcDbLayerTableRecord
  2
DIM
 70
     0
 62
   250
  6
Continuous
370
    -3
390
F
347
0
  0
LAYER
  5
F05
330
2
100
AcDbSymbolTableRecord
100
AcDbLayerTableRecord
  2
TIT07
 70
     0
 62
   250
  6
Continuous
370
    -3
390
F
347
0
  0
LAYER
  5
F06
330
2
100
AcDbSymbolTableRecord
100
AcDbLayerTableRecord
  2
TIT02
 70
     0
 62
   250
  6
Continuous
370
    -3
390
F
347
0
  0
LAYER
  5
F07
330
2
100
AcDbSymbolTableRecord
100
AcDbLayerTableRecord
  2
TITTEXT
 70
     0
 62
   250
  6
Continuous
370
    -3
390
F
347
0
  0
LAYER
  5
F08
330
2
100
AcDbSymbolTableRecord
100
AcDbLayerTableRecord
  2
TIT5
 70
     0
 62
   250
  6
Continuous
370
    -3
390
F
347
0
  0
LAYER
  5
F09
330
2
100
AcDbSymbolTableRecord
100
AcDbLayerTableRecord
  2
TIT3
 70
     0
 62
   250
  6
Continuous
370
    -3
390
F
347
0
  0
LAYER
  5
F0A
330
2
100
AcDbSymbolTableRecord
100
AcDbLayerTableRecord
  2
TITLOGO
 70
     0
 62
   250
  6
Continuous
370
    -3
390
F
347
0
  0
LAYER
  5
FA8
330
2
100
AcDbSymbolTableRecord
100
AcDbLayerTableRecord
  2
Defpoints
 70
     0
 62
   250
  6
Continuous
290
     0
370
    -3
390
F
347
0
  0
LAYER
  5
10E2
330
2
100
AcDbSymbolTableRecord
100
AcDbLayerTableRecord
  2
KONTUR
 70
     0
 62
   250
  6
Continuous
370
    -3
390
F
347
0
  0
ENDTAB
  0
TABLE
  2
STYLE
  5
3
330
0
100
AcDbSymbolTable
 70
     2
  0
STYLE
  5
11
330
3
100
AcDbSymbolTableRecord
100
AcDbTextStyleTableRecord
  2
Standard
 70
     0
 40
0.0
 41
1.0
 50
0.0
 71
     0
 42
1.0
  3
romans.shx
  4

  0
STYLE
  5
F0B
330
3
100
AcDbSymbolTableRecord
100
AcDbTextStyleTableRecord
  2
ROMANC
 70
     0
 40
0.0
 41
1.0
 50
0.0
 71
     0
 42
4.9913929970647
  3
romanc
  4

  0
ENDTAB
  0
TABLE
  2
VIEW
  5
6
330
0
100
AcDbSymbolTable
 70
     0
  0
ENDTAB
  0
TABLE
  2
UCS
  5
7
330
0
100
AcDbSymbolTable
 70
     0
  0
ENDTAB
  0
TABLE
  2
APPID
  5
9
330
0
100
AcDbSymbolTable
 70
     2
  0
APPID
  5
12
330
9
100
AcDbSymbolTableRecord
100
AcDbRegAppTableRecord
  2
ACAD
 70
     0
  0
APPID
  5
12F9
330
9
100
AcDbSymbolTableRecord
100
AcDbRegAppTableRecord
  2
DCO15
 70
     0
  0
ENDTAB
  0
TABLE
  2
DIMSTYLE
  5
A
330
0
100
AcDbSymbolTable
 70
     2
100
AcDbDimStyleTable
  0
DIMSTYLE
105
27
330
A
100
AcDbSymbolTableRecord
100
AcDbDimStyleTableRecord
  2
Standard
 70
     0
 41
0.125
 43
0.25
 44
0.125
 47
0.005
 48
-0.005
140
3.0
147
0.0625
171
     0
172
     1
271
     3
272
     3
274
     0
279
     2
340
11
  0
DIMSTYLE
105
FA6
102
{ACAD_REACTORS
330
FA7
330
FD7
330
FE4
330
FF1
330
10CF
330
11D0
102
}
330
A
100
AcDbSymbolTableRecord
100
AcDbDimStyleTableRecord
  2
Dimensjoner
 70
     0
 40
5.0
 41
3.5
 42
1.0
 43
1.25
 44
1.0
 45
0.01
 73
     0
 74
     0
 77
     1
 78
     3
140
3.5
143
1.0
147
2.0
172
     1
271
     0
272
     0
340
11
  0
ENDTAB
  0
TABLE
  2
BLOCK_RECORD
  5
1
330
0
100
AcDbSymbolTable
 70
     8
  0
BLOCK_RECORD
  5
1F
330
1
100
AcDbSymbolTableRecord
100
AcDbBlockTableRecord
  2
*Model_Space
340
22
 70
     0
280
     1
281
     0
  0
BLOCK_RECORD
  5
73
330
1
100
AcDbSymbolTableRecord
100
AcDbBlockTableRecord
  2
*Paper_Space
340
74
 70
     0
280
     1
281
     0
  0
BLOCK_RECORD
  5
EC3
330
1
100
AcDbSymbolTableRecord
100
AcDbBlockTableRecord
  2
NYTITTEL
340
0
102
{BLKREFS
331
F99
102
}
 70
     0
280
     1
281
     0
  0
BLOCK_RECORD
  5
FA9
330
1
100
AcDbSymbolTableRecord
100
AcDbBlockTableRecord
  2
*D1
340
0
 70
     0
280
     1
281
     0
  0
BLOCK_RECORD
  5
FD8
330
1
100
AcDbSymbolTableRecord
100
AcDbBlockTableRecord
  2
*D2
340
0
 70
     0
280
     1
281
     0
  0
BLOCK_RECORD
  5
FE5
330
1
100
AcDbSymbolTableRecord
100
AcDbBlockTableRecord
  2
*D3
340
0
 70
     0
280
     1
281
     0
  0
BLOCK_RECORD
  5
FF2
330
1
100
AcDbSymbolTableRecord
100
AcDbBlockTableRecord
  2
*D4
340
0
 70
     0
280
     1
281
     0
  0
BLOCK_RECORD
  5
10D0
330
1
100
AcDbSymbolTableRecord
100
AcDbBlockTableRecord
  2
*D5
340
0
 70
     0
280
     1
281
     0
  0
BLOCK_RECORD
  5
11D1
330
1
100
AcDbSymbolTableRecord
100
AcDbBlockTableRecord
  2
*D6
340
0
 70
     0
280
     1
281
     0
  0
BLOCK_RECORD
  5
12F7
330
1
100
AcDbSymbolTableRecord
100
AcDbBlockTableRecord
  2
*D7
340
0
 70
     0
280
     1
281
     0
  0
ENDTAB
  0
ENDSEC
  0
SECTION
  2
BLOCKS
  0
BLOCK
  5
20
330
1F
100
AcDbEntity
  8
0
100
AcDbBlockBegin
  2
*Model_Space
 70
     0
 71
     0
 10
0.0
 20
0.0
 30
0.0
  3
*Model_Space
  1

  0
ENDBLK
  5
21
330
1F
100
AcDbEntity
  8
0
100
AcDbBlockEnd
  0
BLOCK
  5
75
330
73
100
AcDbEntity
 67
     1
  8
0
100
AcDbBlockBegin
  2
*Paper_Space
 70
     0
 71
     0
 10
0.0
 20
0.0
 30
0.0
  3
*Paper_Space
  1

  0
ENDBLK
  5
76
330
73
100
AcDbEntity
 67
     1
  8
0
100
AcDbBlockEnd
  0
BLOCK
  5
12FB
330
EC3
100
AcDbEntity
  8
0
100
AcDbBlockBegin
  2
NYTITTEL
 70
     2
 71
     0
 10
0.0
 20
0.0
 30
0.0
  3
NYTITTEL
  1

  0
ATTDEF
  5
EC4
330
EC3
100
AcDbEntity
  8
TITTEXT
 62
     1
100
AcDbText
 10
-69.24623194126616
 20
1.491790607145319
 30
0.0
 40
4.7
  1

 41
1.738632422466427
  7
ROMANC
 72
     5
 11
-15.93645018764084
 21
1.491790607145319
 31
0.0
100
AcDbAttributeDefinition
  3
Gi tegn.nr.
  2
TEGN.NR
 70
     0
280
     0
  0
ATTDEF
  5
EC5
330
EC3
100
AcDbEntity
  8
TITTEXT
 62
     1
100
AcDbText
 10
-141.7326973393061
 20
40.82533385387639
 30
0.0
 40
4.0
  1

 41
1.6809390643035
 72
     5
 11
-118.0394610043615
 21
40.82533385387639
 31
0.0
100
AcDbAttributeDefinition
  3
Gi dato
  2
DATO
 70
     0
280
     0
  0
ATTDEF
  5
EC6
330
EC3
100
AcDbEntity
  8
TITTEXT
 62
     1
100
AcDbText
 10
-180.2579999369871
 20
20.22593149532933
 30
0.0
 40
4.0
  1

100
AcDbAttributeDefinition
  3
GI tekst 1 av 3
  2
LINJE1
 70
     0
280
     0
  0
ATTDEF
  5
EC7
330
EC3
100
AcDbEntity
  8
TITTEXT
 62
     1
100
AcDbText
 10
-180.5697530466574
 20
11.47457660127472
 30
0.0
 40
4.0
  1

100
AcDbAttributeDefinition
  3
Gi text 2 av 3
  2
LINJE2
 70
     0
280
     0
  0
ATTDEF
  5
EC8
330
EC3
100
AcDbEntity
  8
TITTEXT
 62
     1
100
AcDbText
 10
-180.5697530466574
 20
2.821736678261829
 30
0.0
 40
4.0
  1

  7
ROMANC
100
AcDbAttributeDefinition
  3
Gi text 3 av 3
  2
LINJE3
 70
     0
280
     0
  0
ATTDEF
  5
EC9
330
EC3
100
AcDbEntity
  8
TITTEXT
 62
     1
100
AcDbText
 10
-181.6496312696722
 20
40.79546677293718
 30
0.0
 40
4.0
  1
NS 1430 Grov
 41
0.8357298030664062
 72
     5
 11
-144.8775199347503
 21
40.79546677293718
 31
0.0
100
AcDbAttributeDefinition
  3
Gi toleranse
  2
TOLERANSE
 70
     0
280
     0
  0
TEXT
  5
ECA
330
EC3
100
AcDbEntity
  8
TITTEXT
  6
Continuous
100
AcDbText
 10
-69.10343731001751
 20
8.626187841844711
 30
0.0
 40
2.0
  1
Tegn.Nr
100
AcDbText
  0
TEXT
  5
ECB
330
EC3
100
AcDbEntity
  8
TITTEXT
  6
Continuous
100
AcDbText
 10
-141.6055620444255
 20
47.29186086155432
 30
0.0
 40
2.0
  1
Dato
100
AcDbText
  0
TEXT
  5
ECC
330
EC3
100
AcDbEntity
  8
TITTEXT
  6
Continuous
100
AcDbText
 10
-91.55191673091852
 20
47.18445351569319
 30
0.0
 40
2.0
  1
Målestokk
 41
1.461509461800674
 72
     5
 11
-70.85694275182098
 21
47.18445351569319
 31
0.0
100
AcDbText
  0
LINE
  5
ECD
330
EC3
100
AcDbEntity
  8
TIT5
  6
Continuous
100
AcDbLine
 10
-69.96039999999994
 20
50.0676
 30
0.0
 11
-69.96040000000005
 21
0.0
 31
0.0
  0
LINE
  5
ECE
330
EC3
100
AcDbEntity
  8
TIT5
  6
Continuous
100
AcDbLine
 10
0.0
 20
50.0676
 30
0.0
 11
-182.9195568377425
 21
50.0676
 31
0.0
  0
LINE
  5
ECF
330
EC3
100
AcDbEntity
  8
TIT5
  6
Continuous
100
AcDbLine
 10
0.0
 20
29.982
 30
0.0
 11
-182.9195568377425
 21
29.982
 31
0.0
  0
LINE
  5
ED0
330
EC3
100
AcDbEntity
  8
TIT3
100
AcDbLine
 10
-21.51400939457073
 20
11.482
 30
0.0
 11
-21.51400939457073
 21
29.982
 31
0.0
  0
LINE
  5
ED1
330
EC3
100
AcDbEntity
  8
TIT3
100
AcDbLine
 10
-92.92514395021168
 20
40.0248
 30
0.0
 11
-182.9195568377425
 21
40.0248
 31
0.0
  0
LINE
  5
ED2
330
EC3
100
AcDbEntity
  8
TIT3
100
AcDbLine
 10
-114.5680053875333
 20
29.982
 30
0.0
 11
-114.5680053875332
 21
50.0676
 31
0.0
  0
LINE
  5
ED3
330
EC3
100
AcDbEntity
  8
TIT3
100
AcDbLine
 10
-142.8771568377425
 20
50.0676
 30
0.0
 11
-142.8771568377425
 21
29.982
 31
0.0
  0
TEXT
  5
ED4
330
EC3
100
AcDbEntity
  8
TITTEXT
100
AcDbText
 10
-181.167086450043
 20
46.90759060821532
 30
0.0
 40
2.0
  1
Toleranse
 72
     2
 11
-167.487086450043
 21
46.90759060821532
 31
0.0
100
AcDbText
  0
TEXT
  5
ED5
330
EC3
100
AcDbEntity
  8
TITTEXT
100
AcDbText
 10
-113.1770069197315
 20
47.00610557925702
 30
0.0
 40
2.0
  1
Godkj.
 72
     2
 11
-104.4170069197315
 21
47.00610557925702
 31
0.0
100
AcDbText
  0
TEXT
  5
ED6
330
EC3
100
AcDbEntity
  8
TITTEXT
100
AcDbText
 10
-113.1524146752855
 20
36.855850712696
 30
0.0
 40
2.0
  1
Sign.
 72
     2
 11
-106.3124146752855
 21
36.855850712696
 31
0.0
100
AcDbText
  0
TEXT
  5
ED7
330
EC3
100
AcDbEntity
  8
TITTEXT
100
AcDbText
 10
-20.801715864528
 20
17.71289834513043
 30
0.0
 40
2.0
  1
Erst. for
 72
     2
 11
-7.961715864528003
 21
17.71289834513043
 31
0.0
100
AcDbText
  0
TEXT
  5
ED8
330
EC3
100
AcDbEntity
  8
TITTEXT
100
AcDbText
 10
-20.80805041591818
 20
26.91904293740981
 30
0.0
 40
2.0
  1
Erst. av
 72
     2
 11
-8.908050415918183
 21
26.91904293740981
 31
0.0
100
AcDbText
  0
LINE
  5
ED9
330
EC3
100
AcDbEntity
  8
TIT3
100
AcDbLine
 10
0.0
 20
20.732
 30
0.0
 11
-21.51400939457073
 21
20.732
 31
0.0
  0
LINE
  5
EDA
330
EC3
100
AcDbEntity
  8
TIT5
100
AcDbLine
 10
-69.96040000000005
 20
11.482
 30
0.0
 11
0.0
 21
11.482
 31
0.0
  0
TEXT
  5
EDB
330
EC3
100
AcDbEntity
  8
TITTEXT
100
AcDbText
 10
-141.555008927983
 20
36.86986493459284
 30
0.0
 40
2.0
  1
Henvisning
100
AcDbText
  0
LINE
  5
EDC
330
EC3
100
AcDbEntity
  8
TIT3
  6
Continuous
100
AcDbLine
 10
-12.0
 20
0.0
 30
0.0
 11
-12.0
 21
11.482
 31
0.0
  0
TEXT
  5
EDD
330
EC3
100
AcDbEntity
  8
TITTEXT
100
AcDbText
 10
-10.82279055378638
 20
8.45347094915094
 30
0.0
 40
2.0
  1
Rev.
 41
1.392711486499723
 72
     5
 11
-2.717209702357991
 21
8.45347094915094
 31
0.0
100
AcDbText
  0
LINE
  5
EDE
330
EC3
100
AcDbEntity
  8
TITLOGO
100
AcDbLine
 10
-48.97099281931298
 20
39.71625216430618
 30
0.0
 11
-48.97099281931298
 21
39.71625216430618
 31
0.0
  0
LWPOLYLINE
  5
EDF
330
EC3
100
AcDbEntity
  8
TITLOGO
100
AcDbPolyline
 90
        4
 70
     1
 43
0.0
 10
-55.12924281931294
 20
47.1941271643062
 10
-52.3433678193129
 20
47.1941271643062
 10
-52.34336781931302
 20
44.40825216430619
 10
-55.12924281931294
 20
44.40825216430619
  0
LWPOLYLINE
  5
EE0
330
EC3
100
AcDbEntity
  8
TITLOGO
100
AcDbPolyline
 90
        4
 70
     1
 43
0.0
 10
-55.12924281931294
 20
43.67512716430619
 10
-52.34336781931302
 20
43.67512716430619
 10
-52.34336781931302
 20
34.14450216430619
 10
-55.12924281931294
 20
34.14450216430619
  0
LWPOLYLINE
  5
EE1
330
EC3
100
AcDbEntity
  8
TITLOGO
100
AcDbPolyline
 90
       16
 70
     1
 43
0.0
 10
-42.66611781931294
 20
43.67512716430619
 10
-43.83911781931306
 20
43.67512716430619
 10
-43.83911781931295
 20
41.18250216430617
 10
-42.66611781931294
 20
41.18250216430617
 10
-42.66611781931306
 20
36.19725216430621
 42
0.4142135623730943
 10
-40.613367819313
 20
34.14450216430619
 10
-38.70724281931291
 20
34.14450216430619
 10
-38.70724281931291
 20
36.49050216430619
 10
-39.29374281931291
 20
36.49050216430619
 42
-0.414213562373095
 10
-39.88024281931291
 20
37.07700216430621
 10
-39.88024281931291
 20
41.18250216430617
 10
-38.70724281931291
 20
41.18250216430617
 10
-38.70724281931291
 20
43.67512716430619
 10
-39.88024281931291
 20
43.67512716430619
 10
-39.88024281931291
 20
46.60762716430621
 10
-42.66611781931294
 20
46.60762716430621
  0
LWPOLYLINE
  5
EE2
330
EC3
100
AcDbEntity
  8
TITLOGO
100
AcDbPolyline
 90
       10
 70
     1
 43
0.0
 10
-38.26736781931299
 20
34.14450216430619
 10
-38.26736781931299
 20
43.67512716430619
 10
-35.48149281931296
 20
43.67512716430619
 10
-35.48149281931296
 20
42.35550216430617
 42
-0.2543787227385051
 10
-33.64884860200516
 20
43.67512716430581
 10
-32.69561781931293
 20
43.67512716430619
 10
-32.69561781931293
 20
41.32912716430619
 10
-32.98886781931299
 20
41.32912716430619
 42
0.3905993853567616
 10
-35.48149281931296
 20
38.5432521643062
 10
-35.48149281931296
 20
34.14450216430619
  0
LWPOLYLINE
  5
EE3
330
EC3
100
AcDbEntity
  8
TITLOGO
100
AcDbPolyline
 90
       20
 70
     0
 43
0.0
 10
-29.7166282987223
 20
41.2507466290658
 42
0.379473448914867
 10
-30.34961781931293
 20
40.59600216430619
 10
-32.98886781931299
 20
40.59600216430619
 10
-32.69561781931293
 20
41.32912716430619
 42
-0.3274066131215764
 10
-29.90974281931301
 20
43.67512716430615
 10
-27.85699281931295
 20
43.67512716430613
 42
-0.3949778487510142
 10
-24.48461781931292
 20
40.59600216430614
 10
-24.48461781931292
 20
35.25209684983969
 42
0.056951946194459
 10
-24.43169652505594
 20
34.78899026363499
 10
-24.28245040078912
 20
34.14450216430619
 10
-27.06832540078904
 20
34.14450216430619
 10
-27.27049281931272
 20
35.01751977833575
 42
-0.2186532576860458
 10
-29.19699427028706
 20
34.14450216430619
 10
-30.49624148385089
 20
34.1445021643065
 42
-0.9196372788771361
 10
-30.98472860966478
 20
39.968530805462
 10
-27.63709495076023
 20
40.37310096542402
 42
0.3660032853380205
 10
-27.27049281931295
 20
40.80683026159738
 10
-27.27049281931295
 20
40.71903256884092
 42
0.3043116803459277
 10
-27.63446517915713
 20
41.26167766406107
 42
0.2561420566528492
 10
-29.72739989511786
 20
41.24620470614481
 42
0.2000773934777471
  0
ARC
  5
EE4
330
EC3
100
AcDbEntity
  8
TITLOGO
100
AcDbCircle
 10
-30.34066159576798
 20
37.34328841538027
 30
0.0
 40
0.3034067324656107
100
AcDbArc
 50
112.4246900569293
 51
174.9013990403172
  0
ARC
  5
EE5
330
EC3
100
AcDbEntity
  8
TITLOGO
100
AcDbCircle
 10
-28.38728647747325
 20
37.60489579890201
 30
0.0
 40
1.11679367081117
100
AcDbArc
 50
266.2430288263793
 51
359.9913759562492
  0
LWPOLYLINE
  5
EE6
330
EC3
100
AcDbEntity
  8
TITLOGO
100
AcDbPolyline
 90
        3
 70
     0
 43
0.0
 10
-30.64286781931298
 20
37.37025216430618
 42
0.4142135623730885
 10
-29.76311781931304
 20
36.49050216430619
 10
-28.31410908797761
 20
36.49050216430619
 42
0.457422358137597
  0
LWPOLYLINE
  5
EE7
330
EC3
100
AcDbEntity
  8
TITLOGO
100
AcDbPolyline
 90
        4
 70
     0
 43
0.0
 10
-27.27049281931295
 20
37.60472770354154
 10
-27.27049281931295
 20
38.30191291453687
 42
-0.1626173210226224
 10
-27.6072839686268
 20
38.10949600017294
 10
-30.45640178244582
 20
37.62375205740504
 42
0.5166139189045675
  0
LWPOLYLINE
  5
EE8
330
EC3
100
AcDbEntity
  8
TITLOGO
100
AcDbPolyline
 90
       10
 70
     1
 43
0.0
 10
-46.62499281931298
 20
39.71625216430618
 42
1.007843017112507
 10
-48.97099281931298
 20
39.71625216430618
 10
-48.97099281931298
 20
34.14450216430619
 10
-51.75686781931302
 20
34.14450216430619
 10
-51.75686781931302
 20
43.67512716430619
 10
-48.97099281931298
 20
43.67512716430619
 10
-48.97099281931298
 20
42.64875216430619
 42
-0.7714530828112528
 10
-44.132367819313
 20
40.44937716430618
 10
-44.132367819313
 20
34.14450216430619
 10
-46.62499281931298
 20
34.14450216430619
  0
CIRCLE
  5
EE9
330
EC3
100
AcDbEntity
  8
TITLOGO
100
AcDbCircle
 10
-22.44423780561078
 20
44.97010325138288
 30
0.0
 40
2.199375
  0
TEXT
  5
EEA
330
EC3
100
AcDbEntity
  8
TITLOGO
100
AcDbText
 10
-23.45256040100139
 20
43.92676991234262
 30
0.0
 40
1.720685780777585
  1
R
 41
1.224347040717559
 72
     5
 11
-21.64078417341955
 21
43.92676991234262
 31
0.0
100
AcDbText
  0
LINE
  5
EEB
330
EC3
100
AcDbEntity
  8
TIT3
100
AcDbLine
 10
-92.92514395021173
 20
29.982
 30
0.0
 11
-92.92514395021162
 21
50.0676
 31
0.0
  0
ATTDEF
  5
EEC
330
EC3
100
AcDbEntity
  8
TITTEXT
 62
     1
100
AcDbText
 10
-90.75296647038938
 20
39.92102544559865
 30
0.0
 40
4.0
  1
1 : 1
 41
1.133746097432732
 72
     5
 11
-72.8289805490719
 21
39.92102544559865
 31
0.0
100
AcDbAttributeDefinition
  3
GI MÅLESTOKK
  2
MÅLESTOKK
 70
     0
280
     0
  0
TEXT
  5
EED
330
EC3
100
AcDbEntity
  8
TITTEXT
100
AcDbText
 10
-181.3611936703865
 20
36.87468455854161
 30
0.0
 40
2.0
  1
File
 72
     2
 11
-176.7011936703865
 21
36.87468455854161
 31
0.0
100
AcDbText
  0
LINE
  5
EEE
330
EC3
100
AcDbEntity
  8
TIT3
100
AcDbLine
 10
-162.7174095923384
 20
40.0248
 30
0.0
 11
-162.7174095923384
 21
29.982
 31
0.0
  0
TEXT
  5
EEF
330
EC3
100
AcDbEntity
  8
TITTEXT
100
AcDbText
 10
-161.5699039480799
 20
36.87468455854161
 30
0.0
 40
1.7
  1
CAD-Drawing
 72
     2
 11
-145.1479039480799
 21
36.87468455854161
 31
0.0
100
AcDbText
  0
CIRCLE
  5
EF0
330
EC3
100
AcDbEntity
  8
TITTEXT
 62
     1
100
AcDbCircle
 10
-156.2095991825164
 20
32.99490621920847
 30
0.0
 40
2.0
  0
CIRCLE
  5
EF1
330
EC3
100
AcDbEntity
  8
TITTEXT
 62
     1
100
AcDbCircle
 10
-156.2095991825164
 20
32.99490621920847
 30
0.0
 40
1.0
  0
LINE
  5
EF2
330
EC3
100
AcDbEntity
  8
TITTEXT
 62
     1
100
AcDbLine
 10
-151.7059835265652
 20
34.99490621920848
 30
0.0
 11
-151.7059835265652
 21
30.99490621920847
 31
0.0
  0
LINE
  5
EF3
330
EC3
100
AcDbEntity
  8
TITTEXT
 62
     1
100
AcDbLine
 10
-147.7059835265652
 20
33.99490621920847
 30
0.0
 11
-147.7059835265652
 21
31.99490621920847
 31
0.0
  0
LINE
  5
EF4
330
EC3
100
AcDbEntity
  8
TITTEXT
 62
     1
100
AcDbLine
 10
-151.7059835265652
 20
34.99490621920847
 30
0.0
 11
-147.7059835265652
 21
33.99490621920847
 31
0.0
  0
LINE
  5
EF5
330
EC3
100
AcDbEntity
  8
TITTEXT
 62
     1
100
AcDbLine
 10
-151.7059835265652
 20
30.99490621920847
 30
0.0
 11
-147.7059835265652
 21
31.99490621920847
 31
0.0
  0
LINE
  5
EF6
330
EC3
100
AcDbEntity
  8
TITTEXT
  6
CENTER
100
AcDbLine
 10
-158.9284650753107
 20
32.99490621920847
 30
0.0
 11
-146.9879424206737
 21
32.99490621920847
 31
0.0
  0
LINE
  5
EF7
330
EC3
100
AcDbEntity
  8
TITTEXT
  6
CENTER
100
AcDbLine
 10
-156.2095991825164
 20
35.71377211200271
 30
0.0
 11
-156.2095991825164
 21
30.27604032641424
 31
0.0
  0
ATTDEF
  5
EF8
330
EC3
100
AcDbEntity
  8
TITTEXT
100
AcDbText
 10
-181.7256497314158
 20
31.90164716256084
 30
0.0
 40
2.0
  1

 41
2.959148619085432
 72
     5
 11
-164.8162290509276
 21
31.90164716256084
 31
0.0
100
AcDbAttributeDefinition
  3
GI FILE
  2
FILE
 70
     0
280
     0
  0
ATTDEF
  5
EF9
330
EC3
100
AcDbEntity
  8
TITTEXT
 62
     1
100
AcDbText
 10
-141.4812285118539
 20
30.85564129955591
 30
0.0
 40
4.0
  1

 41
0.7538389778228805
 72
     5
 11
-115.7789090775119
 21
30.85564129955591
 31
0.0
100
AcDbAttributeDefinition
  3
GI HENVISNING
  2
HENVISNING
 70
     0
280
     0
  0
TEXT
  5
EFA
330
EC3
100
AcDbEntity
  8
TITTEXT
100
AcDbText
 10
-68.96371879326756
 20
27.25314362427463
 30
0.0
 40
1.5
  1
THIS DRAWING AND DESIGN IS THE PROPERTY
 41
0.85
100
AcDbText
  0
TEXT
  5
EFB
330
EC3
100
AcDbEntity
  8
TITTEXT
100
AcDbText
 10
-68.96371879326756
 20
24.75314362427463
 30
0.0
 40
1.5
  1
OF INTRA AND MUST NOT BE IMPARTED TO ANY
 41
0.82
100
AcDbText
  0
TEXT
  5
EFC
330
EC3
100
AcDbEntity
  8
TITTEXT
100
AcDbText
 10
-68.96371879326756
 20
22.25314362427463
 30
0.0
 40
1.5
  1
THIRD PART WITHOUT PERMISSION.
 41
0.85
100
AcDbText
  0
TEXT
  5
EFD
330
EC3
100
AcDbEntity
  8
TITTEXT
100
AcDbText
 10
-68.96371879326756
 20
18.19084504124961
 30
0.0
 40
1.5
  1
DENNE TEGNING OG DESIGN TILHØRER INTRA OG
 41
0.82
100
AcDbText
  0
TEXT
  5
EFE
330
EC3
100
AcDbEntity
  8
TITTEXT
100
AcDbText
 10
-68.96371879326756
 20
15.69084504124961
 30
0.0
 40
1.5
  1
MÅ IKKE KOPIERES, UTLEVERES, ELLER FORE-
 41
0.85
100
AcDbText
  0
TEXT
  5
EFF
330
EC3
100
AcDbEntity
  8
TITTEXT
100
AcDbText
 10
-68.96371879326756
 20
13.19084504124961
 30
0.0
 40
1.5
  1
LEGGES ANDRE UTEN INTRA'S SAMTYKKE.
 41
0.85
100
AcDbText
  0
ATTDEF
  5
F00
330
EC3
100
AcDbEntity
  8
TITTEXT
 62
     1
100
AcDbText
 10
-7.653938137620543
 20
1.456156026929595
 30
0.0
 40
5.0
  1

 41
0.8
100
AcDbAttributeDefinition
  3
GI REVISJONSNR
  2
REV
 70
     0
280
     0
  0
LINE
  5
F01
330
EC3
100
AcDbEntity
  8
TIT5
100
AcDbLine
 10
-182.9195568377425
 20
50.0676
 30
0.0
 11
-182.9195568377425
 21
0.0
 31
0.0
  0
ENDBLK
  5
12FC
330
EC3
100
AcDbEntity
  8
0
100
AcDbBlockEnd
  0
BLOCK
  5
12FD
330
FA9
100
AcDbEntity
  8
0
100
AcDbBlockBegin
  2
*D1
 70
     1
 71
     0
 10
0.0
 20
0.0
 30
0.0
  3
*D1
  1

  0
LINE
  5
11E6
330
FA9
100
AcDbEntity
  8
DIM
 62
     0
370
    -2
100
AcDbLine
 10
262.3015924253764
 20
846.025138005409
 30
0.0
 11
308.6728271699794
 21
846.025138005409
 31
0.0
  0
LINE
  5
11E7
330
FA9
100
AcDbEntity
  8
DIM
 62
     0
370
    -2
100
AcDbLine
 10
254.3274374253764
 20
1146.025138005409
 30
0.0
 11
308.6728271699794
 21
1146.025138005409
 31
0.0
  0
LINE
  5
11E8
330
FA9
100
AcDbEntity
  8
DIM
 62
     0
370
    -2
100
AcDbLine
 10
303.6728271699794
 20
863.525138005409
 30
0.0
 11
303.6728271699794
 21
1128.525138005409
 31
0.0
  0
SOLID
  5
11E9
330
FA9
100
AcDbEntity
  8
DIM
 62
     0
100
AcDbTrace
 10
300.7561605033127
 20
863.525138005409
 30
0.0
 11
306.5894938366461
 21
863.525138005409
 31
0.0
 12
303.6728271699794
 22
846.025138005409
 32
0.0
 13
303.6728271699794
 23
846.025138005409
 33
0.0
  0
SOLID
  5
11EA
330
FA9
100
AcDbEntity
  8
DIM
 62
     0
100
AcDbTrace
 10
300.7561605033127
 20
1128.525138005409
 30
0.0
 11
306.5894938366461
 21
1128.525138005409
 31
0.0
 12
303.6728271699794
 22
1146.025138005409
 32
0.0
 13
303.6728271699794
 23
1146.025138005409
 33
0.0
  0
MTEXT
  5
11EB
330
FA9
100
AcDbEntity
  8
DIM
 62
     0
100
AcDbMText
 10
284.9228271699793
 20
996.025138005409
 30
0.0
 40
17.5
 41
0.0
 46
0.0
 71
     5
 72
     1
  1
\A1;285
 11
6.123031769111886E-17
 21
1.0
 31
0.0
 73
     1
 44
1.0
  0
POINT
  5
11EC
330
FA9
100
AcDbEntity
  8
Defpoints
 62
     0
100
AcDbPoint
 10
257.3015924253764
 20
846.025138005409
 30
0.0
  0
POINT
  5
11ED
330
FA9
100
AcDbEntity
  8
Defpoints
 62
     0
100
AcDbPoint
 10
249.3274374253764
 20
1146.025138005409
 30
0.0
  0
POINT
  5
11EE
330
FA9
100
AcDbEntity
  8
Defpoints
 62
     0
100
AcDbPoint
 10
303.6728271699794
 20
1146.025138005409
 30
0.0
  0
ENDBLK
  5
12FE
330
FA9
100
AcDbEntity
  8
0
100
AcDbBlockEnd
  0
BLOCK
  5
12FF
330
FD8
100
AcDbEntity
  8
0
100
AcDbBlockBegin
  2
*D2
 70
     1
 71
     0
 10
0.0
 20
0.0
 30
0.0
  3
*D2
  1

  0
LINE
  5
1180
330
FD8
100
AcDbEntity
  8
DIM
 62
     0
370
    -2
100
AcDbLine
 10
1613.360672425376
 20
907.113988005409
 30
0.0
 11
1613.360672425376
 21
808.8362787668443
 31
0.0
  0
LINE
  5
1181
330
FD8
100
AcDbEntity
  8
DIM
 62
     0
370
    -2
100
AcDbLine
 10
1662.360672425376
 20
907.113988005409
 30
0.0
 11
1662.360672425376
 21
808.8362787668443
 31
0.0
  0
LINE
  5
1182
330
FD8
100
AcDbEntity
  8
DIM
 62
     0
370
    -2
100
AcDbLine
 10
1595.860672425376
 20
813.8362787668443
 30
0.0
 11
1578.360672425376
 21
813.8362787668443
 31
0.0
  0
LINE
  5
1183
330
FD8
100
AcDbEntity
  8
DIM
 62
     0
370
    -2
100
AcDbLine
 10
1679.860672425376
 20
813.8362787668443
 30
0.0
 11
1697.360672425376
 21
813.8362787668443
 31
0.0
  0
LINE
  5
1184
330
FD8
100
AcDbEntity
  8
DIM
 62
     0
370
    -2
100
AcDbLine
 10
1613.360672425376
 20
813.8362787668443
 30
0.0
 11
1662.360672425376
 21
813.8362787668443
 31
0.0
  0
SOLID
  5
1185
330
FD8
100
AcDbEntity
  8
DIM
 62
     0
100
AcDbTrace
 10
1595.860672425376
 20
816.752945433511
 30
0.0
 11
1595.860672425376
 21
810.9196121001777
 31
0.0
 12
1613.360672425376
 22
813.8362787668443
 32
0.0
 13
1613.360672425376
 23
813.8362787668443
 33
0.0
  0
SOLID
  5
1186
330
FD8
100
AcDbEntity
  8
DIM
 62
     0
100
AcDbTrace
 10
1679.860672425376
 20
816.752945433511
 30
0.0
 11
1679.860672425376
 21
810.9196121001777
 31
0.0
 12
1662.360672425376
 22
813.8362787668443
 32
0.0
 13
1662.360672425376
 23
813.8362787668443
 33
0.0
  0
MTEXT
  5
1187
330
FD8
100
AcDbEntity
  8
DIM
 62
     0
100
AcDbMText
 10
1637.860672425376
 20
832.5862787668443
 30
0.0
 40
17.5
 41
0.0
 46
0.0
 71
     5
 72
     1
  1
\A1;49
 73
     1
 44
1.0
  0
POINT
  5
1188
330
FD8
100
AcDbEntity
  8
Defpoints
 62
     0
100
AcDbPoint
 10
1613.360672425376
 20
912.113988005409
 30
0.0
  0
POINT
  5
1189
330
FD8
100
AcDbEntity
  8
Defpoints
 62
     0
100
AcDbPoint
 10
1662.360672425376
 20
912.113988005409
 30
0.0
  0
POINT
  5
118A
330
FD8
100
AcDbEntity
  8
Defpoints
 62
     0
100
AcDbPoint
 10
1662.360672425376
 20
813.8362787668443
 30
0.0
  0
ENDBLK
  5
1300
330
FD8
100
AcDbEntity
  8
0
100
AcDbBlockEnd
  0
BLOCK
  5
1301
330
FE5
100
AcDbEntity
  8
0
100
AcDbBlockBegin
  2
*D3
 70
     1
 71
     0
 10
0.0
 20
0.0
 30
0.0
  3
*D3
  1

  0
LINE
  5
1177
330
FE5
100
AcDbEntity
  8
DIM
 62
     0
370
    -2
100
AcDbLine
 10
1572.109972425376
 20
845.596538005409
 30
0.0
 11
1515.631105622531
 21
845.596538005409
 31
0.0
  0
LINE
  5
1178
330
FE5
100
AcDbEntity
  8
DIM
 62
     0
370
    -2
100
AcDbLine
 10
1608.360672425376
 20
912.113988005409
 30
0.0
 11
1515.631105622531
 21
912.113988005409
 31
0.0
  0
LINE
  5
1179
330
FE5
100
AcDbEntity
  8
DIM
 62
     0
370
    -2
100
AcDbLine
 10
1520.631105622531
 20
863.096538005409
 30
0.0
 11
1520.631105622531
 21
894.613988005409
 31
0.0
  0
SOLID
  5
117A
330
FE5
100
AcDbEntity
  8
DIM
 62
     0
100
AcDbTrace
 10
1517.714438955865
 20
863.096538005409
 30
0.0
 11
1523.547772289198
 21
863.096538005409
 31
0.0
 12
1520.631105622531
 22
845.596538005409
 32
0.0
 13
1520.631105622531
 23
845.596538005409
 33
0.0
  0
SOLID
  5
117B
330
FE5
100
AcDbEntity
  8
DIM
 62
     0
100
AcDbTrace
 10
1517.714438955865
 20
894.613988005409
 30
0.0
 11
1523.547772289198
 21
894.613988005409
 31
0.0
 12
1520.631105622531
 22
912.113988005409
 32
0.0
 13
1520.631105622531
 23
912.113988005409
 33
0.0
  0
MTEXT
  5
117C
330
FE5
100
AcDbEntity
  8
DIM
 62
     0
100
AcDbMText
 10
1501.881105622531
 20
878.8552630054093
 30
0.0
 40
17.5
 41
0.0
 46
0.0
 71
     5
 72
     1
  1
\A1;67
 11
6.123031769111886E-17
 21
1.0
 31
0.0
 73
     1
 44
1.0
  0
POINT
  5
117D
330
FE5
100
AcDbEntity
  8
Defpoints
 62
     0
100
AcDbPoint
 10
1577.109972425376
 20
845.596538005409
 30
0.0
  0
POINT
  5
117E
330
FE5
100
AcDbEntity
  8
Defpoints
 62
     0
100
AcDbPoint
 10
1613.360672425376
 20
912.113988005409
 30
0.0
  0
POINT
  5
117F
330
FE5
100
AcDbEntity
  8
Defpoints
 62
     0
100
AcDbPoint
 10
1520.631105622531
 20
912.113988005409
 30
0.0
  0
ENDBLK
  5
1302
330
FE5
100
AcDbEntity
  8
0
100
AcDbBlockEnd
  0
BLOCK
  5
1303
330
FF2
100
AcDbEntity
  8
0
100
AcDbBlockBegin
  2
*D4
 70
     1
 71
     0
 10
0.0
 20
0.0
 30
0.0
  3
*D4
  1

  0
LINE
  5
116E
330
FF2
100
AcDbEntity
  8
DIM
 62
     0
370
    -2
100
AcDbLine
 10
1572.109972425376
 20
845.596538005409
 30
0.0
 11
1479.281266785194
 21
845.596538005409
 31
0.0
  0
LINE
  5
116F
330
FF2
100
AcDbEntity
  8
DIM
 62
     0
370
    -2
100
AcDbLine
 10
1608.360672425376
 20
1085.613988005409
 30
0.0
 11
1479.281266785194
 21
1085.613988005409
 31
0.0
  0
LINE
  5
1170
330
FF2
100
AcDbEntity
  8
DIM
 62
     0
370
    -2
100
AcDbLine
 10
1484.281266785194
 20
863.096538005409
 30
0.0
 11
1484.281266785194
 21
1068.113988005409
 31
0.0
  0
SOLID
  5
1171
330
FF2
100
AcDbEntity
  8
DIM
 62
     0
100
AcDbTrace
 10
1481.364600118527
 20
863.096538005409
 30
0.0
 11
1487.197933451861
 21
863.096538005409
 31
0.0
 12
1484.281266785194
 22
845.596538005409
 32
0.0
 13
1484.281266785194
 23
845.596538005409
 33
0.0
  0
SOLID
  5
1172
330
FF2
100
AcDbEntity
  8
DIM
 62
     0
100
AcDbTrace
 10
1481.364600118527
 20
1068.113988005409
 30
0.0
 11
1487.197933451861
 21
1068.113988005409
 31
0.0
 12
1484.281266785194
 22
1085.613988005409
 32
0.0
 13
1484.281266785194
 23
1085.613988005409
 33
0.0
  0
MTEXT
  5
1173
330
FF2
100
AcDbEntity
  8
DIM
 62
     0
100
AcDbMText
 10
1465.531266785194
 20
965.6052630054093
 30
0.0
 40
17.5
 41
0.0
 46
0.0
 71
     5
 72
     1
  1
\A1;240
 11
6.123031769111886E-17
 21
1.0
 31
0.0
 73
     1
 44
1.0
  0
POINT
  5
1174
330
FF2
100
AcDbEntity
  8
Defpoints
 62
     0
100
AcDbPoint
 10
1577.109972425376
 20
845.596538005409
 30
0.0
  0
POINT
  5
1175
330
FF2
100
AcDbEntity
  8
Defpoints
 62
     0
100
AcDbPoint
 10
1613.360672425376
 20
1085.613988005409
 30
0.0
  0
POINT
  5
1176
330
FF2
100
AcDbEntity
  8
Defpoints
 62
     0
100
AcDbPoint
 10
1484.281266785194
 20
1085.613988005409
 30
0.0
  0
ENDBLK
  5
1304
330
FF2
100
AcDbEntity
  8
0
100
AcDbBlockEnd
  0
BLOCK
  5
1305
330
10D0
100
AcDbEntity
  8
0
100
AcDbBlockBegin
  2
*D5
 70
     1
 71
     0
 10
0.0
 20
0.0
 30
0.0
  3
*D5
  1

  0
LINE
  5
1165
330
10D0
100
AcDbEntity
  8
DIM
 62
     0
370
    -2
100
AcDbLine
 10
616.1587224253765
 20
1149.525188005409
 30
0.0
 11
616.1587224253765
 21
1184.959116570086
 31
0.0
  0
LINE
  5
1166
330
10D0
100
AcDbEntity
  8
DIM
 62
     0
370
    -2
100
AcDbLine
 10
765.5970224253765
 20
1149.525188005409
 30
0.0
 11
765.5970224253765
 21
1184.959116570086
 31
0.0
  0
LINE
  5
1167
330
10D0
100
AcDbEntity
  8
DIM
 62
     0
370
    -2
100
AcDbLine
 10
633.6587224253765
 20
1179.959116570086
 30
0.0
 11
748.0970224253765
 21
1179.959116570086
 31
0.0
  0
SOLID
  5
1168
330
10D0
100
AcDbEntity
  8
DIM
 62
     0
100
AcDbTrace
 10
633.6587224253765
 20
1182.875783236753
 30
0.0
 11
633.6587224253765
 21
1177.04244990342
 31
0.0
 12
616.1587224253765
 22
1179.959116570086
 32
0.0
 13
616.1587224253765
 23
1179.959116570086
 33
0.0
  0
SOLID
  5
1169
330
10D0
100
AcDbEntity
  8
DIM
 62
     0
100
AcDbTrace
 10
748.0970224253765
 20
1182.875783236753
 30
0.0
 11
748.0970224253765
 21
1177.04244990342
 31
0.0
 12
765.5970224253765
 22
1179.959116570086
 32
0.0
 13
765.5970224253765
 23
1179.959116570086
 33
0.0
  0
MTEXT
  5
116A
330
10D0
100
AcDbEntity
  8
DIM
 62
     0
100
AcDbMText
 10
690.8778724253765
 20
1198.709116570086
 30
0.0
 40
17.5
 41
0.0
 46
0.0
 71
     5
 72
     1
  1
\A1;149
 73
     1
 44
1.0
  0
POINT
  5
116B
330
10D0
100
AcDbEntity
  8
Defpoints
 62
     0
100
AcDbPoint
 10
616.1587224253765
 20
1144.525188005409
 30
0.0
  0
POINT
  5
116C
330
10D0
100
AcDbEntity
  8
Defpoints
 62
     0
100
AcDbPoint
 10
765.5970224253765
 20
1144.525188005409
 30
0.0
  0
POINT
  5
116D
330
10D0
100
AcDbEntity
  8
Defpoints
 62
     0
100
AcDbPoint
 10
765.5970224253765
 20
1179.959116570086
 30
0.0
  0
ENDBLK
  5
1306
330
10D0
100
AcDbEntity
  8
0
100
AcDbBlockEnd
  0
BLOCK
  5
1307
330
11D1
100
AcDbEntity
  8
0
100
AcDbBlockBegin
  2
*D6
 70
     1
 71
     0
 10
0.0
 20
0.0
 30
0.0
  3
*D6
  1

  0
LINE
  5
11DD
330
11D1
100
AcDbEntity
  8
KONTUR
  6
Continuous
 62
     0
370
    -2
100
AcDbLine
 10
145.9383419333002
 20
856.3540996066498
 30
0.0
 11
145.9383419333002
 21
774.4231251785423
 31
0.0
  0
LINE
  5
11DE
330
11D1
100
AcDbEntity
  8
KONTUR
  6
Continuous
 62
     0
370
    -2
100
AcDbLine
 10
262.3015924253764
 20
846.0251380054091
 30
0.0
 11
262.3015924253764
 21
774.4231251785423
 31
0.0
  0
LINE
  5
11DF
330
11D1
100
AcDbEntity
  8
KONTUR
  6
Continuous
 62
     0
370
    -2
100
AcDbLine
 10
163.4383419333002
 20
779.4231251785423
 30
0.0
 11
244.8015924253764
 21
779.4231251785423
 31
0.0
  0
SOLID
  5
11E0
330
11D1
100
AcDbEntity
  8
KONTUR
  6
Continuous
 62
     0
100
AcDbTrace
 10
163.4383419333002
 20
782.3397918452089
 30
0.0
 11
163.4383419333002
 21
776.5064585118756
 31
0.0
 12
145.9383419333002
 22
779.4231251785423
 32
0.0
 13
145.9383419333002
 23
779.4231251785423
 33
0.0
  0
SOLID
  5
11E1
330
11D1
100
AcDbEntity
  8
KONTUR
  6
Continuous
 62
     0
100
AcDbTrace
 10
244.8015924253764
 20
782.3397918452089
 30
0.0
 11
244.8015924253764
 21
776.5064585118756
 31
0.0
 12
262.3015924253764
 22
779.4231251785423
 32
0.0
 13
262.3015924253764
 23
779.4231251785423
 33
0.0
  0
MTEXT
  5
11E2
330
11D1
100
AcDbEntity
  8
KONTUR
  6
Continuous
 62
     0
100
AcDbMText
 10
204.1199671793383
 20
798.1731251785423
 30
0.0
 40
17.5
 41
0.0
 46
0.0
 71
     5
 72
     1
  1
\A1;117
 73
     1
 44
1.0
  0
POINT
  5
11E3
330
11D1
100
AcDbEntity
  8
Defpoints
  6
Continuous
 62
     0
100
AcDbPoint
 10
145.9383419333002
 20
861.3540996066498
 30
0.0
  0
POINT
  5
11E4
330
11D1
100
AcDbEntity
  8
Defpoints
  6
Continuous
 62
     0
100
AcDbPoint
 10
262.3015924253764
 20
851.0251380054091
 30
0.0
  0
POINT
  5
11E5
330
11D1
100
AcDbEntity
  8
Defpoints
  6
Continuous
 62
     0
100
AcDbPoint
 10
262.3015924253764
 20
779.4231251785423
 30
0.0
  0
ENDBLK
  5
1308
330
11D1
100
AcDbEntity
  8
0
100
AcDbBlockEnd
  0
BLOCK
  5
1309
330
12F7
100
AcDbEntity
  8
0
100
AcDbBlockBegin
  2
*D7
 70
     1
 71
     0
 10
0.0
 20
0.0
 30
0.0
  3
*D7
  1

  0
POINT
  5
12EE
330
12F7
100
AcDbEntity
  8
Defpoints
  6
ByBlock
 62
     0
100
AcDbPoint
 10
145.9383419333002
 20
861.3540996066498
 30
0.0
  0
POINT
  5
12EF
330
12F7
100
AcDbEntity
  8
Defpoints
  6
ByBlock
 62
     0
100
AcDbPoint
 10
262.3015924253764
 20
851.0251380054091
 30
0.0
  0
LINE
  5
12F0
330
12F7
100
AcDbEntity
  8
0
  6
ByBlock
 62
     0
370
    -2
100
AcDbLine
 10
145.9383419333002
 20
856.3540996066498
 30
0.0
 11
145.9383419333002
 21
774.4231251785423
 31
0.0
  0
LINE
  5
12F1
330
12F7
100
AcDbEntity
  8
0
  6
ByBlock
 62
     0
370
    -2
100
AcDbLine
 10
262.3015924253764
 20
846.0251380054091
 30
0.0
 11
262.3015924253764
 21
774.4231251785423
 31
0.0
  0
LINE
  5
12F2
330
12F7
100
AcDbEntity
  8
0
  6
ByBlock
 62
     0
370
    -2
100
AcDbLine
 10
163.4383419333002
 20
779.4231251785423
 30
0.0
 11
244.8015924253764
 21
779.4231251785423
 31
0.0
  0
SOLID
  5
12F3
330
12F7
100
AcDbEntity
  8
0
  6
ByBlock
 62
     0
100
AcDbTrace
 10
145.9383419333002
 20
779.4231251785423
 30
0.0
 11
163.4383419333002
 21
776.506458511875
 31
0.0
 12
163.4383419333002
 22
782.3397918452094
 32
0.0
 13
163.4383419333002
 23
782.3397918452094
 33
0.0
  0
SOLID
  5
12F4
330
12F7
100
AcDbEntity
  8
0
  6
ByBlock
 62
     0
100
AcDbTrace
 10
262.3015924253764
 20
779.4231251785423
 30
0.0
 11
244.8015924253764
 21
776.506458511875
 31
0.0
 12
244.8015924253764
 22
782.3397918452094
 32
0.0
 13
244.8015924253764
 23
782.3397918452094
 33
0.0
  0
MTEXT
  5
12F5
330
12F7
100
AcDbEntity
  8
0
  6
ByBlock
 62
     0
100
AcDbMText
 10
204.1199671793383
 20
798.1731251785423
 30
0.0
 40
17.5
 41
0.0
 46
0.0
 71
     5
 72
     1
  1
117
 73
     1
 44
1.0
  0
ENDBLK
  5
130A
330
12F7
100
AcDbEntity
  8
KONTUR
100
AcDbBlockEnd
  0
ENDSEC
  0
SECTION
  2
ENTITIES
  0
LINE
  5
105
330
1F
100
AcDbEntity
  8
KONTUR
100
AcDbLine
 10
754.6278724253764
 20
845.843488005409
 30
0.0
 11
754.6278724253764
 21
845.930938005409
 31
0.0
  0
LINE
  5
106
330
1F
100
AcDbEntity
  8
KONTUR
100
AcDbLine
 10
754.6278724253764
 20
845.930938005409
 30
0.0
 11
754.6278724253764
 21
846.025138005409
 31
0.0
  0
LINE
  5
107
330
1F
100
AcDbEntity
  8
KONTUR
100
AcDbLine
 10
754.6278724253764
 20
847.2593880054089
 30
0.0
 11
754.6278724253764
 21
848.4478380054088
 31
0.0
  0
LINE
  5
108
330
1F
100
AcDbEntity
  8
KONTUR
100
AcDbLine
 10
627.1278224253764
 20
848.4478380054088
 30
0.0
 11
627.1278724253764
 21
847.2593880054089
 31
0.0
  0
LINE
  5
109
330
1F
100
AcDbEntity
  8
KONTUR
100
AcDbLine
 10
627.1278724253764
 20
846.025138005409
 30
0.0
 11
627.1278724253764
 21
845.930938005409
 31
0.0
  0
LINE
  5
10A
330
1F
100
AcDbEntity
  8
KONTUR
100
AcDbLine
 10
627.1278724253764
 20
845.930938005409
 30
0.0
 11
627.1278724253764
 21
845.843488005409
 31
0.0
  0
LINE
  5
10B
330
1F
100
AcDbEntity
  8
KONTUR
100
AcDbLine
 10
628.3778724253764
 20
847.2593880054089
 30
0.0
 11
628.3778724253764
 21
845.930938005409
 31
0.0
  0
LINE
  5
10C
330
1F
100
AcDbEntity
  8
KONTUR
100
AcDbLine
 10
628.3778724253764
 20
845.930938005409
 30
0.0
 11
628.3778724253764
 21
845.843488005409
 31
0.0
  0
LINE
  5
10D
330
1F
100
AcDbEntity
  8
KONTUR
100
AcDbLine
 10
628.3778724253764
 20
848.0932880054088
 30
0.0
 11
628.3778724253764
 21
847.2593880054089
 31
0.0
  0
LINE
  5
10E
330
1F
100
AcDbEntity
  8
KONTUR
100
AcDbLine
 10
753.3778724253764
 20
845.843488005409
 30
0.0
 11
753.3778724253764
 21
845.930938005409
 31
0.0
  0
LINE
  5
10F
330
1F
100
AcDbEntity
  8
KONTUR
100
AcDbLine
 10
753.3778724253764
 20
845.930938005409
 30
0.0
 11
753.3778724253764
 21
847.2593880054089
 31
0.0
  0
LINE
  5
110
330
1F
100
AcDbEntity
  8
KONTUR
100
AcDbLine
 10
753.3778724253764
 20
847.2593880054089
 30
0.0
 11
753.3778724253764
 21
848.0932880054088
 31
0.0
  0
LINE
  5
111
330
1F
100
AcDbEntity
  8
KONTUR
100
AcDbLine
 10
754.6278724253764
 20
850.3634380054091
 30
0.0
 11
754.6278724253764
 21
848.4478380054088
 31
0.0
  0
LWPOLYLINE
  5
112
330
1F
100
AcDbEntity
  8
KONTUR
100
AcDbPolyline
 90
       11
 70
     0
 43
0.0
 10
754.6278724253764
 20
848.4478380054088
 10
754.6172224253764
 20
848.404088005409
 42
-0.13725463
 10
754.5825224253763
 20
848.3600880054089
 42
-0.081161401
 10
754.5234224253763
 20
848.315638005409
 42
-0.051739014
 10
754.4362724253765
 20
848.271988005409
 42
-0.040184515
 10
754.3183224253764
 20
848.2307880054091
 42
-0.021746127
 10
754.1885224253765
 20
848.1935880054089
 42
-0.0089842589
 10
754.0547224253764
 20
848.1617880054089
 42
-0.018615509
 10
753.8614224253765
 20
848.134188005409
 42
-0.022379545
 10
753.5483224253765
 20
848.109688005409
 42
-0.0099021132
 10
753.1279224253763
 20
848.0882880054089
 42
-0.0049868863
  0
LINE
  5
11F
330
1F
100
AcDbEntity
  8
KONTUR
100
AcDbLine
 10
753.1279224253763
 20
848.0882880054089
 30
0.0
 11
751.6278724253766
 21
848.0882880054089
 31
0.0
  0
LINE
  5
120
330
1F
100
AcDbEntity
  8
KONTUR
100
AcDbLine
 10
751.6278724253766
 20
848.0882880054089
 30
0.0
 11
751.6278724253766
 21
845.930938005409
 31
0.0
  0
LINE
  5
121
330
1F
100
AcDbEntity
  8
KONTUR
100
AcDbLine
 10
751.6278724253766
 20
845.930938005409
 30
0.0
 11
751.6278724253766
 21
845.6840380054089
 31
0.0
  0
LINE
  5
122
330
1F
100
AcDbEntity
  8
KONTUR
100
AcDbLine
 10
630.1278724253764
 20
845.6840380054089
 30
0.0
 11
630.1278724253764
 21
845.930938005409
 31
0.0
  0
LINE
  5
123
330
1F
100
AcDbEntity
  8
KONTUR
100
AcDbLine
 10
630.1278724253764
 20
845.930938005409
 30
0.0
 11
630.1278724253764
 21
848.088238005409
 31
0.0
  0
LINE
  5
124
330
1F
100
AcDbEntity
  8
KONTUR
100
AcDbLine
 10
630.1278724253764
 20
848.088238005409
 30
0.0
 11
628.6278724253764
 21
848.0882880054089
 31
0.0
  0
LWPOLYLINE
  5
125
330
1F
100
AcDbEntity
  8
KONTUR
100
AcDbPolyline
 90
       11
 70
     0
 43
0.0
 10
628.6278724253764
 20
848.0882880054089
 10
628.4453724253764
 20
848.0908380054091
 42
-0.0083424438
 10
628.2618224253764
 20
848.0991380054088
 42
-0.0075173564
 10
628.0763724253765
 20
848.1133380054089
 42
-0.0081459869
 10
627.8943224253765
 20
848.134188005409
 42
-0.011306898
 10
627.7224224253764
 20
848.1624880054092
 42
-0.011164374
 10
627.5672224253765
 20
848.1935880054089
 42
-0.0065442018
 10
627.4346224253763
 20
848.2256380054091
 42
-0.018923383
 10
627.3194724253765
 20
848.271988005409
 42
-0.054524007
 10
627.2171224253764
 20
848.3470380054089
 42
-0.060118908
 10
627.1278224253764
 20
848.4478380054088
 42
-0.048595543
  0
LINE
  5
132
330
1F
100
AcDbEntity
  8
KONTUR
100
AcDbLine
 10
627.1278224253764
 20
848.4478380054088
 30
0.0
 11
627.1278224253764
 21
850.3718880054089
 31
0.0
  0
LWPOLYLINE
  5
133
330
1F
100
AcDbEntity
  8
KONTUR
100
AcDbPolyline
 90
       11
 70
     0
 43
0.0
 10
659.7867224253764
 20
860.724038005409
 10
659.5496224253765
 20
860.667688005409
 42
-0.0078148482
 10
659.2969224253764
 20
860.614988005409
 42
-0.006345525
 10
659.0287224253764
 20
860.565988005409
 42
-0.0062018669
 10
658.7400724253764
 20
860.520988005409
 42
-0.0068242703
 10
658.4298224253764
 20
860.4805880054091
 42
-0.0048866217
 10
658.1292224253764
 20
860.4453880054089
 42
-0.001842133
 10
657.8497724253764
 20
860.4160380054091
 42
-0.0061764859
 10
657.4808724253763
 20
860.390588005409
 42
-0.0097102483
 10
656.9053224253764
 20
860.3675880054088
 42
-0.0046277057
 10
656.1467224253764
 20
860.3471380054089
 42
-0.0024198264
  0
LINE
  5
140
330
1F
100
AcDbEntity
  8
KONTUR
100
AcDbLine
 10
656.1467224253764
 20
860.3471380054089
 30
0.0
 11
645.8778724253764
 21
860.3471380054089
 31
0.0
  0
LWPOLYLINE
  5
141
330
1F
100
AcDbEntity
  8
KONTUR
100
AcDbPolyline
 90
       11
 70
     0
 43
0.0
 10
645.8778724253764
 20
860.3471380054089
 10
645.2694724253764
 20
860.3386380054089
 42
0.0083428626
 10
644.6576224253764
 20
860.310888005409
 42
0.0075177392
 10
644.0396224253765
 20
860.2636880054088
 42
0.0081464059
 10
643.4326724253765
 20
860.1940380054089
 42
0.011307484
 10
642.8596224253764
 20
860.0998380054089
 42
0.011164952
 10
642.3423224253764
 20
859.9960880054091
 42
0.006544539
 10
641.9004224253764
 20
859.8891880054089
 42
0.018924346
 10
641.5165224253765
 20
859.7347380054089
 42
0.05452651
 10
641.1754724253764
 20
859.4845380054089
 42
0.060120641
 10
640.8778224253764
 20
859.148588005409
 42
0.048595952
  0
LINE
  5
14E
330
1F
100
AcDbEntity
  8
KONTUR
100
AcDbLine
 10
640.8778224253764
 20
859.148588005409
 30
0.0
 11
640.8778724253764
 21
854.354288005409
 31
0.0
  0
LWPOLYLINE
  5
14F
330
1F
100
AcDbEntity
  8
KONTUR
100
AcDbPolyline
 90
       11
 70
     0
 43
0.0
 10
640.8778224253764
 20
854.354288005409
 10
640.9133224253765
 20
854.2084380054089
 42
0.13725446
 10
641.0290224253765
 20
854.061788005409
 42
0.081159638
 10
641.2260724253764
 20
853.913638005409
 42
0.051737597
 10
641.5165224253765
 20
853.7681380054091
 42
0.040183427
 10
641.9096724253764
 20
853.6307880054092
 42
0.021745591
 10
642.3423224253764
 20
853.5067880054089
 42
0.0089840519
 10
642.7883724253763
 20
853.4008380054088
 42
0.018615108
 10
643.4326724253765
 20
853.3088380054091
 42
0.022379139
 10
644.4764724253764
 20
853.2270380054088
 42
0.0099019623
 10
645.8778724253764
 20
853.1557380054091
 42
0.004986817
  0
LINE
  5
15C
330
1F
100
AcDbEntity
  8
KONTUR
100
AcDbLine
 10
645.8778724253764
 20
853.1557380054091
 30
0.0
 11
735.8778224253765
 21
853.1557380054091
 31
0.0
  0
LWPOLYLINE
  5
15D
330
1F
100
AcDbEntity
  8
KONTUR
100
AcDbPolyline
 90
       11
 70
     0
 43
0.0
 10
735.8778224253765
 20
853.1557380054091
 10
736.4862224253764
 20
853.1642380054091
 42
0.0083426819
 10
737.0981224253765
 20
853.1919380054089
 42
0.0075175798
 10
737.7161224253764
 20
853.2391880054088
 42
0.0081462373
 10
738.3230724253763
 20
853.3088380054091
 42
0.011307258
 10
738.8960724253764
 20
853.4030380054089
 42
0.011164742
 10
739.4133724253766
 20
853.5067880054089
 42
0.006544422
 10
739.8552724253764
 20
853.6136880054091
 42
0.01892403
 10
740.2391724253764
 20
853.7681380054091
 42
0.054525875
 10
740.5802724253765
 20
854.0183380054091
 42
0.060120583
 10
740.8778724253764
 20
854.354288005409
 42
0.048596363
  0
LINE
  5
16A
330
1F
100
AcDbEntity
  8
KONTUR
100
AcDbLine
 10
740.8778724253764
 20
854.354288005409
 30
0.0
 11
740.8778724253764
 21
859.148588005409
 31
0.0
  0
LWPOLYLINE
  5
16B
330
1F
100
AcDbEntity
  8
KONTUR
100
AcDbPolyline
 90
       11
 70
     0
 43
0.0
 10
740.8778724253764
 20
859.148588005409
 10
740.8424224253763
 20
859.2944380054089
 42
0.13725335
 10
740.7266724253764
 20
859.441088005409
 42
0.0811605
 10
740.5296224253766
 20
859.589238005409
 42
0.051738587
 10
740.2391724253764
 20
859.7347380054089
 42
0.040184317
 10
739.8460224253765
 20
859.8720880054088
 42
0.021746082
 10
739.4133724253766
 20
859.9960880054091
 42
0.0089842519
 10
738.9673224253763
 20
860.1020380054088
 42
0.018615514
 10
738.3230724253763
 20
860.1940380054089
 42
0.022379596
 10
737.2792224253765
 20
860.2757880054089
 42
0.0099021501
 10
735.8778224253765
 20
860.3471380054089
 42
0.004986908
  0
LINE
  5
178
330
1F
100
AcDbEntity
  8
KONTUR
100
AcDbLine
 10
735.8778224253765
 20
860.3471380054089
 30
0.0
 11
725.6089724253764
 21
860.3471380054089
 31
0.0
  0
LWPOLYLINE
  5
179
330
1F
100
AcDbEntity
  8
KONTUR
100
AcDbPolyline
 90
       11
 70
     0
 43
0.0
 10
725.6089724253764
 20
860.3471380054089
 10
725.2753224253765
 20
860.349888005409
 42
-0.0041672088
 10
724.9419724253764
 20
860.357888005409
 42
-0.0038037361
 10
724.6094224253764
 20
860.3710880054089
 42
-0.0041604686
 10
724.2748224253764
 20
860.390588005409
 42
-0.0051822681
 10
723.9394724253764
 20
860.417038005409
 42
-0.0042264174
 10
723.6265224253764
 20
860.4453880054089
 42
-0.0017093677
 10
723.3457224253766
 20
860.474038005409
 42
-0.006120097
 10
723.0156224253765
 20
860.520988005409
 42
-0.011874339
 10
722.5512224253764
 20
860.605638005409
 42
-0.0068707176
 10
721.9689724253765
 20
860.724038005409
 42
-0.0039445234
  0
LWPOLYLINE
  5
186
330
1F
100
AcDbEntity
  8
KONTUR
100
AcDbPolyline
 90
       11
 70
     0
 43
0.0
 10
721.9689724253765
 20
860.724038005409
 10
718.0595724253765
 20
861.6072380054088
 42
0.015590246
 10
713.5887724253764
 20
862.3753880054091
 42
0.011109521
 10
708.5309724253764
 20
863.031338005409
 42
0.0097724391
 10
702.9250224253765
 20
863.5271380054089
 42
0.010901098
 10
696.8617224253763
 20
863.8101880054089
 42
0.008425415
 10
690.8778724253764
 20
863.9428880054088
 42
0.0043076803
 10
685.2720224253765
 20
863.9341880054089
 42
0.01027785
 10
678.8307224253764
 20
863.5271380054089
 42
0.018366807
 10
670.2499724253764
 20
862.435888005409
 42
0.011770849
 10
659.7867224253764
 20
860.724038005409
 42
0.0071077346
  0
LINE
  5
193
330
1F
100
AcDbEntity
  8
KONTUR
100
AcDbLine
 10
751.6278724253766
 20
845.596538005409
 30
0.0
 11
751.6278724253766
 21
845.6840380054089
 31
0.0
  0
LINE
  5
194
330
1F
100
AcDbEntity
  8
KONTUR
100
AcDbLine
 10
630.1278724253764
 20
845.596538005409
 30
0.0
 11
751.6278724253766
 21
845.596538005409
 31
0.0
  0
LINE
  5
195
330
1F
100
AcDbEntity
  8
KONTUR
100
AcDbLine
 10
630.1278724253764
 20
845.6840380054089
 30
0.0
 11
630.1278724253764
 21
845.596538005409
 31
0.0
  0
LWPOLYLINE
  5
196
330
1F
100
AcDbEntity
  8
KONTUR
100
AcDbPolyline
 90
       11
 70
     0
 43
0.0
 10
640.8778224253764
 20
855.5678380054089
 10
640.9133224253765
 20
855.4220380054089
 42
0.13725246
 10
641.0290224253765
 20
855.2753380054089
 42
0.081159622
 10
641.2260724253764
 20
855.1271880054089
 42
0.05173808
 10
641.5165224253765
 20
854.9816880054091
 42
0.040184015
 10
641.9096724253764
 20
854.8443380054091
 42
0.021745968
 10
642.3423224253764
 20
854.7203380054088
 42
0.008984215
 10
642.7883724253763
 20
854.614388005409
 42
0.018615454
 10
643.4326724253765
 20
854.5223880054091
 42
0.022379567
 10
644.4764724253764
 20
854.440638005409
 42
0.0099021513
 10
645.8778724253764
 20
854.3692880054091
 42
0.0049869116
  0
LWPOLYLINE
  5
1A3
330
1F
100
AcDbEntity
  8
KONTUR
100
AcDbPolyline
 90
       11
 70
     0
 43
0.0
 10
735.8778224253765
 20
854.3692880054091
 10
736.4862224253764
 20
854.377788005409
 42
0.008342838
 10
737.0981224253765
 20
854.405538005409
 42
0.0075177221
 10
737.7161224253764
 20
854.452788005409
 42
0.0081463928
 10
738.3230724253763
 20
854.5223880054091
 42
0.011307475
 10
738.8960724253764
 20
854.616638005409
 42
0.011164955
 10
739.4133724253766
 20
854.7203380054088
 42
0.0065445458
 10
739.8552724253764
 20
854.827288005409
 42
0.018924381
 10
740.2391724253764
 20
854.9816880054091
 42
0.054526775
 10
740.5802724253765
 20
855.2319380054089
 42
0.060121176
 10
740.8778724253764
 20
855.5678380054089
 42
0.04859647
  0
LINE
  5
1B0
330
1F
100
AcDbEntity
  8
KONTUR
100
AcDbLine
 10
627.1278724253764
 20
845.843488005409
 30
0.0
 11
628.3778724253764
 21
845.843488005409
 31
0.0
  0
LINE
  5
1B1
330
1F
100
AcDbEntity
  8
KONTUR
100
AcDbLine
 10
753.3778724253764
 20
845.843488005409
 30
0.0
 11
754.6278724253764
 21
845.843488005409
 31
0.0
  0
LINE
  5
1B2
330
1F
100
AcDbEntity
  8
KONTUR
100
AcDbLine
 10
624.8778724253764
 20
846.025138005409
 30
0.0
 11
618.2470724253765
 21
846.025138005409
 31
0.0
  0
LINE
  5
1B3
330
1F
100
AcDbEntity
  8
KONTUR
100
AcDbLine
 10
763.5086224253764
 20
846.025138005409
 30
0.0
 11
756.8778224253765
 21
846.025138005409
 31
0.0
  0
LINE
  5
1B4
330
1F
100
AcDbEntity
  8
KONTUR
100
AcDbLine
 10
627.1278724253764
 20
846.025138005409
 30
0.0
 11
627.1278724253764
 21
847.2593880054089
 31
0.0
  0
LINE
  5
1B5
330
1F
100
AcDbEntity
  8
KONTUR
100
AcDbLine
 10
754.6278724253764
 20
847.2593880054089
 30
0.0
 11
754.6278724253764
 21
846.025138005409
 31
0.0
  0
LWPOLYLINE
  5
1B6
330
1F
100
AcDbEntity
  8
KONTUR
100
AcDbPolyline
 90
       11
 70
     0
 43
0.0
 10
765.5970224253765
 20
1144.525188005409
 10
765.5949224253764
 20
1144.707688005409
 42
0.0064135871
 10
765.5884724253765
 20
1144.891288005409
 42
0.0057835937
 10
765.5774724253765
 20
1145.076688005409
 42
0.0062768259
 10
765.5613224253764
 20
1145.258738005409
 42
0.0087380389
 10
765.5394724253765
 20
1145.430638005409
 42
0.0086753348
 10
765.5154724253764
 20
1145.585838005409
 42
0.0051110319
 10
765.4907724253762
 20
1145.718388005409
 42
0.014883643
 10
765.4550724253763
 20
1145.833538005409
 42
0.044445984
 10
765.3973224253764
 20
1145.935888005409
 42
0.053900558
 10
765.3198224253765
 20
1146.025188005409
 42
0.048427678
  0
LWPOLYLINE
  5
1C3
330
1F
100
AcDbEntity
  8
KONTUR
100
AcDbPolyline
 90
       11
 70
     0
 43
0.0
 10
616.1587224253765
 20
1144.525188005409
 10
616.1607724253764
 20
1144.707688005409
 42
-0.0064132942
 10
616.1672724253765
 20
1144.891288005409
 42
-0.0057833278
 10
616.1782724253765
 20
1145.076688005409
 42
-0.0062765361
 10
616.1944224253764
 20
1145.258738005409
 42
-0.0087376347
 10
616.2162224253764
 20
1145.430638005409
 42
-0.0086749343
 10
616.2402224253765
 20
1145.585838005409
 42
-0.0051107972
 10
616.2649724253764
 20
1145.718388005409
 42
-0.014882967
 10
616.3006224253763
 20
1145.833538005409
 42
-0.044444107
 10
616.3583724253764
 20
1145.935888005409
 42
-0.053898903
 10
616.4359224253765
 20
1146.025188005409
 42
-0.048426965
  0
LWPOLYLINE
  5
1D0
330
1F
100
AcDbEntity
  8
KONTUR
100
AcDbPolyline
 90
       15
 70
     0
 43
0.0
 10
635.4308724253765
 20
862.0907380054089
 10
634.2126724253765
 20
860.192738005409
 42
-0.0069655872
 10
632.9955724253764
 20
858.410588005409
 42
-0.007558884
 10
631.7797224253763
 20
856.7491380054089
 42
-0.0083531613
 10
630.5640224253764
 20
855.203638005409
 42
-0.0093211558
 10
629.3485724253765
 20
853.779188005409
 42
-0.0099940272
 10
628.1402724253765
 20
852.4721380054091
 42
-0.010229896
 10
626.9418224253764
 20
851.2879380054092
 42
-0.01242141
 10
625.7281724253764
 20
850.2185380054088
 42
-0.016540191
 10
624.4911224253765
 20
849.2678880054091
 42
-0.014135756
 10
623.3317224253765
 20
848.4451880054089
 42
-0.0051674098
 10
622.2853224253764
 20
847.7603880054089
 42
-0.022349881
 10
620.9548224253764
 20
847.1544880054089
 42
-0.046208205
 10
618.9240224253764
 20
846.5757880054089
 42
-0.025774682
 10
616.2755224253764
 20
846.030538005409
 42
-0.014293378
  0
LINE
  5
1E1
330
1F
100
AcDbEntity
  8
KONTUR
100
AcDbLine
 10
616.2755224253764
 20
846.030538005409
 30
0.0
 11
617.5077724253765
 21
846.032688005409
 31
0.0
  0
LWPOLYLINE
  5
1E2
330
1F
100
AcDbEntity
  8
KONTUR
100
AcDbPolyline
 90
       31
 70
     0
 43
0.0
 10
636.6589724253764
 20
862.096988005409
 10
636.0613224253764
 20
861.1505380054089
 42
-0.0032714911
 10
635.4650224253764
 20
860.2330380054091
 42
-0.003405245
 10
634.8701724253764
 20
859.3459380054089
 42
-0.0035901153
 10
634.2760224253765
 20
858.487138005409
 42
-0.003806863
 10
633.6816724253765
 20
857.6568380054091
 42
-0.004016669
 10
633.0864224253764
 20
856.8532380054089
 42
-0.0042164021
 10
632.4897224253764
 20
856.0767880054091
 42
-0.0044187358
 10
631.8907724253764
 20
855.325388005409
 42
-0.0046074047
 10
631.2886724253765
 20
854.5992880054089
 42
-0.0048062427
 10
630.6835224253764
 20
853.897588005409
 42
-0.0050252396
 10
630.0754724253763
 20
853.2219380054089
 42
-0.0052926823
 10
629.4664724253764
 20
852.5738880054089
 42
-0.0056611897
 10
628.8582224253764
 20
851.9569880054089
 42
-0.0060135056
 10
628.2507224253765
 20
851.3699880054089
 42
-0.0062690706
 10
627.6437724253765
 20
850.813588005409
 42
-0.0065811731
 10
627.0373224253764
 20
850.2866880054089
 42
-0.0069388907
 10
626.4316724253764
 20
849.790788005409
 42
-0.007294113
 10
625.8270724253764
 20
849.324638005409
 42
-0.007610464
 10
625.2236224253763
 20
848.889588005409
 42
-0.008076392
 10
624.6206724253764
 20
848.4843880054091
 42
-0.0086603174
 10
624.0179724253765
 20
848.1102880054091
 42
-0.0088549197
 10
623.4189224253764
 20
847.7664380054089
 42
-0.0086498546
 10
622.8247724253765
 20
847.454238005409
 42
-0.0099984157
 10
622.2226724253765
 20
847.1714380054091
 42
-0.012548527
 10
621.6084724253765
 20
846.918938005409
 42
-0.010004559
 10
621.0326224253764
 20
846.699838005409
 42
-0.0034727737
 10
620.5128224253764
 20
846.5168880054089
 42
-0.014815248
 10
619.8496224253764
 20
846.352288005409
 42
-0.027442442
 10
618.8341224253764
 20
846.190188005409
 42
-0.014080612
 10
617.5077724253765
 20
846.032688005409
 42
-0.0075797387
  0
LWPOLYLINE
  5
203
330
1F
100
AcDbEntity
  8
KONTUR
100
AcDbPolyline
 90
       23
 70
     0
 43
0.0
 10
635.4308724253765
 20
862.0907380054089
 10
635.7297724253764
 20
862.5183380054089
 42
-0.0250177
 10
636.0912724253764
 20
862.9457380054091
 42
-0.021732277
 10
636.5181224253764
 20
863.3731380054089
 42
-0.018692279
 10
637.0067724253764
 20
863.7993880054089
 42
-0.016334329
 10
637.5587224253763
 20
864.2229380054091
 42
-0.014293345
 10
638.1705224253765
 20
864.642938005409
 42
-0.012671665
 10
638.8439224253764
 20
865.058188005409
 42
-0.011280954
 10
639.5757224253764
 20
865.4677880054089
 42
-0.010217049
 10
640.3675224253765
 20
865.8704380054089
 42
-0.0092244518
 10
641.2155224253763
 20
866.2652880054088
 42
-0.0084187137
 10
642.1209224253764
 20
866.650838005409
 42
-0.007823528
 10
643.0830724253765
 20
867.0267880054089
 42
-0.0074510378
 10
644.1037724253764
 20
867.3915380054091
 42
-0.006733867
 10
645.1684724253764
 20
867.742338005409
 42
-0.0059925986
 10
646.2716724253764
 20
868.075838005409
 42
-0.0063566743
 10
647.4403724253764
 20
868.394888005409
 42
-0.0072459536
 10
648.6851724253764
 20
868.6989880054089
 42
-0.005146204
 10
649.8792724253765
 20
868.9744880054091
 42
-0.001525658
 10
650.9799724253764
 20
869.214888005409
 42
-0.0071504248
 10
652.4692224253764
 20
869.4729880054088
 42
-0.01177426
 10
654.8562724253763
 20
869.8027380054091
 42
-0.005397
 10
658.0386224253765
 20
870.194088005409
 42
-0.002737891
  0
LWPOLYLINE
  5
21C
330
1F
100
AcDbEntity
  8
KONTUR
100
AcDbPolyline
 90
       39
 70
     0
 43
0.0
 10
636.6589724253764
 20
862.096988005409
 10
636.8780724253764
 20
862.426938005409
 42
-0.011161157
 10
637.0941224253763
 20
862.7203380054088
 42
-0.013676395
 10
637.3048224253764
 20
862.9723880054089
 42
-0.015666374
 10
637.5244224253764
 20
863.207488005409
 42
-0.011452232
 10
637.7678724253765
 20
863.4487380054088
 42
-0.0084086113
 10
638.0328724253764
 20
863.693888005409
 42
-0.0092378412
 10
638.3164224253765
 20
863.9365380054091
 42
-0.009245596
 10
638.6179224253764
 20
864.1770880054089
 42
-0.0082059377
 10
638.9389224253764
 20
864.4168380054089
 42
-0.00746746
 10
639.2783224253765
 20
864.6554880054091
 42
-0.0071204177
 10
639.6364224253764
 20
864.8923380054089
 42
-0.0067199018
 10
640.0123224253764
 20
865.127338005409
 42
-0.0063030907
 10
640.4065724253765
 20
865.3602880054091
 42
-0.0059289739
 10
640.8182224253765
 20
865.5910380054088
 42
-0.005632541
 10
641.2477224253764
 20
865.8192380054088
 42
-0.0053430147
 10
641.6942224253764
 20
866.044838005409
 42
-0.0050937843
 10
642.1581224253764
 20
866.2675380054088
 42
-0.004854107
 10
642.6385724253764
 20
866.487138005409
 42
-0.004654425
 10
643.1360724253764
 20
866.7033880054091
 42
-0.0044591123
 10
643.6496224253765
 20
866.9161880054089
 42
-0.0042967331
 10
644.1797724253763
 20
867.1251880054087
 42
-0.004134109
 10
644.7255724253764
 20
867.330338005409
 42
-0.0039986422
 10
645.2874724253763
 20
867.5312880054089
 42
-0.0038681762
 10
645.8647224253764
 20
867.727938005409
 42
-0.003766964
 10
646.4576724253765
 20
867.9199380054088
 42
-0.0036443171
 10
647.0652724253764
 20
868.1072380054088
 42
-0.0035297513
 10
647.6877724253765
 20
868.2893880054089
 42
-0.0034733697
 10
648.3255224253764
 20
868.466588005409
 42
-0.0034802919
 10
648.9793224253765
 20
868.638438005409
 42
-0.0032854178
 10
649.6437224253764
 20
868.8043380054089
 42
-0.0029766279
 10
650.3175724253765
 20
868.963688005409
 42
-0.0032828157
 10
651.0181724253764
 20
869.118788005409
 42
-0.00395071
 10
651.7535724253764
 20
869.2700380054089
 42
-0.0029415884
 10
652.4587724253764
 20
869.409488005409
 42
-0.0010243267
 10
653.1157224253764
 20
869.534138005409
 42
-0.0044145986
 10
653.9961224253764
 20
869.6773880054088
 42
-0.0070928704
 10
655.3865224253764
 20
869.8738880054088
 42
-0.0033293038
 10
657.2290224253765
 20
870.1168880054088
 42
-0.0017066817
  0
LWPOLYLINE
  5
245
330
1F
100
AcDbEntity
  8
KONTUR
100
AcDbPolyline
 90
       15
 70
     0
 43
0.0
 10
658.0386224253765
 20
870.194088005409
 10
660.0561724253764
 20
870.3693880054088
 42
-0.0013751632
 10
662.0790724253765
 20
870.5341880054089
 42
-0.0013536536
 10
664.1071224253765
 20
870.6880880054089
 42
-0.0013621462
 10
666.1427224253764
 20
870.8314380054089
 42
-0.001397921
 10
668.1867224253765
 20
870.9636380054089
 42
-0.0013603867
 10
670.2271224253764
 20
871.0850380054089
 42
-0.0012702909
 10
672.2598224253763
 20
871.1950380054091
 42
-0.0014095782
 10
674.3299224253764
 20
871.2942880054088
 42
-0.0016937823
 10
676.4530224253764
 20
871.3823380054091
 42
-0.0012814819
 10
678.4487724253765
 20
871.4584380054089
 42
-0.0004224359
 10
680.2551224253764
 20
871.5217380054089
 42
-0.0018323372
 10
682.5813224253764
 20
871.576738005409
 42
-0.003182516
 10
686.1715724253764
 20
871.6271880054089
 42
-0.0015529566
 10
690.8778724253764
 20
871.6726880054089
 42
-0.0008189423
  0
LWPOLYLINE
  5
256
330
1F
100
AcDbEntity
  8
KONTUR
100
AcDbPolyline
 90
       15
 70
     0
 43
0.0
 10
723.7170724253765
 20
870.194088005409
 10
721.6995224253765
 20
870.3693880054088
 42
0.0013751669
 10
719.6766224253765
 20
870.5341880054089
 42
0.0013536568
 10
717.6485724253764
 20
870.6880880054089
 42
0.0013621491
 10
715.6129724253765
 20
870.8314380054089
 42
0.0013979236
 10
713.5689724253764
 20
870.9636380054089
 42
0.001360389
 10
711.5285724253763
 20
871.0850380054089
 42
0.0012702928
 10
709.4958724253765
 20
871.1950380054091
 42
0.00140958
 10
707.4257724253764
 20
871.2942880054088
 42
0.001693784
 10
705.3027224253765
 20
871.3823380054091
 42
0.0012814828
 10
703.3069224253763
 20
871.4584380054089
 42
0.000422436
 10
701.5005724253765
 20
871.5217380054089
 42
0.0018323381
 10
699.1744224253764
 20
871.576738005409
 42
0.0031825161
 10
695.5841224253764
 20
871.6271880054089
 42
0.001552956
 10
690.8778724253764
 20
871.6726880054089
 42
0.000818942
  0
LWPOLYLINE
  5
267
330
1F
100
AcDbEntity
  8
KONTUR
100
AcDbPolyline
 90
       23
 70
     0
 43
0.0
 10
723.7170724253765
 20
870.194088005409
 10
725.1533724253763
 20
870.0501880054089
 42
-0.0046722222
 10
726.5604724253762
 20
869.882388005409
 42
-0.0049130783
 10
727.9375224253763
 20
869.689388005409
 42
-0.0050426938
 10
729.2835724253764
 20
869.4734380054088
 42
-0.005050852
 10
730.5947724253765
 20
869.234888005409
 42
-0.0051455036
 10
731.8707224253762
 20
868.975588005409
 42
-0.005271269
 10
733.1080224253765
 20
868.695688005409
 42
-0.0054441679
 10
734.3062224253763
 20
868.3970880054089
 42
-0.0056225376
 10
735.4616724253765
 20
868.080038005409
 42
-0.005870175
 10
736.5745224253765
 20
867.7462380054089
 42
-0.0061333714
 10
737.6410224253764
 20
867.3960380054091
 42
-0.0064933183
 10
738.6594724253764
 20
867.0314880054088
 42
-0.006947503
 10
739.6237224253764
 20
866.654188005409
 42
-0.0072569061
 10
740.5318224253765
 20
866.2684880054089
 42
-0.0072710769
 10
741.3793224253764
 20
865.8763880054089
 42
-0.0085981314
 10
742.1750724253764
 20
865.4698880054088
 42
-0.011188991
 10
742.9184724253764
 20
865.046388005409
 42
-0.0096878071
 10
743.5826224253765
 20
864.6442380054091
 42
-0.0038234349
 10
744.1542724253763
 20
864.2769880054088
 42
-0.015185663
 10
744.7478224253764
 20
863.800088005409
 42
-0.033350544
 10
745.4782724253764
 20
863.0611880054089
 42
-0.020816685
 10
746.3248224253766
 20
862.0907380054089
 42
-0.012355318
  0
LWPOLYLINE
  5
280
330
1F
100
AcDbEntity
  8
KONTUR
100
AcDbPolyline
 90
       39
 70
     0
 43
0.0
 10
724.9102224253763
 20
870.075088005409
 10
725.6754724253765
 20
869.9821380054091
 42
-0.0029382781
 10
726.4321724253764
 20
869.8811880054091
 42
-0.0030221846
 10
727.1801224253763
 20
869.771888005409
 42
-0.0030589711
 10
727.9187724253763
 20
869.6548380054089
 42
-0.0030499943
 10
728.6466724253764
 20
869.5301380054088
 42
-0.0030681663
 10
729.3640224253763
 20
869.398238005409
 42
-0.0030829118
 10
730.0703224253766
 20
869.2591380054089
 42
-0.0031098607
 10
730.7656724253764
 20
869.1132380054089
 42
-0.0031313641
 10
731.4493224253763
 20
868.9605880054089
 42
-0.0031672623
 10
732.1213224253763
 20
868.8016380054089
 42
-0.0031969429
 10
732.7810224253765
 20
868.6363880054089
 42
-0.0032446552
 10
733.4286724253764
 20
868.465238005409
 42
-0.003287595
 10
734.0635724253764
 20
868.2882380054089
 42
-0.0033430588
 10
734.6851724253765
 20
868.105988005409
 42
-0.0034021827
 10
735.2918724253764
 20
867.9187380054091
 42
-0.0034943299
 10
735.8838224253764
 20
867.7269880054089
 42
-0.0035889873
 10
736.4600224253763
 20
867.5307380054091
 42
-0.0037056636
 10
737.0208724253764
 20
867.3303880054091
 42
-0.0038181536
 10
737.5656224253764
 20
867.125988005409
 42
-0.003955515
 10
738.0946724253763
 20
866.9178380054091
 42
-0.004094225
 10
738.6071724253766
 20
866.7059880054089
 42
-0.0042586258
 10
739.1036224253764
 20
866.490738005409
 42
-0.0044224708
 10
739.5830724253765
 20
866.272238005409
 42
-0.004625845
 10
740.0460724253765
 20
866.0507380054089
 42
-0.004842067
 10
740.4917224253763
 20
865.826288005409
 42
-0.0050676397
 10
740.9203724253764
 20
865.5992880054091
 42
-0.0052711259
 10
741.3311724253763
 20
865.369938005409
 42
-0.0056282141
 10
741.7250224253764
 20
865.1379380054091
 42
-0.0061097952
 10
742.1010724253765
 20
864.9032380054089
 42
-0.0062372406
 10
742.4582724253764
 20
864.668238005409
 42
-0.0059864003
 10
742.7950724253765
 20
864.4337380054089
 42
-0.0073065491
 10
743.1185724253764
 20
864.1916880054091
 42
-0.0098917548
 10
743.4323724253763
 20
863.9370880054089
 42
-0.0080594077
 10
743.7238224253765
 20
863.690188005409
 42
-0.002737975
 10
743.9877224253764
 20
863.4573380054089
 42
-0.01205072
 10
744.2782724253766
 20
863.155338005409
 42
-0.025024346
 10
744.6514224253765
 20
862.6964380054092
 42
-0.014782774
 10
745.0964724253763
 20
862.098338005409
 42
-0.008217675
  0
LWPOLYLINE
  5
2A9
330
1F
100
AcDbEntity
  8
KONTUR
100
AcDbPolyline
 90
       15
 70
     0
 43
0.0
 10
724.6111224253764
 20
870.1082880054089
 10
724.6287724253764
 20
870.1063880054089
 42
-0.000069987
 10
724.6476224253765
 20
870.1043380054089
 42
-0.000058733
 10
724.6678224253765
 20
870.102138005409
 42
-0.0000538997
 10
724.6889724253765
 20
870.0997880054088
 42
-0.000057899
 10
724.7108224253766
 20
870.0973880054089
 42
-0.0000580503
 10
724.7329224253763
 20
870.094988005409
 42
-0.0000558366
 10
724.7550224253764
 20
870.0925380054091
 42
-0.0000706321
 10
724.7771224253763
 20
870.0900880054089
 42
-0.0001044046
 10
724.7989224253765
 20
870.0876880054088
 42
-0.0000854869
 10
724.8192724253763
 20
870.0854380054088
 42
-0.0000112833
 10
724.8374724253765
 20
870.083388005409
 42
-0.0001643897
 10
724.8570224253763
 20
870.0811880054089
 42
-0.00047854
 10
724.8815224253763
 20
870.0783880054089
 42
-0.0003639482
 10
724.9102224253763
 20
870.075088005409
 42
-0.0002309643
  0
LWPOLYLINE
  5
2BA
330
1F
100
AcDbEntity
  8
KONTUR
100
AcDbPolyline
 90
       15
 70
     0
 43
0.0
 10
746.3248224253766
 20
862.0907380054089
 10
747.5430224253764
 20
860.192738005409
 42
0.00696557
 10
748.7601724253764
 20
858.410588005409
 42
0.0075588658
 10
749.9759724253763
 20
856.7491380054089
 42
0.0083531414
 10
751.1916724253765
 20
855.203638005409
 42
0.0093211333
 10
752.4071224253764
 20
853.779188005409
 42
0.0099940039
 10
753.6154724253765
 20
852.4721380054091
 42
0.010229873
 10
754.8138724253763
 20
851.2879380054092
 42
0.012421383
 10
756.0275724253763
 20
850.2185380054088
 42
0.016540158
 10
757.2646224253763
 20
849.2678880054091
 42
0.014135732
 10
758.4240224253765
 20
848.4451880054089
 42
0.0051674026
 10
759.4704224253765
 20
847.7603880054089
 42
0.02234985
 10
760.8008724253764
 20
847.1544880054089
 42
0.046208179
 10
762.8316724253764
 20
846.5757880054089
 42
0.025774692
 10
765.4801724253764
 20
846.030538005409
 42
0.01429339
  0
LINE
  5
2CB
330
1F
100
AcDbEntity
  8
KONTUR
100
AcDbLine
 10
765.4801724253764
 20
846.030538005409
 30
0.0
 11
764.2478724253765
 21
846.030688005409
 31
0.0
  0
LWPOLYLINE
  5
2CC
330
1F
100
AcDbEntity
  8
KONTUR
100
AcDbPolyline
 90
       31
 70
     0
 43
0.0
 10
745.0964724253763
 20
862.098338005409
 10
745.6941724253763
 20
861.1515380054088
 42
0.0032745104
 10
746.2905224253764
 20
860.233788005409
 42
0.0034089989
 10
746.8854224253764
 20
859.3464380054088
 42
0.003594164
 10
747.4796224253764
 20
858.4874380054089
 42
0.0038104981
 10
748.0740224253764
 20
857.657038005409
 42
0.0040200518
 10
748.6692724253764
 20
856.8533380054091
 42
0.0042194958
 10
749.2659724253763
 20
856.076838005409
 42
0.0044215147
 10
749.8649724253764
 20
855.325388005409
 42
0.0046096076
 10
750.4670224253764
 20
854.5992880054089
 42
0.0048078274
 10
751.0722224253764
 20
853.897588005409
 42
0.0050259151
 10
751.6802724253764
 20
853.2219380054089
 42
0.0052928506
 10
752.2892724253763
 20
852.5738880054089
 42
0.0056612036
 10
752.8975224253763
 20
851.9569880054089
 42
0.0060134579
 10
753.5049724253763
 20
851.369938005409
 42
0.006269073
 10
754.1119724253763
 20
850.813588005409
 42
0.0065811853
 10
754.7183724253764
 20
850.2866880054089
 42
0.006938861
 10
755.3240224253764
 20
849.790788005409
 42
0.0072941147
 10
755.9286724253764
 20
849.324638005409
 42
0.0076105966
 10
756.5320724253766
 20
848.889588005409
 42
0.0080763678
 10
757.1350724253764
 20
848.4843880054091
 42
0.0086597417
 10
757.7377224253764
 20
848.1102880054091
 42
0.008855028
 10
758.3367724253765
 20
847.7664380054089
 42
0.0086523392
 10
758.9309724253762
 20
847.454238005409
 42
0.0099979274
 10
759.5330724253765
 20
847.171388005409
 42
0.012538022
 10
760.1472724253765
 20
846.918938005409
 42
0.010006569
 10
760.7230724253764
 20
846.699838005409
 42
0.003520252
 10
761.2429224253765
 20
846.5169880054091
 42
0.014803938
 10
761.9060724253764
 20
846.352288005409
 42
0.027288993
 10
762.9215724253763
 20
846.1894880054087
 42
0.013992448
 10
764.2478724253765
 20
846.030688005409
 42
0.0075394837
  0
LINE
  5
2ED
330
1F
100
AcDbEntity
  8
KONTUR
100
AcDbLine
 10
765.4108224253764
 20
1141.775138005409
 30
0.0
 11
765.4103724253764
 21
1142.775138005409
 31
0.0
  0
LINE
  5
2EE
330
1F
100
AcDbEntity
  8
KONTUR
100
AcDbLine
 10
765.5975224253764
 20
1142.775138005409
 30
0.0
 11
765.5970224253765
 21
1144.525188005409
 31
0.0
  0
LINE
  5
2EF
330
1F
100
AcDbEntity
  8
KONTUR
100
AcDbLine
 10
624.8778724253764
 20
846.025138005409
 30
0.0
 11
627.1278724253764
 21
846.025138005409
 31
0.0
  0
LINE
  5
2F0
330
1F
100
AcDbEntity
  8
KONTUR
100
AcDbLine
 10
754.6278724253764
 20
846.025138005409
 30
0.0
 11
756.8778224253765
 21
846.025138005409
 31
0.0
  0
LINE
  5
2F1
330
1F
100
AcDbEntity
  8
KONTUR
100
AcDbLine
 10
618.2470724253765
 20
846.025138005409
 30
0.0
 11
617.4947224253765
 21
846.029788005409
 31
0.0
  0
LWPOLYLINE
  5
2F2
330
1F
100
AcDbEntity
  8
KONTUR
100
AcDbPolyline
 90
       15
 70
     0
 43
0.0
 10
618.2470724253765
 20
846.025138005409
 10
618.2471224253765
 20
846.0284880054089
 42
0.0000440873
 10
618.2471224253765
 20
846.0318880054087
 42
0.0000453437
 10
618.2471224253765
 20
846.0352380054089
 42
0.0000441772
 10
618.2471224253765
 20
846.0386380054088
 42
0.0000400391
 10
618.2471224253765
 20
846.0419880054089
 42
0.0000360498
 10
618.2471224253765
 20
846.0453880054088
 42
0.0000319031
 10
618.2471224253765
 20
846.048738005409
 42
0.0000308014
 10
618.2471224253765
 20
846.0521380054088
 42
0.0000300066
 10
618.2471224253765
 20
846.0555880054089
 42
0.0000225806
 10
618.2471224253765
 20
846.0588380054089
 42
0.0000130929
 10
618.2471224253765
 20
846.061788005409
 42
0.0000216327
 10
618.2471224253765
 20
846.0655880054089
 42
0.0000233776
 10
618.2471224253765
 20
846.0714380054089
 42
0.0000105761
 10
618.2471224253765
 20
846.079088005409
 42
0.0000063447
  0
LINE
  5
303
330
1F
100
AcDbEntity
  8
KONTUR
100
AcDbLine
 10
764.2610224253763
 20
846.029788005409
 30
0.0
 11
763.5086224253764
 21
846.025138005409
 31
0.0
  0
LWPOLYLINE
  5
304
330
1F
100
AcDbEntity
  8
KONTUR
100
AcDbPolyline
 90
       15
 70
     0
 43
0.0
 10
763.5086224253764
 20
846.079088005409
 10
763.5086224253764
 20
846.075738005409
 42
0.0000037929
 10
763.5086224253764
 20
846.0723380054089
 42
0.000002852
 10
763.5086224253764
 20
846.068988005409
 42
0.0000037709
 10
763.5086224253764
 20
846.0655880054089
 42
0.0000067593
 10
763.5086224253764
 20
846.062238005409
 42
0.0000082148
 10
763.5086224253764
 20
846.0588380054089
 42
0.0000086823
 10
763.5086224253764
 20
846.0555380054091
 42
0.0000121141
 10
763.5086224253764
 20
846.0521380054088
 42
0.0000182856
 10
763.5086224253764
 20
846.048638005409
 42
0.0000139931
 10
763.5086224253764
 20
846.0453880054088
 42
0.0000017501
 10
763.5086224253764
 20
846.0424380054089
 42
0.0000255812
 10
763.5086224253764
 20
846.0386380054088
 42
0.0000519028
 10
763.5086224253764
 20
846.0327880054087
 42
0.0000258494
 10
763.5086224253764
 20
846.025138005409
 42
0.0000132723
  0
LINE
  5
315
330
1F
100
AcDbEntity
  8
KONTUR
100
AcDbLine
 10
765.3198224253765
 20
1146.025188005409
 30
0.0
 11
746.6735724253765
 21
1146.025188005409
 31
0.0
  0
LWPOLYLINE
  5
316
330
1F
100
AcDbEntity
  8
KONTUR
100
AcDbPolyline
 90
       23
 70
     0
 43
0.0
 10
746.6735724253765
 20
1146.025188005409
 10
746.3527224253764
 20
1146.025138005409
 42
-0.0000005943
 10
745.9702224253765
 20
1146.025138005409
 42
-0.0000004278
 10
745.5232724253765
 20
1146.025138005409
 42
-0.0000003049
 10
745.0155724253764
 20
1146.025138005409
 42
-0.0000002138
 10
744.4460224253764
 20
1146.025138005409
 42
-0.0000001553
 10
743.8181224253765
 20
1146.025138005409
 42
-0.0000001161
 10
743.1305724253764
 20
1146.025138005409
 42
-0.0000000869
 10
742.3865724253765
 20
1146.025138005409
 42
-0.0000000632
 10
741.5849224253766
 20
1146.025138005409
 42
-0.0000000458
 10
740.7294224253765
 20
1146.025138005409
 42
-0.0000000311
 10
739.8190224253765
 20
1146.025138005409
 42
-0.0000000197
 10
738.8552224253765
 20
1146.025138005409
 10
737.8371724253766
 20
1146.025138005409
 10
736.7796724253765
 20
1146.025138005409
 10
735.6889224253764
 20
1146.025138005409
 42
-0.0000000167
 10
734.5386224253764
 20
1146.025138005409
 42
-0.0000000391
 10
733.3185724253763
 20
1146.025138005409
 42
-0.0000000284
 10
732.1503724253764
 20
1146.025138005409
 42
0.0000000058
 10
731.0756224253764
 20
1146.025138005409
 42
-0.000000066
 10
729.6314724253764
 20
1146.025138005409
 42
-0.0000001406
 10
727.3293724253765
 20
1146.025138005409
 42
-0.0000000662
 10
724.2675724253763
 20
1146.025188005409
 42
-0.000000032
  0
LINE
  5
32F
330
1F
100
AcDbEntity
  8
KONTUR
100
AcDbLine
 10
690.8778724253764
 20
1146.025188005409
 30
0.0
 11
724.2675724253763
 21
1146.025188005409
 31
0.0
  0
LINE
  5
330
330
1F
100
AcDbEntity
  8
KONTUR
100
AcDbLine
 10
690.8778724253764
 20
1146.025188005409
 30
0.0
 11
657.4881724253764
 21
1146.025188005409
 31
0.0
  0
LWPOLYLINE
  5
331
330
1F
100
AcDbEntity
  8
KONTUR
100
AcDbPolyline
 90
       23
 70
     0
 43
0.0
 10
657.4881724253764
 20
1146.025188005409
 10
656.1106724253764
 20
1146.025138005409
 42
-0.0000000516
 10
654.7573224253764
 20
1146.025138005409
 42
-0.0000000562
 10
653.4287224253765
 20
1146.025138005409
 42
-0.0000000556
 10
652.1260724253764
 20
1146.025138005409
 42
-0.0000000486
 10
650.8531224253763
 20
1146.025138005409
 42
-0.000000044
 10
649.6106224253765
 20
1146.025138005409
 42
-0.0000000399
 10
648.4017724253764
 20
1146.025138005409
 42
-0.000000036
 10
647.2272224253765
 20
1146.025138005409
 42
-0.0000000308
 10
646.0904224253763
 20
1146.025138005409
 42
-0.0000000262
 10
644.9919724253764
 20
1146.025138005409
 10
643.9354224253764
 20
1146.025138005409
 10
642.9210724253765
 20
1146.025138005409
 10
641.9533724253764
 20
1146.025138005409
 10
641.0373224253764
 20
1146.025138005409
 10
640.1802224253764
 20
1146.025138005409
 42
-0.0000000233
 10
639.3731224253764
 20
1146.025138005409
 42
-0.0000000632
 10
638.6159224253764
 20
1146.025138005409
 42
-0.0000000589
 10
637.9377724253765
 20
1146.025138005409
 10
637.3525224253764
 20
1146.025138005409
 42
-0.0000001491
 10
636.7389724253765
 20
1146.025138005409
 42
-0.0000004807
 10
635.9747224253764
 20
1146.025138005409
 42
-0.0000003689
 10
635.0821724253764
 20
1146.025188005409
 42
-0.0000002393
  0
LINE
  5
34A
330
1F
100
AcDbEntity
  8
KONTUR
100
AcDbLine
 10
616.4359224253765
 20
1146.025188005409
 30
0.0
 11
635.0821724253764
 21
1146.025188005409
 31
0.0
  0
LINE
  5
34B
330
1F
100
AcDbEntity
  8
KONTUR
100
AcDbLine
 10
616.1582724253765
 20
1142.775138005409
 30
0.0
 11
616.1587224253765
 21
1144.525188005409
 31
0.0
  0
LINE
  5
34C
330
1F
100
AcDbEntity
  8
KONTUR
100
AcDbLine
 10
616.3201724253764
 20
1141.775138005409
 30
0.0
 11
616.3449224253764
 21
1141.775138005409
 31
0.0
  0
LINE
  5
34D
330
1F
100
AcDbEntity
  8
KONTUR
100
AcDbLine
 10
616.3449224253764
 20
1141.775138005409
 30
0.0
 11
616.3453224253765
 21
1142.775138005409
 31
0.0
  0
LINE
  5
34E
330
1F
100
AcDbEntity
  8
KONTUR
100
AcDbLine
 10
616.3453224253765
 20
1142.775138005409
 30
0.0
 11
616.1582724253765
 21
1142.775138005409
 31
0.0
  0
LINE
  5
34F
330
1F
100
AcDbEntity
  8
KONTUR
100
AcDbLine
 10
765.4801724253764
 20
846.030538005409
 30
0.0
 11
765.5086224253764
 21
846.029538005409
 31
0.0
  0
LWPOLYLINE
  5
350
330
1F
100
AcDbEntity
  8
KONTUR
100
AcDbPolyline
 90
       15
 70
     0
 43
0.0
 10
765.5086224253764
 20
846.0294880054089
 10
765.5102724253766
 20
864.5154380054091
 42
0.000006287
 10
765.5114224253764
 20
882.997838005409
 42
0.0000060973
 10
765.5121224253764
 20
901.472638005409
 42
0.000006285
 10
765.5123724253763
 20
919.966138005409
 42
0.0000068629
 10
765.5120724253766
 20
938.4876880054089
 42
0.0000069221
 10
765.5112724253763
 20
956.934438005409
 42
0.000006619
 10
765.5099724253764
 20
975.270888005409
 42
0.0000076951
 10
765.5079724253765
 20
993.9027880054089
 42
0.0000097652
 10
765.5052724253765
 20
1012.969888005409
 42
0.000007431
 10
765.5023724253765
 20
1030.871088005409
 42
0.0000020812
 10
765.4994224253765
 20
1047.054838005409
 42
0.000011382
 10
765.4941724253763
 20
1067.839388005409
 42
0.000020806
 10
765.4840724253763
 20
1099.852338005409
 42
0.0000102489
 10
765.4696224253764
 20
1141.776038005409
 42
0.0000053662
  0
LINE
  5
361
330
1F
100
AcDbEntity
  8
KONTUR
100
AcDbLine
 10
765.4696224253764
 20
1141.776038005409
 30
0.0
 11
765.4355724253764
 21
1141.775138005409
 31
0.0
  0
LINE
  5
362
330
1F
100
AcDbEntity
  8
KONTUR
100
AcDbLine
 10
616.2471224253763
 20
846.029538005409
 30
0.0
 11
616.2755224253764
 21
846.030538005409
 31
0.0
  0
LWPOLYLINE
  5
363
330
1F
100
AcDbEntity
  8
KONTUR
100
AcDbPolyline
 90
       15
 70
     0
 43
0.0
 10
616.2860724253765
 20
1141.776038005409
 10
616.2788224253765
 20
1123.290088005409
 42
0.0000098607
 10
616.2722724253764
 20
1104.807688005409
 42
0.000009944
 10
616.2665224253765
 20
1086.332888005409
 42
0.0000098669
 10
616.2614224253764
 20
1067.839388005409
 42
0.0000095556
 10
616.2570224253764
 20
1049.317838005409
 42
0.0000089933
 10
616.2533224253764
 20
1030.871088005409
 42
0.0000082174
 10
616.2502224253764
 20
1012.534638005409
 42
0.0000086206
 10
616.2477224253764
 20
993.9027880054089
 42
0.0000095936
 10
616.2459224253764
 20
974.8356380054088
 42
0.0000072619
 10
616.2445224253764
 20
956.934438005409
 42
0.0000030351
 10
616.2435724253764
 20
940.7506880054091
 42
0.000009205
 10
616.2434724253765
 20
919.966138005409
 42
0.000014434
 10
616.2447224253765
 20
887.953188005409
 42
0.000006971
 10
616.2471724253764
 20
846.0294880054089
 42
0.0000037691
  0
LINE
  5
374
330
1F
100
AcDbEntity
  8
KONTUR
100
AcDbLine
 10
616.3201724253764
 20
1141.775138005409
 30
0.0
 11
616.2860724253765
 21
1141.776038005409
 31
0.0
  0
LINE
  5
396
330
1F
100
AcDbEntity
  8
KONTUR
100
AcDbLine
 10
765.4355724253764
 20
1141.775138005409
 30
0.0
 11
765.4108224253764
 21
1141.775138005409
 31
0.0
  0
LINE
  5
397
330
1F
100
AcDbEntity
  8
KONTUR
100
AcDbLine
 10
765.4103724253764
 20
1142.775138005409
 30
0.0
 11
765.5975224253764
 21
1142.775138005409
 31
0.0
  0
LINE
  5
3D6
330
1F
100
AcDbEntity
  8
KONTUR
100
AcDbLine
 10
740.5196724253765
 20
855.122388005409
 30
0.0
 11
641.2360724253765
 21
855.122388005409
 31
0.0
  0
LINE
  5
3D7
330
1F
100
AcDbEntity
  8
KONTUR
100
AcDbLine
 10
750.8778724253764
 20
853.872388005409
 30
0.0
 11
630.8778724253764
 21
853.872388005409
 31
0.0
  0
LINE
  5
3D8
330
1F
100
AcDbEntity
  8
KONTUR
100
AcDbLine
 10
262.3015924253764
 20
848.596538005409
 30
0.0
 11
262.3015924253764
 21
851.025138005409
 31
0.0
  0
LINE
  5
3D9
330
1F
100
AcDbEntity
  8
KONTUR
100
AcDbLine
 10
262.3015924253764
 20
1139.275138005409
 30
0.0
 11
262.3015924253764
 21
1141.775138005409
 31
0.0
  0
LINE
  5
3DA
330
1F
100
AcDbEntity
  8
KONTUR
100
AcDbLine
 10
257.5824524253765
 20
845.930938005409
 30
0.0
 11
258.5824524253765
 21
845.6840380054089
 31
0.0
  0
LINE
  5
3DB
330
1F
100
AcDbEntity
  8
KONTUR
100
AcDbLine
 10
260.0515924253764
 20
1144.025138005409
 30
0.0
 11
259.3015924253764
 21
1144.025138005409
 31
0.0
  0
LINE
  5
3DC
330
1F
100
AcDbEntity
  8
KONTUR
100
AcDbLine
 10
259.3015924253764
 20
1144.025138005409
 30
0.0
 11
257.8015924253764
 21
1144.025138005409
 31
0.0
  0
LINE
  5
3DD
330
1F
100
AcDbEntity
  8
KONTUR
100
AcDbLine
 10
257.8015924253764
 20
1144.025138005409
 30
0.0
 11
251.8015924253764
 21
1144.025138005409
 31
0.0
  0
LINE
  5
3DE
330
1F
100
AcDbEntity
  8
KONTUR
100
AcDbLine
 10
251.8015924253764
 20
1144.025138005409
 30
0.0
 11
251.0315474253764
 21
1144.025138005409
 31
0.0
  0
ARC
  5
3DF
330
1F
100
AcDbEntity
  8
KONTUR
100
AcDbCircle
 10
259.3015924253764
 20
848.596538005409
 30
0.0
 40
2.99999985
100
AcDbArc
 50
256.1303100000006
 51
0.0000000000007994
  0
ARC
  5
3E0
330
1F
100
AcDbEntity
  8
KONTUR
100
AcDbCircle
 10
260.0515924253764
 20
1141.775138005409
 30
0.0
 40
2.2499999
100
AcDbArc
 50
0.0000022846
 51
89.99999700000019
  0
ARC
  5
3E1
330
1F
100
AcDbEntity
  8
KONTUR
100
AcDbCircle
 10
260.0515924253764
 20
1141.775138005409
 30
0.0
 40
1.0
100
AcDbArc
 50
0.0000000013
 51
90.0000000000002
  0
LINE
  5
3E2
330
1F
100
AcDbEntity
  8
KONTUR
100
AcDbLine
 10
260.0515924253764
 20
1142.775138005409
 30
0.0
 11
259.3015924253764
 21
1142.775138005409
 31
0.0
  0
LINE
  5
3E3
330
1F
100
AcDbEntity
  8
KONTUR
100
AcDbLine
 10
259.3015924253764
 20
1142.775138005409
 30
0.0
 11
257.8015924253764
 21
1142.775138005409
 31
0.0
  0
LINE
  5
3E4
330
1F
100
AcDbEntity
  8
KONTUR
100
AcDbLine
 10
257.8015924253764
 20
1142.775138005409
 30
0.0
 11
251.8015924253764
 21
1142.775138005409
 31
0.0
  0
LINE
  5
3E5
330
1F
100
AcDbEntity
  8
KONTUR
100
AcDbLine
 10
251.8015924253764
 20
1142.775138005409
 30
0.0
 11
251.0314124253764
 21
1142.775138005409
 31
0.0
  0
LINE
  5
3E6
330
1F
100
AcDbEntity
  8
KONTUR
100
AcDbLine
 10
261.0516274253764
 20
1141.382988005409
 30
0.0
 11
261.0515924253764
 21
1141.775138005409
 31
0.0
  0
LINE
  5
3E7
330
1F
100
AcDbEntity
  8
KONTUR
100
AcDbLine
 10
259.3015924253764
 20
1142.775138005409
 30
0.0
 11
259.3015924253764
 21
1144.025138005409
 31
0.0
  0
LINE
  5
3E8
330
1F
100
AcDbEntity
  8
KONTUR
100
AcDbLine
 10
257.5824524253765
 20
845.930938005409
 30
0.0
 11
257.2007424253765
 21
846.0251880054088
 31
0.0
  0
ARC
  5
3E9
330
1F
100
AcDbEntity
  8
KONTUR
100
AcDbCircle
 10
258.3015924253765
 20
848.8434880054087
 30
0.0
 40
2.9999999
100
AcDbArc
 50
256.1303100000006
 51
340.8751200000007
  0
CIRCLE
  5
3EA
330
1F
100
AcDbEntity
  8
KONTUR
100
AcDbCircle
 10
257.3015924253764
 20
851.275138005409
 30
0.0
 40
2.05
  0
LINE
  5
3EB
330
1F
100
AcDbEntity
  8
KONTUR
100
AcDbLine
 10
251.0515924253764
 20
846.025138005409
 30
0.0
 11
252.3015924253764
 21
846.025138005409
 31
0.0
  0
LINE
  5
3EC
330
1F
100
AcDbEntity
  8
KONTUR
100
AcDbLine
 10
253.3015924253765
 20
846.025138005409
 30
0.0
 11
257.3015924253764
 21
846.025138005409
 31
0.0
  0
ARC
  5
3ED
330
1F
100
AcDbEntity
  8
KONTUR
100
AcDbCircle
 10
257.3015924253764
 20
851.025138005409
 30
0.0
 40
5.0
100
AcDbArc
 50
270.0000000000006
 51
0.0000000000007994
  0
LINE
  5
3EE
330
1F
100
AcDbEntity
  8
KONTUR
100
AcDbLine
 10
262.3015924253764
 20
851.025138005409
 30
0.0
 11
262.3015924253764
 21
1139.275138005409
 31
0.0
  0
ARC
  5
3EF
330
1F
100
AcDbEntity
  8
KONTUR
100
AcDbCircle
 10
259.8015924253764
 20
1139.275138005409
 30
0.0
 40
2.5
100
AcDbArc
 50
0.0000000000007994
 51
90.00000000000104
  0
LINE
  5
3F0
330
1F
100
AcDbEntity
  8
KONTUR
100
AcDbLine
 10
259.8015924253764
 20
1141.775138005409
 30
0.0
 11
253.3015924253765
 21
1141.775138005409
 31
0.0
  0
LINE
  5
3F1
330
1F
100
AcDbEntity
  8
KONTUR
100
AcDbLine
 10
251.0515924253764
 20
846.027738005409
 30
0.0
 11
251.0515924253764
 21
846.025138005409
 31
0.0
  0
LINE
  5
3F2
330
1F
100
AcDbEntity
  8
KONTUR
100
AcDbLine
 10
252.3015924253764
 20
1141.775138005409
 30
0.0
 11
252.3015924253764
 21
846.025138005409
 31
0.0
  0
LWPOLYLINE
  5
3F3
330
1F
100
AcDbEntity
  8
KONTUR
100
AcDbPolyline
 90
       11
 70
     0
 43
0.0
 10
251.0317624253764
 20
1144.524238005409
 10
251.0213524253764
 20
1144.706788005409
 42
0.034113257
 10
250.9872724253764
 20
1144.890388005409
 42
0.0298675
 10
250.9292024253764
 20
1145.075838005409
 42
0.030605077
 10
250.8435674253765
 20
1145.257988005409
 42
0.038477082
 10
250.7276424253764
 20
1145.429938005409
 42
0.032324632
 10
250.6000524253764
 20
1145.585188005409
 42
0.016655467
 10
250.4684974253764
 20
1145.717788005409
 42
0.04135689
 10
250.2784774253764
 20
1145.832988005409
 42
0.070317553
 10
249.9706124253764
 20
1145.935288005409
 42
0.038008034
 10
249.5572874253764
 20
1146.024538005409
 42
0.020270951
  0
LWPOLYLINE
  5
400
330
1F
100
AcDbEntity
  8
KONTUR
100
AcDbPolyline
 90
       15
 70
     0
 43
0.0
 10
249.5572874253764
 20
1146.024538005409
 10
249.5429174253765
 20
1146.024538005409
 42
-0.0000115037
 10
249.5285524253763
 20
1146.024588005409
 42
-0.000012266
 10
249.5141924253765
 20
1146.024638005409
 42
-0.0000115266
 10
249.4998174253765
 20
1146.024688005409
 42
-0.0000090367
 10
249.4854224253764
 20
1146.024688005409
 42
-0.0000072366
 10
249.4710874253764
 20
1146.024738005409
 42
-0.0000058066
 10
249.4568324253764
 20
1146.024788005409
 42
-0.0000040331
 10
249.4423524253764
 20
1146.024838005409
 42
-0.0000011973
 10
249.4275324253764
 20
1146.024838005409
 42
-0.0000007993
 10
249.4136224253764
 20
1146.024888005409
 42
-0.0000031406
 10
249.4010424253764
 20
1146.024938005409
 42
0.000004363
 10
249.3848924253764
 20
1146.024988005409
 42
0.000014947
 10
249.3600124253765
 20
1146.025038005409
 42
0.0000077698
 10
249.3274374253764
 20
1146.025138005409
 42
0.000003721
  0
LWPOLYLINE
  5
411
330
1F
100
AcDbEntity
  8
KONTUR
100
AcDbPolyline
 90
       11
 70
     0
 43
0.0
 10
250.8016124253764
 20
1144.525238005409
 10
250.7911574253764
 20
1144.707738005409
 42
0.034100985
 10
250.7570474253764
 20
1144.891288005409
 42
0.029857727
 10
250.6989574253764
 20
1145.076688005409
 42
0.030596331
 10
250.6133224253765
 20
1145.258738005409
 42
0.038465278
 10
250.4974224253765
 20
1145.430638005409
 42
0.032313566
 10
250.3698624253764
 20
1145.585838005409
 42
0.016647114
 10
250.2383524253764
 20
1145.718388005409
 42
0.04134528
 10
250.0483974253764
 20
1145.833538005409
 42
0.070300803
 10
249.7406274253764
 20
1145.935838005409
 42
0.037997615
 10
249.3274374253764
 20
1146.025138005409
 42
0.020265485
  0
LWPOLYLINE
  5
41E
330
1F
100
AcDbEntity
  8
KONTUR
100
AcDbPolyline
 90
       15
 70
     0
 43
0.0
 10
178.5566174253764
 20
853.2883880054089
 10
178.8222274253765
 20
853.2354380054089
 42
0.0001798559
 10
179.0878174253764
 20
853.1826880054089
 42
0.0001784378
 10
179.3533374253764
 20
853.130138005409
 42
0.0001798981
 10
179.6191674253764
 20
853.077738005409
 42
0.0001836146
 10
179.8854374253765
 20
853.025488005409
 42
0.0001784167
 10
180.1506624253764
 20
852.973588005409
 42
0.000166583
 10
180.4143424253764
 20
852.9221880054088
 42
0.000183849
 10
180.6823074253764
 20
852.8701880054089
 42
0.000219143
 10
180.9565774253764
 20
852.817188005409
 42
0.000166354
 10
181.2141024253764
 20
852.7675880054089
 42
0.0000571303
 10
181.4469324253764
 20
852.722788005409
 42
0.000234621
 10
181.7460374253765
 20
852.6656880054088
 42
0.0004037078
 10
182.2068374253764
 20
852.578338005409
 42
0.0001974
 10
182.8103524253764
 20
852.4642880054089
 42
0.0001046123
  0
LWPOLYLINE
  5
42F
330
1F
100
AcDbEntity
  8
KONTUR
100
AcDbPolyline
 90
       15
 70
     0
 43
0.0
 10
196.6143574253764
 20
850.133738005409
 10
197.4516524253763
 20
850.0104880054091
 42
0.0005339814
 10
198.2890524253764
 20
849.889038005409
 42
0.0005287238
 10
199.1263924253764
 20
849.769438005409
 42
0.000534038
 10
199.9648474253764
 20
849.651488005409
 42
0.0005483362
 10
200.8048574253764
 20
849.5352880054088
 42
0.000534652
 10
201.6417274253764
 20
849.4212380054089
 42
0.0005003148
 10
202.4738524253764
 20
849.3095880054088
 42
0.000555015
 10
203.3196774253764
 20
849.1982380054089
 42
0.000665894
 10
204.1855774253764
 20
849.086438005409
 42
0.0005055877
 10
204.9986824253765
 20
848.9825880054091
 42
0.0001701494
 10
205.7339074253764
 20
848.889588005409
 42
0.000719669
 10
206.6787224253765
 20
848.7743380054089
 42
0.001247206
 10
208.1346924253764
 20
848.6022880054088
 42
0.0006103291
 10
210.0418524253764
 20
848.380288005409
 42
0.000322941
  0
LWPOLYLINE
  5
440
330
1F
100
AcDbEntity
  8
KONTUR
100
AcDbPolyline
 90
       15
 70
     0
 43
0.0
 10
216.2886824253765
 20
847.7297880054089
 10
216.7686324253764
 20
847.6841880054089
 42
0.0003201973
 10
217.2485574253765
 20
847.6391880054089
 42
0.0003176389
 10
217.7283574253763
 20
847.5948380054087
 42
0.0003202326
 10
218.2087124253765
 20
847.5510380054088
 42
0.0003268753
 10
218.6898724253764
 20
847.507838005409
 42
0.000317628
 10
219.1691524253764
 20
847.4653880054091
 42
0.00029656
 10
219.6456374253764
 20
847.423788005409
 42
0.0003273197
 10
220.1298724253764
 20
847.3821880054088
 42
0.0003901937
 10
220.6254974253764
 20
847.340338005409
 42
0.0002961798
 10
221.0908574253765
 20
847.301438005409
 42
0.0001016583
 10
221.5116074253764
 20
847.266588005409
 42
0.0004177921
 10
222.0521174253764
 20
847.2231880054092
 42
0.000718933
 10
222.8848124253764
 20
847.158138005409
 42
0.000351502
 10
223.9754124253764
 20
847.074038005409
 42
0.0001862606
  0
LWPOLYLINE
  5
451
330
1F
100
AcDbEntity
  8
KONTUR
100
AcDbPolyline
 90
       15
 70
     0
 43
0.0
 10
233.0682474253764
 20
846.503488005409
 10
233.3089924253763
 20
846.4913880054089
 42
0.0001600764
 10
233.5497074253765
 20
846.4794380054091
 42
0.000158801
 10
233.7903374253765
 20
846.467688005409
 42
0.0001600983
 10
234.0312274253765
 20
846.456038005409
 42
0.000163416
 10
234.2724924253764
 20
846.444538005409
 42
0.000158792
 10
234.5127924253763
 20
846.4332380054088
 42
0.0001482596
 10
234.7516674253764
 20
846.4221380054091
 42
0.0001636342
 10
234.9944074253765
 20
846.411088005409
 42
0.0001950608
 10
235.2428324253764
 20
846.3998880054091
 42
0.0001480653
 10
235.4760774253764
 20
846.389488005409
 42
0.0000508292
 10
235.6869474253765
 20
846.3801880054091
 42
0.0002088516
 10
235.9577924253765
 20
846.368588005409
 42
0.0003593814
 10
236.3749924253764
 20
846.3511380054088
 42
0.0001757143
 10
236.9213724253764
 20
846.328538005409
 42
0.000093114
  0
LWPOLYLINE
  5
462
330
1F
100
AcDbEntity
  8
KONTUR
100
AcDbPolyline
 90
       15
 70
     0
 43
0.0
 10
220.2385974253764
 20
847.4315880054089
 10
220.4377574253764
 20
847.4076380054089
 42
0.0011618611
 10
220.6369674253765
 20
847.384638005409
 42
0.0011806128
 10
220.8361874253764
 20
847.3626380054088
 42
0.0011632503
 10
221.0356874253764
 20
847.3414380054089
 42
0.001098916
 10
221.2355774253764
 20
847.321138005409
 42
0.0010177812
 10
221.4347324253764
 20
847.3016380054089
 42
0.0009194849
 10
221.6327624253764
 20
847.2829880054089
 42
0.000937717
 10
221.8340574253764
 20
847.264838005409
 42
0.0010005721
 10
222.0401274253765
 20
847.247038005409
 42
0.0007559567
 10
222.2336374253764
 20
847.230738005409
 42
0.000352596
 10
222.4086124253764
 20
847.2163380054089
 42
0.0008879728
 10
222.6334274253765
 20
847.1989880054089
 42
0.0012864746
 10
222.9798174253765
 20
847.1734880054091
 42
0.0006140548
 10
223.4335174253764
 20
847.1409380054088
 42
0.000338266
  0
LWPOLYLINE
  5
473
330
1F
100
AcDbEntity
  8
KONTUR
100
AcDbPolyline
 90
       15
 70
     0
 43
0.0
 10
235.4325174253764
 20
846.419038005409
 10
235.5130974253764
 20
846.412188005409
 42
0.0012525532
 10
235.5936824253764
 20
846.405688005409
 42
0.0012775599
 10
235.6742574253764
 20
846.399688005409
 42
0.0012543388
 10
235.7549324253764
 20
846.393988005409
 42
0.0011700003
 10
235.8357524253764
 20
846.388688005409
 42
0.0010744691
 10
235.9162624253764
 20
846.383738005409
 42
0.000964794
 10
235.9963074253765
 20
846.379138005409
 42
0.0009686116
 10
236.0776624253764
 20
846.3747880054091
 42
0.0010083302
 10
236.1609324253765
 20
846.3706380054091
 42
0.0007609788
 10
236.2391174253764
 20
846.3668880054088
 42
0.0003774262
 10
236.3098124253764
 20
846.3636880054089
 42
0.0008508231
 10
236.4006274253763
 20
846.359938005409
 42
0.001162646
 10
236.5405224253765
 20
846.354638005409
 42
0.0005498238
 10
236.7237474253764
 20
846.3480380054089
 42
0.0003074326
  0
LINE
  5
4FA
330
1F
100
AcDbEntity
  8
KONTUR
100
AcDbLine
 10
249.8016224253764
 20
1141.775188005409
 30
0.0
 11
249.8016224253764
 21
1142.775188005409
 31
0.0
  0
LINE
  5
4FB
330
1F
100
AcDbEntity
  8
KONTUR
100
AcDbLine
 10
249.8016224253764
 20
1142.775188005409
 30
0.0
 11
250.0316224253764
 21
1142.774588005409
 31
0.0
  0
LINE
  5
4FC
330
1F
100
AcDbEntity
  8
KONTUR
100
AcDbLine
 10
250.0314124253764
 20
1141.775988005409
 30
0.0
 11
250.0316224253764
 21
1142.774588005409
 31
0.0
  0
LINE
  5
4FD
330
1F
100
AcDbEntity
  8
KONTUR
100
AcDbLine
 10
251.0314124253764
 20
1142.775138005409
 30
0.0
 11
251.0317624253764
 21
1144.524238005409
 31
0.0
  0
LINE
  5
4FE
330
1F
100
AcDbEntity
  8
KONTUR
100
AcDbLine
 10
251.0314124253764
 20
1142.775138005409
 30
0.0
 11
250.8015774253764
 21
1142.775138005409
 31
0.0
  0
LINE
  5
4FF
330
1F
100
AcDbEntity
  8
KONTUR
100
AcDbLine
 10
250.8015774253764
 20
1142.775138005409
 30
0.0
 11
250.8016124253764
 21
1144.525238005409
 31
0.0
  0
LINE
  5
500
330
1F
100
AcDbEntity
  8
KONTUR
100
AcDbLine
 10
250.8295374253764
 20
1141.775938005409
 30
0.0
 11
250.6745724253765
 21
1141.775988005409
 31
0.0
  0
LINE
  5
501
330
1F
100
AcDbEntity
  8
KONTUR
100
AcDbLine
 10
251.0515924253764
 20
846.025138005409
 30
0.0
 11
251.0515924253764
 21
846.025138005409
 31
0.0
  0
LINE
  5
502
330
1F
100
AcDbEntity
  8
KONTUR
100
AcDbLine
 10
251.0314124253764
 20
1142.775138005409
 30
0.0
 11
250.8015774253764
 21
1142.775138005409
 31
0.0
  0
LINE
  5
53E
330
1F
100
AcDbEntity
  8
KONTUR
100
AcDbLine
 10
127.2096824253764
 20
1146.020888005409
 30
0.0
 11
127.1711974253765
 21
1146.025138005409
 31
0.0
  0
LINE
  5
561
330
1F
100
AcDbEntity
  8
KONTUR
100
AcDbLine
 10
249.9655224253764
 20
846.030538005409
 30
0.0
 11
252.3015924253764
 21
846.025138005409
 31
0.0
  0
LINE
  5
562
330
1F
100
AcDbEntity
  8
KONTUR
100
AcDbLine
 10
252.3015924253764
 20
1141.775138005409
 30
0.0
 11
249.9339274253764
 21
1141.775138005409
 31
0.0
  0
LINE
  5
574
330
1F
100
AcDbEntity
  8
KONTUR
100
AcDbLine
 10
253.3015924253765
 20
846.025138005409
 30
0.0
 11
252.3015924253764
 21
846.025138005409
 31
0.0
  0
LINE
  5
575
330
1F
100
AcDbEntity
  8
KONTUR
100
AcDbLine
 10
252.3015924253764
 20
1141.775138005409
 30
0.0
 11
253.3015924253765
 21
1141.775138005409
 31
0.0
  0
LINE
  5
58F
330
1F
100
AcDbEntity
  8
KONTUR
100
AcDbLine
 10
249.9339274253764
 20
1141.775138005409
 30
0.0
 11
249.8016224253764
 21
1141.775188005409
 31
0.0
  0
LINE
  5
590
330
1F
100
AcDbEntity
  8
KONTUR
100
AcDbLine
 10
249.8016224253764
 20
1142.775188005409
 30
0.0
 11
250.8015774253764
 21
1142.775138005409
 31
0.0
  0
LINE
  5
5D1
330
1F
100
AcDbEntity
  8
KONTUR
100
AcDbLine
 10
627.1278724253764
 20
586.1112880054088
 30
0.0
 11
627.5070224253764
 21
586.1112880054088
 31
0.0
  0
LINE
  5
5D2
330
1F
100
AcDbEntity
  8
KONTUR
100
AcDbLine
 10
752.3778724253764
 20
587.111288005409
 30
0.0
 11
751.6278724253766
 21
587.111288005409
 31
0.0
  0
LINE
  5
5D3
330
1F
100
AcDbEntity
  8
KONTUR
100
AcDbLine
 10
751.6278724253766
 20
587.111288005409
 30
0.0
 11
630.1278724253764
 21
587.111288005409
 31
0.0
  0
LINE
  5
5D4
330
1F
100
AcDbEntity
  8
KONTUR
100
AcDbLine
 10
630.1278724253764
 20
587.111288005409
 30
0.0
 11
629.3778724253764
 21
587.111288005409
 31
0.0
  0
ARC
  5
5D5
330
1F
100
AcDbEntity
  8
KONTUR
100
AcDbCircle
 10
752.3778724253764
 20
584.8612880054088
 30
0.0
 40
2.25
100
AcDbArc
 50
0.0
 51
90.00000200000021
  0
LINE
  5
5D6
330
1F
100
AcDbEntity
  8
KONTUR
100
AcDbLine
 10
754.6278724253764
 20
531.4977880054089
 30
0.0
 11
754.6278724253764
 21
535.5712880054089
 31
0.0
  0
LINE
  5
5D7
330
1F
100
AcDbEntity
  8
KONTUR
100
AcDbLine
 10
627.1278724253764
 20
535.5714380054089
 30
0.0
 11
627.1278724253764
 21
531.497638005409
 31
0.0
  0
ARC
  5
5D8
330
1F
100
AcDbEntity
  8
KONTUR
100
AcDbCircle
 10
629.3778724253764
 20
584.8612880054088
 30
0.0
 40
2.24999995
100
AcDbArc
 50
90.00000100000021
 51
180.0000000000004
  0
ARC
  5
5D9
330
1F
100
AcDbEntity
  8
KONTUR
100
AcDbCircle
 10
629.3778724253764
 20
584.8612880054088
 30
0.0
 40
1.0
100
AcDbArc
 50
90.0000000000002
 51
180.0000000000004
  0
LINE
  5
5DA
330
1F
100
AcDbEntity
  8
KONTUR
100
AcDbLine
 10
628.3778724253764
 20
584.8612880054088
 30
0.0
 11
628.3778724253764
 21
584.063588005409
 31
0.0
  0
LINE
  5
5DB
330
1F
100
AcDbEntity
  8
KONTUR
100
AcDbLine
 10
753.3778224253765
 20
584.063588005409
 30
0.0
 11
753.3778724253764
 21
584.8612880054088
 31
0.0
  0
ARC
  5
5DC
330
1F
100
AcDbEntity
  8
KONTUR
100
AcDbCircle
 10
752.3778724253764
 20
584.8612880054088
 30
0.0
 40
1.00000005
100
AcDbArc
 50
0.0000000000007994
 51
90.00000000000104
  0
LINE
  5
5DD
330
1F
100
AcDbEntity
  8
KONTUR
100
AcDbLine
 10
752.3778724253764
 20
585.861288005409
 30
0.0
 11
751.6278724253766
 21
585.861288005409
 31
0.0
  0
LINE
  5
5DE
330
1F
100
AcDbEntity
  8
KONTUR
100
AcDbLine
 10
630.1278724253764
 20
585.861288005409
 30
0.0
 11
629.3778724253764
 21
585.861288005409
 31
0.0
  0
LINE
  5
5DF
330
1F
100
AcDbEntity
  8
KONTUR
100
AcDbLine
 10
627.9236224253764
 20
531.497488005409
 30
0.0
 11
627.1278724253764
 21
531.497638005409
 31
0.0
  0
LINE
  5
5E0
330
1F
100
AcDbEntity
  8
KONTUR
100
AcDbLine
 10
627.9236224253764
 20
531.497488005409
 30
0.0
 11
627.1278724253764
 21
531.497638005409
 31
0.0
  0
LINE
  5
5E1
330
1F
100
AcDbEntity
  8
KONTUR
100
AcDbLine
 10
630.1278724253764
 20
584.1112880054088
 30
0.0
 11
630.1278724253764
 21
584.8612880054088
 31
0.0
  0
LINE
  5
5E2
330
1F
100
AcDbEntity
  8
KONTUR
100
AcDbLine
 10
628.6278724253764
 20
584.1112880054088
 30
0.0
 11
630.1278724253764
 21
584.1112880054088
 31
0.0
  0
ARC
  5
5E3
330
1F
100
AcDbEntity
  8
KONTUR
100
AcDbCircle
 10
628.6278724253764
 20
582.611288005409
 30
0.0
 40
1.5
100
AcDbArc
 50
90.0000000000002
 51
180.0000000000004
  0
LINE
  5
5E4
330
1F
100
AcDbEntity
  8
KONTUR
100
AcDbLine
 10
627.1278724253764
 20
576.611288005409
 30
0.0
 11
627.1278724253764
 21
582.611288005409
 31
0.0
  0
ARC
  5
5E5
330
1F
100
AcDbEntity
  8
KONTUR
100
AcDbCircle
 10
625.6278724253764
 20
576.611288005409
 30
0.0
 40
1.5
100
AcDbArc
 50
270.0000000000006
 51
0.0000000000007994
  0
LINE
  5
5E6
330
1F
100
AcDbEntity
  8
KONTUR
100
AcDbLine
 10
621.3680224253765
 20
575.1112880054088
 30
0.0
 11
625.6278724253764
 21
575.1112880054088
 31
0.0
  0
ARC
  5
5E7
330
1F
100
AcDbEntity
  8
KONTUR
100
AcDbCircle
 10
621.3680224253765
 20
573.6112880054088
 30
0.0
 40
1.50000005
100
AcDbArc
 50
90.00000200000021
 51
190.6560500000004
  0
LWPOLYLINE
  5
5E8
330
1F
100
AcDbEntity
  8
KONTUR
100
AcDbPolyline
 90
       15
 70
     0
 43
0.0
 10
638.2703724253764
 20
479.850138005409
 10
637.0776224253764
 20
485.684788005409
 42
-0.0002498156
 10
635.8908224253764
 20
491.519438005409
 42
-0.0002476832
 10
634.7104724253765
 20
497.352838005409
 42
-0.0002498748
 10
633.5347224253765
 20
503.1933380054088
 42
-0.0002555653
 10
632.3632724253764
 20
509.0438380054088
 42
-0.00024863
 10
631.2021224253764
 20
514.871838005409
 42
-0.0002323236
 10
630.0535724253764
 20
520.6660880054089
 42
-0.000256862
 10
628.8930724253764
 20
526.554938005409
 42
-0.0003068689
 10
627.7125724253765
 20
532.5827880054089
 42
-0.0002329682
 10
626.6076724253764
 20
538.2427380054089
 42
-0.0000794548
 10
625.6117224253765
 20
543.3601880054089
 42
-0.000329629
 10
624.3459724253764
 20
549.935138005409
 42
-0.0005686101
 10
622.4138224253763
 20
560.065388005409
 42
-0.0002781153
 10
619.8938724253765
 20
573.333938005409
 42
-0.0001473098
  0
LWPOLYLINE
  5
5F9
330
1F
100
AcDbEntity
  8
KONTUR
100
AcDbPolyline
 90
       47
 70
     0
 43
0.0
 10
658.2473724253764
 20
459.096888005409
 10
657.4123224253765
 20
459.3179380054089
 42
-0.0043679631
 10
656.6831224253764
 20
459.526488005409
 42
-0.005826077
 10
656.0732724253764
 20
459.719538005409
 42
-0.0076580693
 10
655.5151724253765
 20
459.913988005409
 42
-0.0063242846
 10
654.9447724253764
 20
460.126888005409
 42
-0.0049174816
 10
654.3676724253764
 20
460.355988005409
 42
-0.0057024124
 10
653.8007224253764
 20
460.5974880054091
 42
-0.0061474616
 10
653.2425224253764
 20
460.8509380054088
 42
-0.00581074
 10
652.6894224253764
 20
461.1178380054089
 42
-0.0056318526
 10
652.1418224253764
 20
461.397338005409
 42
-0.0057134536
 10
651.6012224253764
 20
461.6894380054091
 42
-0.0057430488
 10
651.0675724253764
 20
461.993588005409
 42
-0.0056917858
 10
650.5410724253763
 20
462.3100880054089
 42
-0.0056642576
 10
650.0217724253764
 20
462.638238005409
 42
-0.005662336
 10
649.5102724253763
 20
462.9783380054091
 42
-0.0056586157
 10
649.0065224253764
 20
463.3297380054089
 42
-0.0056497482
 10
648.5110224253765
 20
463.6926880054089
 42
-0.00564611
 10
648.0237724253765
 20
464.0665880054089
 42
-0.0056471781
 10
647.5453224253764
 20
464.451638005409
 42
-0.0056506413
 10
647.0755724253763
 20
464.847188005409
 42
-0.0056570699
 10
646.6151724253764
 20
465.253588005409
 42
-0.0056652006
 10
646.1639724253764
 20
465.6700880054091
 42
-0.0056769549
 10
645.7226224253764
 20
466.0970380054091
 42
-0.0056919809
 10
645.2909724253765
 20
466.533788005409
 42
-0.0057139516
 10
644.8697224253764
 20
466.9804880054089
 42
-0.0057164469
 10
644.4585724253764
 20
467.436588005409
 42
-0.005700056
 10
644.0581724253764
 20
467.902188005409
 42
-0.0056847581
 10
643.6682724253764
 20
468.3766880054091
 42
-0.0056666909
 10
643.2894724253765
 20
468.8600880054089
 42
-0.0056510353
 10
642.9214724253765
 20
469.3518380054088
 42
-0.0056347697
 10
642.5649724253765
 20
469.8519880054091
 42
-0.0056339497
 10
642.2195724253764
 20
470.3599880054089
 42
-0.0056459677
 10
641.8859724253764
 20
470.875888005409
 42
-0.0056196649
 10
641.5641224253764
 20
471.3985380054089
 42
-0.0055669233
 10
641.2548224253765
 20
471.927688005409
 42
-0.0056727484
 10
640.9571724253764
 20
472.4644880054088
 42
-0.0058935868
 10
640.6713724253764
 20
473.0106880054091
 42
-0.0057106606
 10
640.3970224253765
 20
473.563488005409
 42
-0.0052013261
 10
640.1338724253765
 20
474.1245380054088
 42
-0.0060152248
 10
639.8765224253764
 20
474.7146380054089
 42
-0.0076255094
 10
639.6225224253765
 20
475.3461380054089
 42
-0.0056347778
 10
639.3855724253764
 20
475.960838005409
 42
-0.0018492567
 10
639.1726724253764
 20
476.5351880054091
 42
-0.0074935813
 10
638.9381224253764
 20
477.273688005409
 42
-0.013630973
 10
638.6343224253765
 20
478.393188005409
 42
-0.0071207508
 10
638.2703724253764
 20
479.850138005409
 42
-0.003777815
  0
LWPOLYLINE
  5
62A
330
1F
100
AcDbEntity
  8
KONTUR
100
AcDbPolyline
 90
       19
 70
     0
 43
0.0
 10
690.8782724253764
 20
455.2212380054088
 10
689.2311724253764
 20
455.231088005409
 42
-0.0029799151
 10
687.5832724253764
 20
455.2602880054089
 42
-0.0029788261
 10
685.9345224253764
 20
455.3096380054089
 42
-0.0029716233
 10
684.2852224253763
 20
455.3782880054091
 42
-0.0029607352
 10
682.6360724253765
 20
455.4669880054089
 42
-0.0029428357
 10
680.9880224253765
 20
455.5746880054089
 42
-0.0029170852
 10
679.3418224253764
 20
455.702088005409
 42
-0.002936001
 10
677.6955724253764
 20
455.8488380054091
 42
-0.002989891
 10
676.0491724253764
 20
456.015838005409
 42
-0.0029028134
 10
674.4118724253764
 20
456.2002380054089
 42
-0.0027094046
 10
672.7873224253765
 20
456.401938005409
 42
-0.002990612
 10
671.1408224253764
 20
456.6281880054089
 42
-0.0035694992
 10
669.4609224253765
 20
456.8824380054089
 42
-0.0027137064
 10
667.8863724253765
 20
457.1321380054089
 42
-0.0009273038
 10
666.4654224253765
 20
457.3671380054088
 42
-0.0038406583
 10
664.6524224253765
 20
457.7114880054089
 42
-0.00665203
 10
661.8752224253764
 20
458.2970380054089
 42
-0.0032631414
 10
658.2473724253764
 20
459.096888005409
 42
-0.0017305198
  0
LWPOLYLINE
  5
63F
330
1F
100
AcDbEntity
  8
KONTUR
100
AcDbPolyline
 90
       19
 70
     0
 43
0.0
 10
723.5291724253764
 20
459.1041380054089
 10
721.9336224253766
 20
458.7290380054089
 42
-0.0029713763
 10
720.3337724253765
 20
458.372638005409
 42
-0.0029689129
 10
718.7295224253762
 20
458.0356880054089
 42
-0.0029698863
 10
717.1202724253765
 20
457.7173380054089
 42
-0.0029683481
 10
715.5048224253765
 20
457.4180880054091
 42
-0.0029498459
 10
713.8843224253765
 20
457.137238005409
 42
-0.002922251
 10
712.2592224253763
 20
456.875638005409
 42
-0.0029392704
 10
710.6278724253764
 20
456.6325380054091
 42
-0.0029924643
 10
708.9898224253764
 20
456.4088380054091
 42
-0.0029028716
 10
707.3548224253764
 20
456.203888005409
 42
-0.0027076503
 10
705.7264224253763
 20
456.0185880054089
 42
-0.0029882532
 10
704.0690724253764
 20
455.8517880054089
 42
-0.0035667423
 10
702.3706724253766
 20
455.7041880054089
 42
-0.0027070984
 10
700.7746224253765
 20
455.576888005409
 42
-0.0009203119
 10
699.3304224253764
 20
455.471188005409
 42
-0.0038326013
 10
697.4753724253765
 20
455.3797380054089
 42
-0.0066384617
 10
694.6188224253764
 20
455.296188005409
 42
-0.0032549882
 10
690.8782724253764
 20
455.2212380054088
 42
-0.0017238979
  0
LWPOLYLINE
  5
654
330
1F
100
AcDbEntity
  8
KONTUR
100
AcDbPolyline
 90
       43
 70
     0
 43
0.0
 10
743.4898224253766
 20
479.8725880054089
 10
743.2841724253763
 20
478.9722380054091
 42
-0.004887764
 10
743.0845724253763
 20
478.179138005409
 42
-0.0064818736
 10
742.8932224253763
 20
477.5069880054089
 42
-0.0082480386
 10
742.6964724253764
 20
476.8879380054091
 42
-0.0066052678
 10
742.4802724253764
 20
476.257838005409
 42
-0.0051531639
 10
742.2465724253766
 20
475.622388005409
 42
-0.0060263077
 10
741.9984224253765
 20
474.9984380054088
 42
-0.006507478
 10
741.7362724253765
 20
474.384538005409
 42
-0.0061785478
 10
741.4588224253764
 20
473.7771380054089
 42
-0.00601569
 10
741.1669224253765
 20
473.176438005409
 42
-0.0061166853
 10
740.8603724253765
 20
472.584188005409
 42
-0.0061620433
 10
740.5399724253766
 20
472.0001380054091
 42
-0.0061239707
 10
740.2051724253763
 20
471.4245880054091
 42
-0.0061080814
 10
739.8568224253763
 20
470.8575880054091
 42
-0.0061164779
 10
739.4944724253764
 20
470.2996880054088
 42
-0.0061209448
 10
739.1188724253766
 20
469.7508380054089
 42
-0.0061188136
 10
738.7296724253765
 20
469.2116880054091
 42
-0.0061197169
 10
738.3275224253764
 20
468.681988005409
 42
-0.0061240078
 10
737.9121724253764
 20
468.162538005409
 42
-0.006128321
 10
737.4842224253764
 20
467.6530380054089
 42
-0.0061343293
 10
737.0433724253764
 20
467.1542880054089
 42
-0.0061395866
 10
736.5903224253766
 20
466.6660380054091
 42
-0.006147504
 10
736.1247224253764
 20
466.1889880054089
 42
-0.0061555546
 10
735.6472724253763
 20
465.7229380054089
 42
-0.0061685344
 10
735.1576224253765
 20
465.268638005409
 42
-0.006166891
 10
734.6565724253765
 20
464.8259880054088
 42
-0.006159437
 10
734.1441224253763
 20
464.3957380054089
 42
-0.0061645999
 10
733.6209724253763
 20
463.9777380054088
 42
-0.0061856844
 10
733.0870224253765
 20
463.572938005409
 42
-0.0061787278
 10
732.5433724253764
 20
463.1811380054089
 42
-0.0061524526
 10
731.9897724253765
 20
462.803238005409
 42
-0.0062843783
 10
731.4248724253764
 20
462.4381880054088
 42
-0.0065414423
 10
730.8469224253763
 20
462.0861380054089
 42
-0.0063292112
 10
730.2603224253764
 20
461.7477880054089
 42
-0.0057834439
 10
729.6654224253764
 20
461.4237880054088
 42
-0.0065871766
 10
729.0428724253766
 20
461.1081380054088
 42
-0.0082100927
 10
728.3811224253764
 20
460.7983380054088
 42
-0.0061917354
 10
727.7365224253763
 20
460.509188005409
 42
-0.0022016799
 10
727.1274724253765
 20
460.2471380054089
 42
-0.0085680576
 10
726.3324224253765
 20
459.9538380054089
 42
-0.015030082
 10
725.1172224253764
 20
459.568988005409
 42
-0.00777042
 10
723.5291724253764
 20
459.1041380054089
 42
-0.0040937691
  0
LWPOLYLINE
  5
681
330
1F
100
AcDbEntity
  8
KONTUR
100
AcDbPolyline
 90
       15
 70
     0
 43
0.0
 10
761.8618224253764
 20
573.333938005409
 10
760.7578224253764
 20
567.483338005409
 42
-0.00025376
 10
759.6482724253765
 20
561.634988005409
 42
-0.000251924
 10
758.5330724253763
 20
555.7902380054088
 42
-0.0002538272
 10
757.4108724253765
 20
549.940738005409
 42
-0.0002585504
 10
756.2807724253764
 20
544.083588005409
 42
-0.0002509364
 10
755.1497224253762
 20
538.2511380054088
 42
-0.0002341114
 10
754.0196724253765
 20
532.454688005409
 42
-0.0002579217
 10
752.8648724253765
 20
526.566188005409
 42
-0.0003067432
 10
751.6759724253764
 20
520.5414880054091
 42
-0.0002328301
 10
750.5563724253764
 20
514.885888005409
 42
-0.000080509
 10
749.5412724253765
 20
509.7733880054088
 42
-0.0003273228
 10
748.2243224253764
 20
503.210188005409
 42
-0.0005617809
 10
746.1788224253764
 20
493.104638005409
 42
-0.0002745986
 10
743.4898224253766
 20
479.8725880054089
 42
-0.0001455983
  0
ARC
  5
692
330
1F
100
AcDbEntity
  8
KONTUR
100
AcDbCircle
 10
760.3877224253765
 20
573.6112880054088
 30
0.0
 40
1.5
100
AcDbArc
 50
349.3440700000007
 51
90.00000000000104
  0
LINE
  5
693
330
1F
100
AcDbEntity
  8
KONTUR
100
AcDbLine
 10
756.1278724253764
 20
575.1112880054088
 30
0.0
 11
760.3877224253765
 21
575.1112880054088
 31
0.0
  0
ARC
  5
694
330
1F
100
AcDbEntity
  8
KONTUR
100
AcDbCircle
 10
756.1278724253764
 20
576.611288005409
 30
0.0
 40
1.5
100
AcDbArc
 50
180.0000000000004
 51
270.0000000000006
  0
LINE
  5
695
330
1F
100
AcDbEntity
  8
KONTUR
100
AcDbLine
 10
754.6278724253764
 20
582.611288005409
 30
0.0
 11
754.6278724253764
 21
576.611288005409
 31
0.0
  0
ARC
  5
696
330
1F
100
AcDbEntity
  8
KONTUR
100
AcDbCircle
 10
753.1278724253764
 20
582.611288005409
 30
0.0
 40
1.49999995
100
AcDbArc
 50
0.0000028736
 51
90.0000000000002
  0
LINE
  5
697
330
1F
100
AcDbEntity
  8
KONTUR
100
AcDbLine
 10
751.6278724253766
 20
584.1112880054088
 30
0.0
 11
753.1278724253764
 21
584.1112880054088
 31
0.0
  0
LINE
  5
698
330
1F
100
AcDbEntity
  8
KONTUR
100
AcDbLine
 10
751.6278724253766
 20
584.8612880054088
 30
0.0
 11
751.6278724253766
 21
584.1112880054088
 31
0.0
  0
LINE
  5
699
330
1F
100
AcDbEntity
  8
KONTUR
100
AcDbLine
 10
753.8321724253765
 20
531.4977880054089
 30
0.0
 11
754.6278724253764
 21
531.4977880054089
 31
0.0
  0
LINE
  5
69A
330
1F
100
AcDbEntity
  8
KONTUR
100
AcDbLine
 10
754.2486724253763
 20
586.1112880054088
 30
0.0
 11
754.6278724253764
 21
586.1112880054088
 31
0.0
  0
LWPOLYLINE
  5
69B
330
1F
100
AcDbEntity
  8
KONTUR
100
AcDbPolyline
 90
       15
 70
     0
 43
0.0
 10
744.4350224253765
 20
475.776938005409
 10
745.4437224253766
 20
481.176238005409
 42
0.0001953557
 10
746.4481224253764
 20
486.575188005409
 42
0.0001921278
 10
747.4478224253764
 20
491.9726880054091
 42
0.0001953677
 10
748.4442724253765
 20
497.376338005409
 42
0.0002048142
 10
749.4376224253765
 20
502.788988005409
 42
0.000202081
 10
750.4228224253764
 20
508.180488005409
 42
0.0001905641
 10
751.3977724253764
 20
513.540438005409
 42
0.0002150276
 10
752.3832724253764
 20
518.9876880054089
 42
0.0002634673
 10
753.3861224253765
 20
524.5630880054089
 42
0.000200222
 10
754.3249724253765
 20
529.7980380054089
 42
0.0000630813
 10
755.1714724253766
 20
534.531138005409
 42
0.0002932747
 10
756.2473224253765
 20
540.611688005409
 42
0.0005193848
 10
757.8897224253765
 20
549.9795880054089
 42
0.000254878
 10
760.0317724253764
 20
562.249188005409
 42
0.0001342874
  0
LWPOLYLINE
  5
6AC
330
1F
100
AcDbEntity
  8
KONTUR
100
AcDbPolyline
 90
       11
 70
     0
 43
0.0
 10
760.0317724253764
 20
562.249188005409
 10
760.0349724253765
 20
562.268538005409
 42
0.003583646
 10
760.0379224253766
 20
562.2879380054089
 42
0.0031928102
 10
760.0406224253766
 20
562.3073880054089
 42
0.0035189003
 10
760.0430724253763
 20
562.327288005409
 42
0.0043173249
 10
760.0452224253763
 20
562.347888005409
 42
0.003249637
 10
760.0471224253763
 20
562.367238005409
 42
0.0010069006
 10
760.0487224253766
 20
562.384888005409
 42
0.004701355
 10
760.0500724253766
 20
562.407788005409
 42
0.0081845033
 10
760.0513224253764
 20
562.443438005409
 42
0.0039441041
 10
760.0524724253764
 20
562.4903380054088
 42
0.0020570779
  0
LWPOLYLINE
  5
6B9
330
1F
100
AcDbEntity
  8
KONTUR
100
AcDbPolyline
 90
       11
 70
     0
 43
0.0
 10
621.7031724253764
 20
562.4903380054088
 10
621.7033724253764
 20
562.469488005409
 42
0.0036124732
 10
621.7038224253764
 20
562.4487880054089
 42
0.0033901467
 10
621.7045224253764
 20
562.428388005409
 42
0.0037072549
 10
621.7056224253764
 20
562.407788005409
 42
0.0043359748
 10
621.7070224253764
 20
562.3868380054089
 42
0.0033291422
 10
621.7085724253764
 20
562.367238005409
 42
0.0012575752
 10
621.7100724253764
 20
562.3496380054089
 42
0.0045617289
 10
621.7126224253764
 20
562.327288005409
 42
0.0077564586
 10
621.7173224253764
 20
562.293388005409
 42
0.0038533968
 10
621.7238724253764
 20
562.249188005409
 42
0.0020748779
  0
LWPOLYLINE
  5
6C6
330
1F
100
AcDbEntity
  8
KONTUR
100
AcDbPolyline
 90
       15
 70
     0
 43
0.0
 10
621.7238724253764
 20
562.249188005409
 10
622.6621724253764
 20
556.8395380054089
 42
0.0002354489
 10
623.6053224253765
 20
551.431738005409
 42
0.000235279
 10
624.5532724253765
 20
546.0270380054089
 42
0.000235539
 10
625.5072224253763
 20
540.6177380054089
 42
0.000234999
 10
626.4677724253764
 20
535.201088005409
 42
0.000225284
 10
627.4290724253764
 20
529.8070880054088
 42
0.0002084567
 10
628.3892724253765
 20
524.4461880054091
 42
0.0002253538
 10
629.3702224253764
 20
518.999738005409
 42
0.0002614593
 10
630.3796224253765
 20
513.427038005409
 42
0.0001982546
 10
631.3300724253764
 20
508.1955880054088
 42
0.0000737612
 10
632.1916724253765
 20
503.466388005409
 42
0.0002687316
 10
633.3081224253764
 20
497.3944880054089
 42
0.0004476491
 10
635.0402724253763
 20
488.0444380054091
 42
0.0002179658
 10
637.3162224253764
 20
475.8010880054089
 42
0.0001162947
  0
LINE
  5
6D7
330
1F
100
AcDbEntity
  8
KONTUR
100
AcDbLine
 10
751.6278724253766
 20
584.8612880054088
 30
0.0
 11
751.6278724253766
 21
587.111288005409
 31
0.0
  0
LINE
  5
6D8
330
1F
100
AcDbEntity
  8
KONTUR
100
AcDbLine
 10
630.1278724253764
 20
587.111288005409
 30
0.0
 11
630.1278724253764
 21
584.8612880054088
 31
0.0
  0
LINE
  5
6D9
330
1F
100
AcDbEntity
  8
KONTUR
100
AcDbLine
 10
760.0524724253764
 20
562.4903380054088
 30
0.0
 11
760.0524724253764
 21
562.789988005409
 31
0.0
  0
LWPOLYLINE
  5
6DA
330
1F
100
AcDbEntity
  8
KONTUR
100
AcDbPolyline
 90
       11
 70
     0
 43
0.0
 10
759.9623724253765
 20
563.2871380054089
 10
759.9842724253765
 20
563.2237380054089
 42
-0.011218847
 10
760.0031724253765
 20
563.1603380054089
 42
-0.0108798
 10
760.0188724253765
 20
563.0971380054089
 42
-0.011792787
 10
760.0314224253764
 20
563.0330880054089
 42
-0.013433368
 10
760.0407224253763
 20
562.968038005409
 42
-0.010544066
 10
760.0476224253764
 20
562.907038005409
 42
-0.0045657753
 10
760.0523224253766
 20
562.852038005409
 42
-0.013820307
 10
760.0524724253764
 20
562.7835380054089
 42
-0.023092438
 10
760.0454224253763
 20
562.6811380054089
 42
-0.011807056
 10
760.0317724253764
 20
562.5488380054089
 42
-0.00650409
  0
LWPOLYLINE
  5
6E7
330
1F
100
AcDbEntity
  8
KONTUR
100
AcDbPolyline
 90
       11
 70
     0
 43
0.0
 10
621.7933724253764
 20
563.2872380054091
 10
621.7714224253764
 20
563.223788005409
 42
0.011219812
 10
621.7525724253765
 20
563.1604380054089
 42
0.010880755
 10
621.7368224253764
 20
563.097238005409
 42
0.011793774
 10
621.7242724253765
 20
563.0331880054091
 42
0.013434439
 10
621.7149724253763
 20
562.9680880054088
 42
0.010544944
 10
621.7080724253765
 20
562.9070880054089
 42
0.0045662527
 10
621.7033724253764
 20
562.8520880054089
 42
0.013821351
 10
621.7032224253765
 20
562.7835380054089
 42
0.023094136
 10
621.7102724253764
 20
562.6811380054089
 42
0.011808007
 10
621.7238724253764
 20
562.5488380054089
 42
0.0065046427
  0
LWPOLYLINE
  5
6F4
330
1F
100
AcDbEntity
  8
KONTUR
100
AcDbPolyline
 90
       15
 70
     0
 43
0.0
 10
621.7238724253764
 20
562.5488380054089
 10
622.0568224253764
 20
560.625638005409
 42
0.0000852952
 10
622.3903224253763
 20
558.7029380054089
 42
0.0000848347
 10
622.7243724253765
 20
556.781088005409
 42
0.0000853192
 10
623.0594224253764
 20
554.857438005409
 42
0.0000864016
 10
623.3956724253765
 20
552.9309880054088
 42
0.0000835701
 10
623.7311224253765
 20
551.0123880054089
 42
0.00007779
 10
624.0652224253764
 20
549.1053880054089
 42
0.0000852601
 10
624.4054224253764
 20
547.167788005409
 42
0.0001007271
 10
624.7543224253764
 20
545.1850380054088
 42
0.0000764351
 10
625.0822724253765
 20
543.3236380054091
 42
0.0000269642
 10
625.3790224253764
 20
541.640838005409
 42
0.0001064326
 10
625.7616224253763
 20
539.4798880054091
 42
0.0001812793
 10
626.3527224253764
 20
536.151838005409
 42
0.000088524
 10
627.1278724253764
 20
531.793688005409
 42
0.0000470121
  0
LWPOLYLINE
  5
705
330
1F
100
AcDbEntity
  8
KONTUR
100
AcDbPolyline
 90
       15
 70
     0
 43
0.0
 10
627.1806724253764
 20
531.4977880054089
 10
627.8072224253765
 20
527.992888005409
 42
0.0001416871
 10
628.4356224253764
 20
524.4890380054089
 42
0.0001412782
 10
629.0658224253764
 20
520.986938005409
 42
0.0001417333
 10
629.6986224253765
 20
517.481638005409
 42
0.0001423877
 10
630.3344224253764
 20
513.971338005409
 42
0.0001370683
 10
630.9694724253765
 20
510.4755380054089
 42
0.000127184
 10
631.6025224253765
 20
507.0009380054089
 42
0.0001383859
 10
632.2479224253764
 20
503.470738005409
 42
0.0001619423
 10
632.9106724253764
 20
499.8584880054091
 42
0.0001228386
 10
633.5339724253764
 20
496.4672380054089
 42
0.0000445726
 10
634.0983724253764
 20
493.4015380054088
 42
0.000168672
 10
634.8273224253765
 20
489.4649880054089
 42
0.0002840258
 10
635.9552224253764
 20
483.4026880054089
 42
0.0001384921
 10
637.4354724253765
 20
475.4640880054089
 42
0.0000737236
  0
LWPOLYLINE
  5
716
330
1F
100
AcDbEntity
  8
KONTUR
100
AcDbPolyline
 90
       15
 70
     0
 43
0.0
 10
744.3158724253765
 20
475.4402380054089
 10
744.9708224253764
 20
478.9418880054091
 42
0.000124834
 10
745.6239724253765
 20
482.443088005409
 42
0.0001231396
 10
746.2751224253766
 20
485.943188005409
 42
0.0001248488
 10
746.9251224253765
 20
489.4470880054091
 42
0.000129704
 10
747.5742224253763
 20
492.956688005409
 42
0.0001273213
 10
748.2190224253764
 20
496.452338005409
 42
0.0001196701
 10
748.8581724253763
 20
499.9274380054089
 42
0.0001340559
 10
749.5055724253764
 20
503.458838005409
 42
0.000162803
 10
750.1658224253765
 20
507.073138005409
 42
0.0001236787
 10
750.7846224253763
 20
510.466588005409
 42
0.0000400851
 10
751.3431224253764
 20
513.5346380054089
 42
0.0001790128
 10
752.0559724253762
 20
517.475688005409
 42
0.0003142303
 10
753.1481724253763
 20
523.5466880054089
 42
0.0001540343
 10
754.5750224253766
 20
531.4977880054089
 42
0.0000813006
  0
LWPOLYLINE
  5
727
330
1F
100
AcDbEntity
  8
KONTUR
100
AcDbPolyline
 90
       15
 70
     0
 43
0.0
 10
754.6278724253764
 20
531.7939880054091
 10
754.9703724253764
 20
533.7155880054088
 42
0.0000802253
 10
755.3122224253764
 20
535.6368380054091
 42
0.0000793788
 10
755.6532724253766
 20
537.5574880054089
 42
0.000080239
 10
755.9940724253763
 20
539.4801380054089
 42
0.000082581
 10
756.3347724253763
 20
541.4058380054089
 42
0.0000806306
 10
756.6734724253765
 20
543.323838005409
 42
0.000075521
 10
757.0095224253764
 20
545.2304880054089
 42
0.0000839443
 10
757.3502724253763
 20
547.1679380054088
 42
0.0001009648
 10
757.6982224253766
 20
549.150838005409
 42
0.0000766711
 10
758.0245724253764
 20
551.0125380054089
 42
0.0000256122
 10
758.3192724253763
 20
552.6956380054089
 42
0.0001095117
 10
758.6962724253765
 20
554.857538005409
 42
0.000190299
 10
759.2750224253764
 20
558.1876380054091
 42
0.0000931654
 10
760.0317724253764
 20
562.5488380054089
 42
0.0000492738
  0
LINE
  5
738
330
1F
100
AcDbEntity
  8
KONTUR
100
AcDbLine
 10
621.7031724253764
 20
562.789988005409
 30
0.0
 11
621.7031724253764
 21
562.4903380054088
 31
0.0
  0
LINE
  5
739
330
1F
100
AcDbEntity
  8
KONTUR
100
AcDbLine
 10
627.1278724253764
 20
587.111288005409
 30
0.0
 11
625.8778724253764
 21
587.111288005409
 31
0.0
  0
LINE
  5
73A
330
1F
100
AcDbEntity
  8
KONTUR
100
AcDbLine
 10
754.6278724253764
 20
587.111288005409
 30
0.0
 11
755.8778724253764
 21
587.111288005409
 31
0.0
  0
LWPOLYLINE
  5
73B
330
1F
100
AcDbEntity
  8
KONTUR
100
AcDbPolyline
 90
       15
 70
     0
 43
0.0
 10
765.5970224253765
 20
575.6112880054088
 10
765.5202224253765
 20
575.625638005409
 42
0.000004428
 10
765.4434724253765
 20
575.640038005409
 42
0.000003553
 10
765.3667224253763
 20
575.654438005409
 42
0.0000044084
 10
765.2898724253764
 20
575.668838005409
 42
0.0000071852
 10
765.2129224253763
 20
575.6832380054088
 42
0.0000085024
 10
765.1362724253763
 20
575.697588005409
 42
0.000008874
 10
765.0601224253764
 20
575.7118380054089
 42
0.0000121327
 10
764.9827224253763
 20
575.7263380054089
 42
0.0000180163
 10
764.9034724253763
 20
575.7411380054091
 42
0.0000137846
 10
764.8291224253762
 20
575.7550880054089
 42
0.000001912
 10
764.7618724253766
 20
575.767638005409
 42
0.0000248471
 10
764.6755224253764
 20
575.783788005409
 42
0.000050077
 10
764.5425224253765
 20
575.8085880054091
 42
0.0000249389
 10
764.3683224253764
 20
575.841138005409
 42
0.0000128258
  0
ARC
  5
74C
330
1F
100
AcDbEntity
  8
KONTUR
100
AcDbCircle
 10
624.8778724253764
 20
578.1112880054088
 30
0.0
 40
2.25
100
AcDbArc
 50
270.0000000000006
 51
0.0000000000007994
  0
ARC
  5
74D
330
1F
100
AcDbEntity
  8
KONTUR
100
AcDbCircle
 10
756.8778724253764
 20
578.1112880054088
 30
0.0
 40
2.25
100
AcDbArc
 50
180.0000000000004
 51
270.0000000000006
  0
LINE
  5
74E
330
1F
100
AcDbEntity
  8
KONTUR
100
AcDbLine
 10
627.1278724253764
 20
582.611288005409
 30
0.0
 11
627.1278724253764
 21
584.611288005409
 31
0.0
  0
LINE
  5
74F
330
1F
100
AcDbEntity
  8
KONTUR
100
AcDbLine
 10
627.1278724253764
 20
584.611288005409
 30
0.0
 11
627.1278724253764
 21
587.111288005409
 31
0.0
  0
LINE
  5
750
330
1F
100
AcDbEntity
  8
KONTUR
100
AcDbLine
 10
754.6278724253764
 20
587.111288005409
 30
0.0
 11
754.6278724253764
 21
584.611288005409
 31
0.0
  0
LINE
  5
751
330
1F
100
AcDbEntity
  8
KONTUR
100
AcDbLine
 10
754.6278724253764
 20
584.611288005409
 30
0.0
 11
754.6278724253764
 21
582.611288005409
 31
0.0
  0
LINE
  5
752
330
1F
100
AcDbEntity
  8
KONTUR
100
AcDbLine
 10
624.8778724253764
 20
575.8612880054088
 30
0.0
 11
618.2859724253764
 21
575.8612880054088
 31
0.0
  0
LINE
  5
753
330
1F
100
AcDbEntity
  8
KONTUR
100
AcDbLine
 10
618.2477724253764
 20
575.8612880054088
 30
0.0
 11
618.2859724253764
 21
575.8612880054088
 31
0.0
  0
LINE
  5
754
330
1F
100
AcDbEntity
  8
KONTUR
100
AcDbLine
 10
756.8778724253764
 20
575.8612880054088
 30
0.0
 11
763.4697724253765
 21
575.8612880054088
 31
0.0
  0
LINE
  5
755
330
1F
100
AcDbEntity
  8
KONTUR
100
AcDbLine
 10
763.4697724253765
 20
575.8612880054088
 30
0.0
 11
763.5079224253764
 21
575.8612880054088
 31
0.0
  0
LWPOLYLINE
  5
756
330
1F
100
AcDbEntity
  8
KONTUR
100
AcDbPolyline
 90
       15
 70
     0
 43
0.0
 10
616.1587224253765
 20
575.6112880054088
 10
616.2355224253764
 20
575.6256880054088
 42
-0.0000011336
 10
616.3123224253764
 20
575.640038005409
 42
-0.0000011824
 10
616.3890724253764
 20
575.654438005409
 42
-0.0000011352
 10
616.4659224253764
 20
575.668838005409
 42
-0.0000009738
 10
616.5428724253763
 20
575.6832380054088
 42
-0.0000008414
 10
616.6195224253764
 20
575.6976380054089
 42
-0.0000007212
 10
616.6956724253764
 20
575.711888005409
 42
-0.000000635
 10
616.7730724253764
 20
575.726388005409
 42
-0.000000512
 10
616.8522724253764
 20
575.7412380054088
 42
-0.0000003813
 10
616.9266724253764
 20
575.7551880054089
 42
-0.0000003252
 10
616.9938724253764
 20
575.7677880054089
 42
-0.0000001656
 10
617.0802224253764
 20
575.783938005409
 42
0.0000002194
 10
617.2132224253764
 20
575.808888005409
 42
0.0000001386
 10
617.3873224253764
 20
575.841488005409
 42
0.0000000466
  0
LINE
  5
767
330
1F
100
AcDbEntity
  8
KONTUR
100
AcDbLine
 10
763.4696224253764
 20
577.1112880054088
 30
0.0
 11
763.5123724253763
 21
577.1112880054088
 31
0.0
  0
LINE
  5
768
330
1F
100
AcDbEntity
  8
KONTUR
100
AcDbLine
 10
756.8778724253764
 20
577.1112880054088
 30
0.0
 11
763.4696224253764
 21
577.1112880054088
 31
0.0
  0
LINE
  5
769
330
1F
100
AcDbEntity
  8
KONTUR
100
AcDbLine
 10
618.2433224253764
 20
577.1112880054088
 30
0.0
 11
618.2860724253765
 21
577.1112880054088
 31
0.0
  0
LINE
  5
76A
330
1F
100
AcDbEntity
  8
KONTUR
100
AcDbLine
 10
618.2860724253765
 20
577.1112880054088
 30
0.0
 11
624.8778724253764
 21
577.1112880054088
 31
0.0
  0
LINE
  5
76B
330
1F
100
AcDbEntity
  8
KONTUR
100
AcDbLine
 10
755.8778724253764
 20
587.111288005409
 30
0.0
 11
755.8778724253764
 21
584.611288005409
 31
0.0
  0
LINE
  5
76C
330
1F
100
AcDbEntity
  8
KONTUR
100
AcDbLine
 10
755.8778724253764
 20
584.611288005409
 30
0.0
 11
755.8778724253764
 21
578.1112880054088
 31
0.0
  0
LINE
  5
76D
330
1F
100
AcDbEntity
  8
KONTUR
100
AcDbLine
 10
625.8778724253764
 20
578.1112880054088
 30
0.0
 11
625.8778724253764
 21
584.611288005409
 31
0.0
  0
LINE
  5
76E
330
1F
100
AcDbEntity
  8
KONTUR
100
AcDbLine
 10
625.8778724253764
 20
584.611288005409
 30
0.0
 11
625.8778724253764
 21
587.111288005409
 31
0.0
  0
ARC
  5
76F
330
1F
100
AcDbEntity
  8
KONTUR
100
AcDbCircle
 10
756.8778724253764
 20
578.1112880054088
 30
0.0
 40
0.99999995
100
AcDbArc
 50
180.0000000000004
 51
270.0000000000006
  0
ARC
  5
770
330
1F
100
AcDbEntity
  8
KONTUR
100
AcDbCircle
 10
624.8778724253764
 20
578.1112880054088
 30
0.0
 40
1.00000005
100
AcDbArc
 50
270.0000000000006
 51
0.0000000000007994
  0
LWPOLYLINE
  5
771
330
1F
100
AcDbEntity
  8
KONTUR
100
AcDbPolyline
 90
       11
 70
     0
 43
0.0
 10
764.3683224253764
 20
575.841138005409
 10
764.3662724253763
 20
575.8307380054089
 42
0.010851165
 10
764.3597724253764
 20
575.7966880054091
 42
0.0006059837
 10
764.3487724253764
 20
575.7386880054089
 42
0.0002274674
 10
764.3326224253765
 20
575.653088005409
 42
0.0001405567
 10
764.3107724253764
 20
575.537188005409
 42
0.0000680249
 10
764.2867724253765
 20
575.4096380054089
 42
0.0000270822
 10
764.2620724253766
 20
575.2781380054089
 42
0.00005478
 10
764.2263724253764
 20
575.0881380054088
 42
0.0000636253
 10
764.1686224253765
 20
574.7802880054089
 42
0.000027738
 10
764.0911224253764
 20
574.366988005409
 42
0.000013918
  0
LWPOLYLINE
  5
77E
330
1F
100
AcDbEntity
  8
KONTUR
100
AcDbPolyline
 90
       11
 70
     0
 43
0.0
 10
765.5970224253765
 20
575.6112880054088
 10
765.5949724253765
 20
575.6008380054091
 42
0.0086912668
 10
765.5884724253765
 20
575.566738005409
 42
0.0004951102
 10
765.5774724253765
 20
575.508638005409
 42
0.0001862412
 10
765.5613224253764
 20
575.422988005409
 42
0.0001151891
 10
765.5395224253766
 20
575.307088005409
 42
0.0000557774
 10
765.5155224253763
 20
575.1795380054091
 42
0.000022208
 10
765.4907724253762
 20
575.0480380054089
 42
0.0000449384
 10
765.4550724253763
 20
574.858088005409
 42
0.0000522086
 10
765.3973224253764
 20
574.550338005409
 42
0.0000227626
 10
765.3198224253765
 20
574.1371380054088
 42
0.000011422
  0
LWPOLYLINE
  5
78B
330
1F
100
AcDbEntity
  8
KONTUR
100
AcDbPolyline
 90
       11
 70
     0
 43
0.0
 10
616.1587224253765
 20
575.6112880054088
 10
616.1607724253764
 20
575.6008380054091
 42
-0.0083559557
 10
616.1672724253765
 20
575.566738005409
 42
-0.0004759211
 10
616.1782724253765
 20
575.508638005409
 42
-0.0001790198
 10
616.1944224253764
 20
575.422988005409
 42
-0.0001107218
 10
616.2162224253764
 20
575.307088005409
 42
-0.000053614
 10
616.2402224253765
 20
575.1795380054091
 42
-0.0000213466
 10
616.2649724253764
 20
575.0480380054089
 42
-0.0000431952
 10
616.3006224253763
 20
574.858088005409
 42
-0.0000501831
 10
616.3583724253764
 20
574.550338005409
 42
-0.0000218794
 10
616.4359224253765
 20
574.1371380054088
 42
-0.0000109788
  0
LWPOLYLINE
  5
798
330
1F
100
AcDbEntity
  8
KONTUR
100
AcDbPolyline
 90
       11
 70
     0
 43
0.0
 10
617.3873224253764
 20
575.841488005409
 10
617.3894224253763
 20
575.8310880054089
 42
-0.010414148
 10
617.3959224253764
 20
575.7969880054088
 42
-0.000587906
 10
617.4069224253765
 20
575.738938005409
 42
-0.0002209349
 10
617.4230724253764
 20
575.653288005409
 42
-0.0001365934
 10
617.4449224253764
 20
575.5373380054089
 42
-0.0000661283
 10
617.4689224253764
 20
575.4097880054089
 42
-0.0000263308
 10
617.4936724253764
 20
575.278188005409
 42
-0.0000532653
 10
617.5293224253764
 20
575.0881880054089
 42
-0.0000618782
 10
617.5870724253764
 20
574.780338005409
 42
-0.00002698
 10
617.6645724253764
 20
574.366988005409
 42
-0.0000135384
  0
LWPOLYLINE
  5
7A5
330
1F
100
AcDbEntity
  8
KONTUR
100
AcDbPolyline
 90
       23
 70
     0
 43
0.0
 10
618.2191224253764
 20
575.862038005409
 10
618.2018724253765
 20
575.862138005409
 42
0.0075998266
 10
618.1853224253764
 20
575.8617380054088
 42
0.0077656872
 10
618.1694724253764
 20
575.860788005409
 42
0.0088057887
 10
618.1538724253764
 20
575.859338005409
 42
0.009870753
 10
618.1380724253764
 20
575.8571380054091
 42
0.0098011642
 10
618.1216224253764
 20
575.854288005409
 42
0.0091415507
 10
618.1042224253764
 20
575.850588005409
 42
0.007700184
 10
618.0852224253764
 20
575.8460380054089
 42
0.0055320336
 10
618.0641224253764
 20
575.8405380054089
 42
0.0048744089
 10
618.0414724253764
 20
575.8341380054089
 42
0.0060625343
 10
618.0178724253765
 20
575.826738005409
 42
0.0075181793
 10
617.9941724253764
 20
575.8183880054089
 42
0.010032196
 10
617.9710224253764
 20
575.809088005409
 42
0.011010188
 10
617.9484724253764
 20
575.798888005409
 42
0.010067662
 10
617.9264724253765
 20
575.7877880054089
 42
0.011569086
 10
617.9048224253764
 20
575.775388005409
 42
0.015180164
 10
617.8834224253765
 20
575.761438005409
 42
0.011655672
 10
617.8637224253764
 20
575.7477380054088
 42
0.0030164902
 10
617.8462224253765
 20
575.7348380054091
 42
0.018084578
 10
617.8257224253764
 20
575.715688005409
 42
0.033530525
 10
617.7969724253765
 20
575.6827880054088
 42
0.016170727
 10
617.7610224253764
 20
575.6376380054089
 42
0.0082675838
  0
LWPOLYLINE
  5
7BE
330
1F
100
AcDbEntity
  8
KONTUR
100
AcDbPolyline
 90
       23
 70
     0
 43
0.0
 10
617.6339724253764
 20
575.448038005409
 10
617.6160224253764
 20
575.4325380054088
 42
0.01551223
 10
617.5994724253765
 20
575.416338005409
 42
0.016530426
 10
617.5843724253764
 20
575.399388005409
 42
0.016856235
 10
617.5705724253764
 20
575.3816880054089
 42
0.016304866
 10
617.5581224253765
 20
575.3633380054089
 42
0.015906302
 10
617.5469224253765
 20
575.3444380054088
 42
0.015458323
 10
617.5369724253765
 20
575.324938005409
 42
0.014963859
 10
617.5282224253764
 20
575.304938005409
 42
0.014273563
 10
617.5205724253764
 20
575.2844380054089
 42
0.013632952
 10
617.5140224253764
 20
575.2635380054089
 42
0.012896999
 10
617.5085224253764
 20
575.2422880054089
 42
0.012222609
 10
617.5039724253764
 20
575.220738005409
 42
0.011484522
 10
617.5004724253764
 20
575.1988880054089
 42
0.010830506
 10
617.4978224253764
 20
575.176788005409
 42
0.010113334
 10
617.4960224253764
 20
575.154538005409
 42
0.0095366906
 10
617.4950724253764
 20
575.1321380054089
 42
0.009056495
 10
617.4948724253763
 20
575.1101880054089
 42
0.0061250003
 10
617.4949224253764
 20
575.0910880054089
 42
0.0001382628
 10
617.4950724253764
 20
575.0758880054091
 42
0.0088946093
 10
617.4966224253764
 20
575.0569380054089
 42
0.020802898
 10
617.5009224253764
 20
575.0262380054089
 42
0.0091126443
 10
617.5077724253765
 20
574.9852880054091
 42
0.0047638753
  0
LWPOLYLINE
  5
7D7
330
1F
100
AcDbEntity
  8
KONTUR
100
AcDbPolyline
 90
       23
 70
     0
 43
0.0
 10
764.2478224253764
 20
574.985238005409
 10
764.2518224253763
 20
575.0046380054091
 42
0.0051534223
 10
764.2551224253764
 20
575.0228380054091
 42
0.005378483
 10
764.2578224253764
 20
575.0397380054089
 42
0.0067258074
 10
764.2598224253766
 20
575.055838005409
 42
0.008809458
 10
764.2612224253764
 20
575.0717380054089
 42
0.0098960941
 10
764.2620224253765
 20
575.0878380054089
 42
0.010071298
 10
764.2621224253764
 20
575.1045880054089
 42
0.0095121842
 10
764.2616224253766
 20
575.1223380054089
 42
0.0085196998
 10
764.2604724253763
 20
575.1415380054091
 42
0.006750108
 10
764.2587224253764
 20
575.162838005409
 42
0.0044358148
 10
764.2563724253764
 20
575.186588005409
 42
0.0049314146
 10
764.2531724253763
 20
575.211638005409
 42
0.0086593928
 10
764.2489724253765
 20
575.2367380054088
 42
0.010478138
 10
764.2437724253764
 20
575.2614880054089
 42
0.010395561
 10
764.2374724253764
 20
575.2857880054089
 42
0.012827364
 10
764.2296224253764
 20
575.309988005409
 42
0.017385916
 10
764.2199724253765
 20
575.3340880054088
 42
0.013314282
 10
764.2101724253764
 20
575.356438005409
 42
0.0028572769
 10
764.2006724253765
 20
575.376438005409
 42
0.021963461
 10
764.1848224253763
 20
575.4001880054088
 42
0.041900278
 10
764.1553724253763
 20
575.434088005409
 42
0.019962598
 10
764.1138724253765
 20
575.4768880054089
 42
0.010035973
  0
ARC
  5
7F0
330
1F
100
AcDbEntity
  8
KONTUR
100
AcDbCircle
 10
763.4696224253764
 20
575.1112880054088
 30
0.0
 40
1.99999985
100
AcDbArc
 50
15.59463400000003
 51
89.9999960000002
  0
LWPOLYLINE
  5
7F1
330
1F
100
AcDbEntity
  8
KONTUR
100
AcDbPolyline
 90
       39
 70
     0
 43
0.0
 10
763.4697724253765
 20
575.8612880054088
 10
763.5239724253765
 20
575.8608380054088
 42
-0.015376372
 10
763.5745224253765
 20
575.856638005409
 42
-0.022707384
 10
763.6216224253762
 20
575.848138005409
 42
-0.021244978
 10
763.6620724253764
 20
575.8380380054091
 42
-0.012717963
 10
763.6929224253763
 20
575.828788005409
 42
-0.011794407
 10
763.7193224253765
 20
575.8194880054089
 42
-0.010820471
 10
763.7466724253763
 20
575.8087380054089
 42
-0.0078101276
 10
763.7744224253765
 20
575.796738005409
 42
-0.0093688329
 10
763.8012224253764
 20
575.783838005409
 42
-0.010438147
 10
763.8271224253763
 20
575.769988005409
 42
-0.0097028081
 10
763.8525224253765
 20
575.7551880054089
 42
-0.0092875848
 10
763.8773724253765
 20
575.7394880054089
 42
-0.0094979837
 10
763.9014724253764
 20
575.7228380054089
 42
-0.0095901034
 10
763.9248724253764
 20
575.705338005409
 42
-0.009470747
 10
763.9475224253763
 20
575.686938005409
 42
-0.0094101541
 10
763.9695224253765
 20
575.667788005409
 42
-0.0094092027
 10
763.9907224253764
 20
575.647788005409
 42
-0.0094032177
 10
764.0111224253765
 20
575.6270380054088
 42
-0.0093792599
 10
764.0307224253766
 20
575.605538005409
 42
-0.0093686
 10
764.0495224253764
 20
575.5833380054089
 42
-0.0093682962
 10
764.0674724253765
 20
575.5603880054089
 42
-0.009367954
 10
764.0845724253763
 20
575.536838005409
 42
-0.0093695163
 10
764.1007724253764
 20
575.512588005409
 42
-0.0093866473
 10
764.1160224253763
 20
575.4876880054089
 42
-0.0094270294
 10
764.1303724253764
 20
575.4622380054088
 42
-0.0094161437
 10
764.1437724253765
 20
575.4361880054089
 42
-0.0093698463
 10
764.1562224253764
 20
575.409588005409
 42
-0.0094972407
 10
764.1676724253764
 20
575.382488005409
 42
-0.009803658
 10
764.1780724253765
 20
575.354838005409
 42
-0.0094597414
 10
764.1874724253764
 20
575.3267880054091
 42
-0.0085603326
 10
764.1958224253765
 20
575.2984880054089
 42
-0.0099076932
 10
764.2030224253765
 20
575.269288005409
 42
-0.013095265
 10
764.2089224253764
 20
575.2390380054089
 42
-0.0086914424
 10
764.2141724253765
 20
575.2102380054089
 42
0.002502374
 10
764.2189224253764
 20
575.1827880054088
 42
-0.017916183
 10
764.2207224253764
 20
575.142288005409
 42
-0.035380891
 10
764.2168724253766
 20
575.073588005409
 42
-0.014845914
 10
764.2080724253765
 20
574.979738005409
 42
-0.006568471
  0
LINE
  5
81A
330
1F
100
AcDbEntity
  8
KONTUR
100
AcDbLine
 10
765.4103724253764
 20
574.6112880054088
 30
0.0
 11
765.5970224253765
 21
575.6112880054088
 31
0.0
  0
LWPOLYLINE
  5
81B
330
1F
100
AcDbEntity
  8
KONTUR
100
AcDbPolyline
 90
       39
 70
     0
 43
0.0
 10
618.2859724253764
 20
575.8612880054088
 10
618.2460724253765
 20
575.8620880054091
 42
0.020477597
 10
618.2043224253764
 20
575.859338005409
 42
0.022337389
 10
618.1598224253764
 20
575.8526880054089
 42
0.017144157
 10
618.1175724253765
 20
575.8438880054091
 42
0.012387103
 10
618.0823224253764
 20
575.834638005409
 42
0.013275242
 10
618.0518724253764
 20
575.824938005409
 42
0.011987567
 10
618.0234224253763
 20
575.814488005409
 42
0.010121438
 10
617.9958724253764
 20
575.803138005409
 42
0.009781681
 10
617.9687724253764
 20
575.7906880054088
 42
0.0094432499
 10
617.9422224253765
 20
575.7772380054089
 42
0.009581245
 10
617.9163224253764
 20
575.7628380054089
 42
0.0096661893
 10
617.8911224253764
 20
575.7475380054088
 42
0.0095500226
 10
617.8665724253765
 20
575.7312880054089
 42
0.009484826
 10
617.8427224253765
 20
575.7141880054089
 42
0.0094724946
 10
617.8196224253765
 20
575.696238005409
 42
0.0094604918
 10
617.7972224253765
 20
575.6774380054089
 42
0.0094232669
 10
617.7755724253764
 20
575.6578380054088
 42
0.009401987
 10
617.7547224253764
 20
575.6374880054091
 42
0.0093843066
 10
617.7346724253764
 20
575.616338005409
 42
0.0093768438
 10
617.7154224253763
 20
575.594488005409
 42
0.0093714476
 10
617.6970724253764
 20
575.5718880054089
 42
0.0093659999
 10
617.6795224253764
 20
575.5486880054091
 42
0.0093586308
 10
617.6628724253765
 20
575.5247880054089
 42
0.0093827776
 10
617.6471224253764
 20
575.500288005409
 42
0.0094407179
 10
617.6323224253764
 20
575.475138005409
 42
0.0093995851
 10
617.6184724253765
 20
575.449488005409
 42
0.0092771882
 10
617.6055724253764
 20
575.423288005409
 42
0.0095079184
 10
617.5936724253764
 20
575.3964880054089
 42
0.010060945
 10
617.5827724253764
 20
575.3690880054089
 42
0.009366559
 10
617.5728724253764
 20
575.3415380054089
 42
0.0076426096
 10
617.5639724253765
 20
575.3138880054089
 42
0.010196162
 10
617.5562724253764
 20
575.2847880054089
 42
0.015723335
 10
617.5498724253764
 20
575.253688005409
 42
0.0078826337
 10
617.5440724253764
 20
575.2264380054089
 42
-0.012875328
 10
617.5386724253765
 20
575.204988005409
 42
0.020816507
 10
617.5363724253764
 20
575.1667380054091
 42
0.046316269
 10
617.5399724253764
 20
575.087988005409
 42
0.013124356
 10
617.5489224253764
 20
574.9733880054091
 42
0.0051867446
  0
LWPOLYLINE
  5
844
330
1F
100
AcDbEntity
  8
KONTUR
100
AcDbPolyline
 90
       31
 70
     0
 43
0.0
 10
723.9777724253763
 20
457.152738005409
 10
725.0156224253765
 20
457.4219880054088
 42
0.010255105
 10
726.0589224253763
 20
457.7385380054088
 42
0.01035942
 10
727.1114224253765
 20
458.105988005409
 42
0.0096153
 10
728.1493224253763
 20
458.510888005409
 42
0.008850868
 10
729.1455724253765
 20
458.9417880054089
 42
0.0088955328
 10
730.0938724253765
 20
459.3924880054089
 42
0.0091318271
 10
730.9916724253765
 20
459.861938005409
 42
0.0093487216
 10
731.8572724253763
 20
460.3548880054091
 42
0.0088021703
 10
732.7059224253765
 20
460.878338005409
 42
0.0083967397
 10
733.5366724253763
 20
461.4298880054089
 42
0.0085921962
 10
734.3440224253764
 20
462.0082380054089
 42
0.0086955709
 10
735.1286724253764
 20
462.6118880054089
 42
0.0085780943
 10
735.8903224253763
 20
463.2413880054089
 42
0.008512039
 10
736.6292724253765
 20
463.8950380054089
 42
0.0085043494
 10
737.3438224253764
 20
464.5729880054089
 42
0.0085031068
 10
738.0344224253763
 20
465.2735880054088
 42
0.0084880522
 10
738.6997724253765
 20
465.997188005409
 42
0.0084428512
 10
739.3401224253764
 20
466.7416880054088
 42
0.0083647801
 10
739.9540224253765
 20
467.5070880054091
 42
0.0084429864
 10
740.5423224253764
 20
468.293488005409
 42
0.0086449223
 10
741.1036724253765
 20
469.1015380054089
 42
0.0083371624
 10
741.6370224253765
 20
469.9231380054089
 42
0.0076367001
 10
742.1401724253765
 20
470.7560880054089
 42
0.0086523928
 10
742.6201724253765
 20
471.624888005409
 42
0.010764936
 10
743.0776724253765
 20
472.5383880054089
 42
0.0076460101
 10
743.4877724253763
 20
473.3927880054089
 42
0.0008883998
 10
743.8400724253763
 20
474.1526880054089
 42
0.011881366
 10
744.2357724253766
 20
475.2211380054091
 42
0.021856427
 10
744.7787224253764
 20
477.022438005409
 42
0.0094125591
 10
745.4492224253763
 20
479.471738005409
 42
0.0046157331
  0
LWPOLYLINE
  5
865
330
1F
100
AcDbEntity
  8
KONTUR
100
AcDbPolyline
 90
       39
 70
     0
 43
0.0
 10
636.3066724253764
 20
479.4710380054089
 10
636.4847724253764
 20
478.6445880054089
 42
0.0085861289
 10
636.6947724253764
 20
477.808088005409
 42
0.0085275527
 10
636.9387724253763
 20
476.959738005409
 42
0.0079321123
 10
637.2106224253764
 20
476.110138005409
 42
0.007183967
 10
637.5052724253765
 20
475.2728380054091
 42
0.0068905392
 10
637.8160724253764
 20
474.460838005409
 42
0.0069460437
 10
638.1387724253764
 20
473.6859380054088
 42
0.0072267702
 10
638.4735224253764
 20
472.9426880054089
 42
0.0072162797
 10
638.8227724253763
 20
472.2245380054089
 42
0.007145831
 10
639.1886724253765
 20
471.5222880054089
 42
0.0068680264
 10
639.5742224253763
 20
470.829688005409
 42
0.0066862624
 10
639.9782724253764
 20
470.1471880054089
 42
0.0067898656
 10
640.4005224253764
 20
469.477388005409
 42
0.0068444213
 10
640.8400724253764
 20
468.8200380054091
 42
0.0067994558
 10
641.2975224253764
 20
468.1754880054091
 42
0.006778814
 10
641.7718724253764
 20
467.5436380054089
 42
0.0067892312
 10
642.2634724253764
 20
466.925438005409
 42
0.0067943136
 10
642.7713224253764
 20
466.320688005409
 42
0.0067904082
 10
643.2959224253764
 20
465.730288005409
 42
0.0067917503
 10
643.8362224253764
 20
465.153988005409
 42
0.0067993446
 10
644.3927224253764
 20
464.592738005409
 42
0.0068003361
 10
644.9643224253764
 20
464.0462380054089
 42
0.0067990784
 10
645.5513724253764
 20
463.515588005409
 42
0.0068164874
 10
646.1532724253764
 20
463.0002380054088
 42
0.006851373
 10
646.7703724253764
 20
462.5011880054089
 42
0.0068206437
 10
647.4007224253764
 20
462.018738005409
 42
0.0067614303
 10
648.0435224253764
 20
461.5545380054091
 42
0.006843294
 10
648.6989724253764
 20
461.107988005409
 42
0.0070258592
 10
649.3673724253764
 20
460.6799880054091
 42
0.0067790228
 10
650.0425224253763
 20
460.2715880054088
 42
0.0061907033
 10
650.7227224253764
 20
459.884188005409
 42
0.00706583
 10
651.4287724253765
 20
459.5111880054089
 42
0.0088742554
 10
652.1681224253764
 20
459.1515380054088
 42
0.0062146484
 10
652.8550724253764
 20
458.8283880054089
 42
0.000390612
 10
653.4604724253765
 20
458.5508380054089
 42
0.0098611552
 10
654.3188224253764
 20
458.224788005409
 42
0.018306667
 10
655.7818724253764
 20
457.7531880054089
 42
0.007679821
 10
657.7793724253764
 20
457.1547380054089
 42
0.0037224496
  0
LWPOLYLINE
  5
88E
330
1F
100
AcDbEntity
  8
KONTUR
100
AcDbPolyline
 90
       23
 70
     0
 43
0.0
 10
723.9777724253763
 20
457.152738005409
 10
722.6291224253764
 20
456.8344380054091
 42
-0.0024749417
 10
721.2775724253765
 20
456.529338005409
 42
-0.0024811092
 10
719.9230224253765
 20
456.238038005409
 42
-0.0024756934
 10
718.5656224253764
 20
455.959838005409
 42
-0.002457524
 10
717.2051724253765
 20
455.6952880054091
 42
-0.0024529279
 10
715.8413224253763
 20
455.443788005409
 42
-0.0024583148
 10
714.4733224253764
 20
455.205688005409
 42
-0.0024572742
 10
713.1015224253765
 20
454.980638005409
 42
-0.0024550297
 10
711.7260224253764
 20
454.7691380054089
 42
-0.0024437266
 10
710.3477724253764
 20
454.570688005409
 42
-0.0024248631
 10
708.9670724253765
 20
454.3859380054089
 42
-0.0024427801
 10
707.5823724253764
 20
454.214338005409
 42
-0.0024906953
 10
706.1932224253765
 20
454.0564880054089
 42
-0.0024188176
 10
704.8077224253764
 20
453.911938005409
 42
-0.0022581577
 10
703.4287724253763
 20
453.7812880054089
 42
-0.0024946194
 10
702.0261724253764
 20
453.6637880054091
 42
-0.0029798486
 10
700.5895724253764
 20
453.559888005409
 42
-0.0022624001
 10
699.2400224253764
 20
453.470288005409
 42
-0.0007692769
 10
698.0193224253765
 20
453.395988005409
 42
-0.0032045737
 10
696.4517224253764
 20
453.331788005409
 42
-0.0055481046
 10
694.0381724253764
 20
453.2734380054089
 42
-0.002719556
 10
690.8778724253764
 20
453.2212380054088
 42
-0.001440534
  0
LWPOLYLINE
  5
8A7
330
1F
100
AcDbEntity
  8
KONTUR
100
AcDbPolyline
 90
       23
 70
     0
 43
0.0
 10
657.7793724253764
 20
457.1547380054089
 10
659.1273724253765
 20
456.8354880054089
 42
0.0025324511
 10
660.4784224253764
 20
456.529788005409
 42
0.0025474043
 10
661.8327724253764
 20
456.2381380054089
 42
0.002532471
 10
663.1901224253763
 20
455.9598880054091
 42
0.0024846169
 10
664.5505224253765
 20
455.6952880054091
 42
0.0024631146
 10
665.9144224253764
 20
455.443788005409
 42
0.0024599169
 10
667.2823724253765
 20
455.205688005409
 42
0.0024557569
 10
668.6542224253765
 20
454.980638005409
 42
0.0024549461
 10
670.0297224253763
 20
454.7691380054089
 42
0.0024441093
 10
671.4079724253764
 20
454.570688005409
 42
0.0024248876
 10
672.7886724253765
 20
454.3859380054089
 42
0.002442688
 10
674.1733724253764
 20
454.214338005409
 42
0.0024906936
 10
675.5625224253764
 20
454.0564880054089
 42
0.0024188443
 10
676.9480224253765
 20
453.911938005409
 42
0.0022581616
 10
678.3269724253764
 20
453.7812880054089
 42
0.002494616
 10
679.7295724253764
 20
453.6637880054091
 42
0.0029798509
 10
681.1661224253764
 20
453.559888005409
 42
0.0022624023
 10
682.5156724253765
 20
453.470288005409
 42
0.0007692764
 10
683.7364224253764
 20
453.395988005409
 42
0.0032045736
 10
685.3040224253765
 20
453.331788005409
 42
0.0055480991
 10
687.7175724253765
 20
453.2734380054089
 42
0.00271955
 10
690.8778724253764
 20
453.2212380054088
 42
0.00144053
  0
LWPOLYLINE
  5
8C0
330
1F
100
AcDbEntity
  8
KONTUR
100
AcDbPolyline
 90
       15
 70
     0
 43
0.0
 10
636.3066724253764
 20
479.4710380054089
 10
635.0959724253764
 20
485.393638005409
 42
-0.0002536383
 10
633.8913724253764
 20
491.316288005409
 42
-0.000251471
 10
632.6934224253764
 20
497.237738005409
 42
-0.0002536979
 10
631.5002724253764
 20
503.166338005409
 42
-0.0002594824
 10
630.3115724253764
 20
509.105188005409
 42
-0.0002524446
 10
629.1333724253764
 20
515.0211380054088
 42
-0.0002358902
 10
627.9680724253764
 20
520.9028880054088
 42
-0.0002608113
 10
626.7907724253764
 20
526.8807380054091
 42
-0.000311596
 10
625.5932724253764
 20
532.999638005409
 42
-0.000236557
 10
624.4725724253764
 20
538.7450880054089
 42
-0.0000806711
 10
623.4623224253764
 20
543.9398880054089
 42
-0.0003347202
 10
622.1787224253765
 20
550.6142380054089
 42
-0.0005774102
 10
620.2195724253763
 20
560.8977380054089
 42
-0.00028242
 10
617.6645724253764
 20
574.366988005409
 42
-0.0001495887
  0
LWPOLYLINE
  5
8D1
330
1F
100
AcDbEntity
  8
KONTUR
100
AcDbPolyline
 90
       15
 70
     0
 43
0.0
 10
765.3198224253765
 20
574.1371380054088
 10
764.2000724253762
 20
568.195238005409
 42
-0.000257678
 10
763.0745224253765
 20
562.255688005409
 42
-0.0002558157
 10
761.9432224253765
 20
556.319788005409
 42
-0.0002577484
 10
760.8046724253763
 20
550.3790880054089
 42
-0.0002625432
 10
759.6580724253763
 20
544.430638005409
 42
-0.0002548112
 10
758.5103224253764
 20
538.5073380054091
 42
-0.0002377263
 10
757.3635724253763
 20
532.6206380054091
 42
-0.000261903
 10
756.1915724253763
 20
526.6404380054089
 42
-0.0003114762
 10
754.9848724253764
 20
520.521988005409
 42
-0.0002364237
 10
753.8484224253764
 20
514.7783380054088
 42
-0.0000817542
 10
752.8180224253765
 20
509.5863380054091
 42
-0.000332371
 10
751.4810224253765
 20
502.9210380054089
 42
-0.000570442
 10
749.4040724253764
 20
492.658488005409
 42
-0.0002788332
 10
746.6735724253765
 20
479.220838005409
 42
-0.0001478444
  0
LWPOLYLINE
  5
8E2
330
1F
100
AcDbEntity
  8
KONTUR
100
AcDbPolyline
 90
       15
 70
     0
 43
0.0
 10
745.4492224253763
 20
479.471738005409
 10
746.6599224253764
 20
485.3942380054089
 42
0.0002536119
 10
747.8644724253763
 20
491.3167880054089
 42
0.000251442
 10
749.0623724253765
 20
497.2381380054089
 42
0.0002536688
 10
750.2555224253765
 20
503.1666380054089
 42
0.000259456
 10
751.4441724253766
 20
509.1053880054089
 42
0.0002524202
 10
752.6223724253764
 20
515.021338005409
 42
0.0002358682
 10
753.7876724253765
 20
520.902988005409
 42
0.0002607901
 10
754.9649724253763
 20
526.8807880054089
 42
0.0003115759
 10
756.1624224253765
 20
532.9996880054089
 42
0.0002365411
 10
757.2831724253765
 20
538.745138005409
 42
0.0000806604
 10
758.2933724253764
 20
543.939938005409
 42
0.0003347068
 10
759.5769724253764
 20
550.6142380054089
 42
0.000577399
 10
761.5361724253762
 20
560.8977380054089
 42
0.000282415
 10
764.0911224253764
 20
574.366988005409
 42
0.000149585
  0
LWPOLYLINE
  5
8F3
330
1F
100
AcDbEntity
  8
KONTUR
100
AcDbPolyline
 90
       23
 70
     0
 43
0.0
 10
746.6735724253765
 20
479.220838005409
 10
746.3527224253764
 20
477.8275880054089
 42
-0.011528861
 10
745.9702224253765
 20
476.456238005409
 42
-0.011667427
 10
745.5232724253765
 20
475.1073880054089
 42
-0.011683087
 10
745.0155724253764
 20
473.7822880054089
 42
-0.01163906
 10
744.4460224253764
 20
472.484788005409
 42
-0.011631142
 10
743.8181224253765
 20
471.2157380054091
 42
-0.011628122
 10
743.1305724253764
 20
469.9782380054089
 42
-0.011641807
 10
742.3865724253765
 20
468.7730880054089
 42
-0.011677166
 10
741.5849224253766
 20
467.603838005409
 42
-0.011667262
 10
740.7294224253765
 20
466.4711380054091
 42
-0.011625226
 10
739.8190224253765
 20
465.3786380054089
 42
-0.011749684
 10
738.8552224253765
 20
464.326438005409
 42
-0.012043264
 10
737.8371724253766
 20
463.3190380054089
 42
-0.011695245
 10
736.7796724253765
 20
462.361838005409
 42
-0.01094785
 10
735.6889224253764
 20
461.4624880054089
 42
-0.012081824
 10
734.5386224253764
 20
460.6112380054089
 42
-0.01431995
 10
733.3185724253763
 20
459.807738005409
 42
-0.010902428
 10
732.1503724253764
 20
459.0854380054088
 42
-0.003780886
 10
731.0756224253764
 20
458.459738005409
 42
-0.015304051
 10
729.6314724253764
 20
457.7934380054089
 42
-0.026543854
 10
727.3293724253765
 20
456.9470880054091
 42
-0.012958286
 10
724.2675224253765
 20
455.946588005409
 42
-0.0068129587
  0
LWPOLYLINE
  5
90C
330
1F
100
AcDbEntity
  8
KONTUR
100
AcDbPolyline
 90
       15
 70
     0
 43
0.0
 10
690.8778724253764
 20
451.9808380054089
 10
692.9893724253765
 20
451.9970880054088
 42
0.0036729872
 10
695.0986724253764
 20
452.0437380054091
 42
0.0036513542
 10
697.2053224253764
 20
452.121938005409
 42
0.0036818229
 10
699.3119724253763
 20
452.231088005409
 42
0.0037538646
 10
701.4189724253765
 20
452.372638005409
 42
0.00364723
 10
703.5147724253763
 20
452.542588005409
 42
0.003405573
 10
705.5948724253765
 20
452.741338005409
 42
0.0037571289
 10
707.7041224253765
 20
452.9777380054088
 42
0.0044780213
 10
709.8575224253764
 20
453.256488005409
 42
0.0034012383
 10
711.8770724253764
 20
453.5361380054089
 42
0.0011682702
 10
713.7009224253763
 20
453.804138005409
 42
0.0047963398
 10
716.0306224253764
 20
454.217388005409
 42
0.0082658852
 10
719.6014724253764
 20
454.9429380054089
 42
0.0040431238
 10
724.2675224253765
 20
455.946588005409
 42
0.0021412181
  0
LWPOLYLINE
  5
91D
330
1F
100
AcDbEntity
  8
KONTUR
100
AcDbPolyline
 90
       15
 70
     0
 43
0.0
 10
690.8778724253764
 20
451.9808380054089
 10
688.7663724253764
 20
451.9970880054088
 42
-0.003672977
 10
686.6570724253763
 20
452.0437380054091
 42
-0.0036513466
 10
684.5504224253764
 20
452.121938005409
 42
-0.0036818177
 10
682.4437724253764
 20
452.231088005409
 42
-0.0037538611
 10
680.3367224253765
 20
452.372638005409
 42
-0.0036472287
 10
678.2409724253764
 20
452.542588005409
 42
-0.0034055731
 10
676.1608224253764
 20
452.741338005409
 42
-0.00375713
 10
674.0515724253764
 20
452.9777380054088
 42
-0.0044780233
 10
671.8981724253764
 20
453.256488005409
 42
-0.0034012411
 10
669.8786224253764
 20
453.5361380054089
 42
-0.001168273
 10
668.0547724253765
 20
453.804138005409
 42
-0.0047963428
 10
665.7251224253764
 20
454.217388005409
 42
-0.0082658883
 10
662.1542224253765
 20
454.9429380054089
 42
-0.0040431258
 10
657.4881724253764
 20
455.946588005409
 42
-0.0021412197
  0
LWPOLYLINE
  5
92E
330
1F
100
AcDbEntity
  8
KONTUR
100
AcDbPolyline
 90
       23
 70
     0
 43
0.0
 10
657.4881724253764
 20
455.946588005409
 10
656.1106724253764
 20
456.314588005409
 42
-0.011680324
 10
654.7573224253764
 20
456.744138005409
 42
-0.011821371
 10
653.4287224253765
 20
457.2380880054091
 42
-0.011830815
 10
652.1260724253764
 20
457.7925380054089
 42
-0.011772396
 10
650.8531224253763
 20
458.4084380054089
 42
-0.011751671
 10
649.6106224253765
 20
459.082238005409
 42
-0.01173594
 10
648.4017724253764
 20
459.8151880054088
 42
-0.011735719
 10
647.2272224253765
 20
460.6038880054089
 42
-0.011755559
 10
646.0904224253763
 20
461.4494380054089
 42
-0.011731413
 10
644.9919724253764
 20
462.3479380054091
 42
-0.011675112
 10
643.9354224253764
 20
463.3003880054089
 42
-0.011781933
 10
642.9210724253765
 20
464.305038005409
 42
-0.012057729
 10
641.9533724253764
 20
465.362488005409
 42
-0.011694801
 10
641.0373224253764
 20
466.457488005409
 42
-0.010932291
 10
640.1802224253764
 20
467.5835380054089
 42
-0.012041881
 10
639.3731224253764
 20
468.7672380054091
 42
-0.014238327
 10
638.6159224253764
 20
470.0188880054088
 42
-0.010834566
 10
637.9377724253765
 20
471.2155380054089
 42
-0.0037805229
 10
637.3525224253764
 20
472.3149880054088
 42
-0.015159967
 10
636.7389724253765
 20
473.785288005409
 42
-0.026221304
 10
635.9747224253764
 20
476.1202880054088
 42
-0.012796795
 10
635.0821724253764
 20
479.220838005409
 42
-0.006732115
  0
LWPOLYLINE
  5
947
330
1F
100
AcDbEntity
  8
KONTUR
100
AcDbPolyline
 90
       15
 70
     0
 43
0.0
 10
616.4359224253765
 20
574.1371380054088
 10
617.5556724253764
 20
568.195238005409
 42
0.0002576734
 10
618.6812224253765
 20
562.255688005409
 42
0.000255811
 10
619.8125224253764
 20
556.319788005409
 42
0.0002577439
 10
620.9510724253764
 20
550.3790880054089
 42
0.0002625388
 10
622.0976724253765
 20
544.430638005409
 42
0.0002548071
 10
623.2453724253764
 20
538.5073380054091
 42
0.0002377226
 10
624.3921224253764
 20
532.6206380054091
 42
0.000261899
 10
625.5641724253765
 20
526.6404380054089
 42
0.0003114719
 10
626.7708224253764
 20
520.521988005409
 42
0.0002364202
 10
627.9072724253764
 20
514.7783380054088
 42
0.0000817529
 10
628.9376724253764
 20
509.5863380054091
 42
0.0003323669
 10
630.2746724253764
 20
502.9210380054089
 42
0.0005704357
 10
632.3516224253764
 20
492.658488005409
 42
0.0002788301
 10
635.0821724253764
 20
479.220838005409
 42
0.0001478428
  0
LINE
  5
958
330
1F
100
AcDbEntity
  8
KONTUR
100
AcDbLine
 10
616.3453224253765
 20
574.6112880054088
 30
0.0
 11
616.1587224253765
 21
575.6112880054088
 31
0.0
  0
ARC
  5
959
330
1F
100
AcDbEntity
  8
KONTUR
100
AcDbCircle
 10
618.2860724253765
 20
575.1112880054088
 30
0.0
 40
2.0000056
100
AcDbArc
 50
89.9998650000002
 51
164.4053700000004
  0
LWPOLYLINE
  5
95A
330
1F
100
AcDbEntity
  8
KONTUR
100
AcDbPolyline
 90
       15
 70
     0
 43
0.0
 10
635.4460224253764
 20
467.2668880054089
 10
635.4460724253764
 20
467.2668880054089
 42
-0.10011221
 10
635.4460724253764
 20
467.2668880054089
 42
-0.53275599
 10
635.4460724253764
 20
467.2668880054089
 42
-0.034822627
 10
635.4460224253764
 20
467.2668880054089
 42
-0.012820268
 10
635.4460224253764
 20
467.266838005409
 42
-0.004834216
 10
635.4460224253764
 20
467.266838005409
 42
-0.0024287844
 10
635.4460224253764
 20
467.266838005409
 42
-0.001881358
 10
635.4460224253764
 20
467.2667880054089
 42
-0.0015341234
 10
635.4460224253764
 20
467.266738005409
 42
-0.0006472592
 10
635.4459724253763
 20
467.2666880054089
 42
-0.0000147188
 10
635.4459724253763
 20
467.2666380054088
 42
-0.0009032324
 10
635.4459724253763
 20
467.2665380054091
 42
-0.000873571
 10
635.4459224253765
 20
467.2663380054089
 42
-0.0002532371
 10
635.4458224253765
 20
467.2660880054091
 42
-0.0001038633
  0
LWPOLYLINE
  5
96B
330
1F
100
AcDbEntity
  8
KONTUR
100
AcDbPolyline
 90
       15
 70
     0
 43
0.0
 10
616.2712724253764
 20
574.7783380054088
 10
617.4124224253765
 20
568.0444380054091
 42
0.0002913207
 10
618.5610224253764
 20
561.313488005409
 42
0.0002897016
 10
619.7170724253764
 20
554.5870380054089
 42
0.000291463
 10
620.8820224253764
 20
547.855438005409
 42
0.0002954441
 10
622.0567724253764
 20
541.115538005409
 42
0.000285945
 10
623.2339724253765
 20
534.404538005409
 42
0.0002662917
 10
624.4115224253765
 20
527.7353880054088
 42
0.0002921334
 10
625.6165224253764
 20
520.9609380054089
 42
0.0003455457
 10
626.8586724253764
 20
514.030538005409
 42
0.000262275
 10
628.0292724253763
 20
507.525038005409
 42
0.0000922408
 10
629.0913224253765
 20
501.6445880054089
 42
0.0003658367
 10
630.4720224253765
 20
494.0970380054089
 42
0.0006241382
 10
632.6199724253763
 20
482.4782380054089
 42
0.0003049483
 10
635.4458224253765
 20
467.2660880054091
 42
0.0001619316
  0
LWPOLYLINE
  5
97C
330
1F
100
AcDbEntity
  8
KONTUR
100
AcDbPolyline
 90
       15
 70
     0
 43
0.0
 10
765.4844724253765
 20
574.7783380054088
 10
765.4880224253766
 20
574.801238005409
 42
0.0027538309
 10
765.4913724253765
 20
574.8241380054089
 42
0.0027219371
 10
765.4944224253763
 20
574.847188005409
 42
0.0027368929
 10
765.4972724253764
 20
574.8702880054088
 42
0.0027923761
 10
765.4998224253764
 20
574.8934880054089
 42
0.00271006
 10
765.5021224253765
 20
574.9166380054089
 42
0.0025268544
 10
765.5042224253764
 20
574.939738005409
 42
0.0027904293
 10
765.5060224253764
 20
574.963238005409
 42
0.003332531
 10
765.5075724253766
 20
574.9873380054089
 42
0.0025239017
 10
765.5088724253765
 20
575.009988005409
 42
0.0008515418
 10
765.5099224253763
 20
575.0304880054089
 42
0.0035760314
 10
765.5107224253766
 20
575.0568880054088
 42
0.0061757887
 10
765.5111724253766
 20
575.097638005409
 42
0.00301483
 10
765.5112724253763
 20
575.1509880054091
 42
0.0015929464
  0
LWPOLYLINE
  5
98D
330
1F
100
AcDbEntity
  8
KONTUR
100
AcDbPolyline
 90
       19
 70
     0
 43
0.0
 10
765.4440224253765
 20
575.639938005409
 10
765.4054724253765
 20
575.764788005409
 42
0.016865347
 10
765.3588224253763
 20
575.8861380054091
 42
0.01725987
 10
765.3037224253762
 20
576.003888005409
 42
0.017072476
 10
765.2409224253765
 20
576.1178380054089
 42
0.016514575
 10
765.1705724253766
 20
576.2273380054089
 42
0.016128884
 10
765.0935224253765
 20
576.332238005409
 42
0.015774542
 10
765.0098224253766
 20
576.4320380054089
 42
0.015694589
 10
764.9199724253763
 20
576.5265380054088
 42
0.015840431
 10
764.8241224253766
 20
576.6152380054091
 42
0.015335958
 10
764.7235724253765
 20
576.6978880054089
 42
0.014293502
 10
764.6187724253764
 20
576.7739880054089
 42
0.015843771
 10
764.5074724253764
 20
576.843488005409
 42
0.019241356
 10
764.3889724253763
 20
576.9058380054089
 42
0.014676033
 10
764.2750724253765
 20
576.9604380054088
 42
0.0045548604
 10
764.1699724253765
 20
577.006388005409
 42
0.021423018
 10
764.0295224253764
 20
577.045938005409
 42
0.039110596
 10
763.8072224253765
 20
577.080938005409
 42
0.019195368
 10
763.5123724253763
 20
577.1112880054088
 42
0.009923648
  0
LWPOLYLINE
  5
9A2
330
1F
100
AcDbEntity
  8
KONTUR
100
AcDbPolyline
 90
       15
 70
     0
 43
0.0
 10
658.0629224253764
 20
443.5960380054089
 10
658.0629224253764
 20
443.5960380054089
 42
-0.040785616
 10
658.0629224253764
 20
443.5960380054089
 42
-0.032435312
 10
658.0629224253764
 20
443.5960380054089
 42
-0.041443745
 10
658.0629224253764
 20
443.5960380054089
 42
-0.052635906
 10
658.0629224253764
 20
443.5960380054089
 42
-0.037891359
 10
658.0629224253764
 20
443.5960380054089
 42
-0.024181562
 10
658.0629224253764
 20
443.5960380054089
 42
-0.018288169
 10
658.0629224253764
 20
443.595988005409
 42
-0.013057572
 10
658.0629224253764
 20
443.595988005409
 42
-0.005828683
 10
658.0629224253764
 20
443.595988005409
 42
-0.0019475649
 10
658.0629224253764
 20
443.595988005409
 42
-0.004764305
 10
658.0629224253764
 20
443.5959380054089
 42
-0.0030866556
 10
658.0629224253764
 20
443.5958880054091
 42
-0.0008340846
 10
658.0629224253764
 20
443.595838005409
 42
-0.0003997952
  0
LWPOLYLINE
  5
9B3
330
1F
100
AcDbEntity
  8
KONTUR
100
AcDbPolyline
 90
       15
 70
     0
 43
0.0
 10
658.0629224253764
 20
443.595838005409
 10
660.0809724253764
 20
443.136888005409
 42
0.0036086134
 10
662.1045724253764
 20
442.706688005409
 42
0.0035846731
 10
664.1336724253765
 20
442.3064880054089
 42
0.0036107099
 10
666.1703724253765
 20
441.9350880054089
 42
0.0036768489
 10
668.2154724253764
 20
441.5936880054089
 42
0.0035689364
 10
670.2567724253764
 20
441.281338005409
 42
0.0033299554
 10
672.2901724253763
 20
440.999288005409
 42
0.003670724
 10
674.3603724253763
 20
440.7457380054088
 42
0.0043716787
 10
676.4828224253765
 20
440.5217380054089
 42
0.0033189017
 10
678.4777724253764
 20
440.3286380054089
 42
0.0011400898
 10
680.2830724253763
 20
440.1686180054089
 42
0.004677424
 10
682.6054224253764
 20
440.0302880054089
 42
0.0080586502
 10
686.1861724253764
 20
439.9041480054088
 42
0.0039415914
 10
690.8778724253764
 20
439.791123005409
 42
0.0020873712
  0
LWPOLYLINE
  5
9C4
330
1F
100
AcDbEntity
  8
KONTUR
100
AcDbPolyline
 90
       15
 70
     0
 43
0.0
 10
723.6928224253763
 20
443.5960380054089
 10
723.6928224253763
 20
443.5960380054089
 42
0.043447127
 10
723.6928224253763
 20
443.5960380054089
 42
0.032352386
 10
723.6928224253763
 20
443.5960380054089
 42
0.038861116
 10
723.6928224253763
 20
443.5960380054089
 42
0.045894559
 10
723.6928224253763
 20
443.5960380054089
 42
0.031325555
 10
723.6928224253763
 20
443.5960380054089
 42
0.019562651
 10
723.6928224253763
 20
443.5960380054089
 42
0.01466436
 10
723.6928224253763
 20
443.595988005409
 42
0.010439035
 10
723.6928224253763
 20
443.595988005409
 42
0.0046561276
 10
723.6928224253763
 20
443.595988005409
 42
0.0015520927
 10
723.6928224253763
 20
443.595988005409
 42
0.0038134212
 10
723.6928224253763
 20
443.5959380054089
 42
0.0024769452
 10
723.6928224253763
 20
443.5958880054091
 42
0.0006697964
 10
723.6928224253763
 20
443.595838005409
 42
0.0003207457
  0
LWPOLYLINE
  5
9D5
330
1F
100
AcDbEntity
  8
KONTUR
100
AcDbPolyline
 90
       15
 70
     0
 43
0.0
 10
690.8778724253764
 20
439.791123005409
 10
692.9473724253763
 20
439.8065180054089
 42
0.0035907047
 10
695.0157724253763
 20
439.8510630054088
 42
0.0035653243
 10
697.0825724253764
 20
439.9258730054089
 42
0.0035926568
 10
699.1502224253765
 20
440.030338005409
 42
0.0036632601
 10
701.2192224253763
 20
440.1658380054089
 42
0.0035584787
 10
703.2778724253762
 20
440.328663005409
 42
0.0033218908
 10
705.3218724253766
 20
440.5191380054089
 42
0.0036660693
 10
707.3952224253765
 20
440.7457380054088
 42
0.004372586
 10
709.5126224253763
 20
441.0130380054088
 42
0.0033198107
 10
711.4988224253764
 20
441.2812880054089
 42
0.0011353086
 10
713.2929224253764
 20
441.5383880054089
 42
0.0046885031
 10
715.5852724253764
 20
441.9350380054088
 42
0.0080909746
 10
719.0998224253763
 20
442.6317880054089
 42
0.0039581729
 10
723.6928224253763
 20
443.595838005409
 42
0.002095432
  0
LWPOLYLINE
  5
9E6
330
1F
100
AcDbEntity
  8
KONTUR
100
AcDbPolyline
 90
       43
 70
     0
 43
0.0
 10
635.4460224253764
 20
467.2668880054089
 10
635.5948224253764
 20
466.5256380054088
 42
0.0065801619
 10
635.7643724253765
 20
465.7797380054089
 42
0.006347312
 10
635.9556724253764
 20
465.0283380054088
 42
0.0062746072
 10
636.1674724253764
 20
464.2759880054091
 42
0.0065206854
 10
636.4002724253764
 20
463.5274880054089
 42
0.0066179273
 10
636.6527724253764
 20
462.7840880054091
 42
0.0065194941
 10
636.9253724253764
 20
462.0465380054088
 42
0.0064783948
 10
637.2169724253764
 20
461.315488005409
 42
0.006495089
 10
637.5281724253764
 20
460.5920880054091
 42
0.0065007034
 10
637.8579224253764
 20
459.876538005409
 42
0.0064913597
 10
638.2067724253764
 20
459.1696880054089
 42
0.006492371
 10
638.5737224253764
 20
458.471738005409
 42
0.0065079563
 10
638.9593224253764
 20
457.783688005409
 42
0.0065249421
 10
639.3626224253765
 20
457.105638005409
 42
0.0065482936
 10
639.7840224253764
 20
456.438588005409
 42
0.0065771423
 10
640.2226724253765
 20
455.782688005409
 42
0.0066195311
 10
640.6790224253764
 20
455.138938005409
 42
0.0066270419
 10
641.1519724253765
 20
454.5072380054089
 42
0.0066005987
 10
641.6418724253765
 20
453.8885380054089
 42
0.0065759124
 10
642.1475724253764
 20
453.282688005409
 42
0.0065468923
 10
642.6694224253765
 20
452.6905880054089
 42
0.0065263798
 10
643.2063224253764
 20
452.1119880054089
 42
0.0065095684
 10
643.7585224253764
 20
451.5479380054089
 42
0.006499135
 10
644.3249724253765
 20
450.9981380054089
 42
0.0064925838
 10
644.9058724253764
 20
450.4636380054089
 42
0.0064890644
 10
645.5002224253765
 20
449.9441380054091
 42
0.0064883064
 10
646.1082224253764
 20
449.4406380054088
 42
0.0064996326
 10
646.7289724253765
 20
448.952888005409
 42
0.0065239561
 10
647.3625724253764
 20
448.481888005409
 42
0.006522845
 10
648.0079224253764
 20
448.0274380054088
 42
0.0065038304
 10
648.6649224253764
 20
447.590588005409
 42
0.0065854118
 10
649.3338724253764
 20
447.170738005409
 42
0.0067557187
 10
650.0151224253764
 20
446.7688880054091
 42
0.00658173
 10
650.7035224253764
 20
446.3857380054089
 42
0.0061469422
 10
651.3975724253764
 20
446.022588005409
 42
0.0067481758
 10
652.1130724253765
 20
445.674438005409
 42
0.0079863632
 10
652.8555224253764
 20
445.340788005409
 42
0.006062101
 10
653.5581224253765
 20
445.038438005409
 42
0.0021055199
 10
654.1977724253763
 20
444.774238005409
 42
0.0084903709
 10
655.0343224253764
 20
444.4790380054089
 42
0.014622712
 10
656.3408724253765
 20
444.081788005409
 42
0.00715767
 10
658.0629224253764
 20
443.5960380054089
 42
0.0037880628
  0
LWPOLYLINE
  5
A13
330
1F
100
AcDbEntity
  8
KONTUR
100
AcDbPolyline
 90
       75
 70
     0
 43
0.0
 10
723.6928224253763
 20
443.5960380054089
 10
724.1367224253763
 20
443.7040380054091
 42
0.003787173
 10
724.5788224253763
 20
443.8186880054091
 42
0.0037897973
 10
725.0192224253765
 20
443.9401380054089
 42
0.0037883647
 10
725.4577224253762
 20
444.068188005409
 42
0.0037866204
 10
725.8941724253764
 20
444.2030380054089
 42
0.003787416
 10
726.3285724253765
 20
444.3443380054091
 42
0.003789167
 10
726.7607724253764
 20
444.492438005409
 42
0.0037881154
 10
727.1906724253765
 20
444.6469380054091
 42
0.0037857736
 10
727.6181224253764
 20
444.808088005409
 42
0.003786347
 10
728.0430724253765
 20
444.975588005409
 42
0.0037882041
 10
728.4653724253762
 20
445.149688005409
 42
0.0037890344
 10
728.8851224253765
 20
445.3300880054089
 42
0.0037895823
 10
729.3019724253763
 20
445.5169880054091
 42
0.0037886113
 10
729.7160724253763
 20
445.7101380054089
 42
0.0037864563
 10
730.1271224253765
 20
445.9096380054089
 42
0.0037856666
 10
730.5351224253764
 20
446.115288005409
 42
0.0037861101
 10
730.9399224253764
 20
446.3272880054089
 42
0.0037878964
 10
731.3415224253763
 20
446.5452380054089
 42
0.0037915542
 10
731.7396724253763
 20
446.7694880054089
 42
0.003792857
 10
732.1344224253764
 20
446.9995880054089
 42
0.0037919537
 10
732.5255224253765
 20
447.2358380054091
 42
0.00379015
 10
732.9130224253763
 20
447.477838005409
 42
0.0037868541
 10
733.2967224253764
 20
447.7258880054089
 42
0.0037851436
 10
733.6767224253763
 20
447.9795880054089
 42
0.003784572
 10
734.0527224253765
 20
448.2391380054089
 42
0.003784662
 10
734.4247724253764
 20
448.504338005409
 42
0.0037854268
 10
734.7927224253765
 20
448.7752380054089
 42
0.0037872246
 10
735.1565224253764
 20
449.051588005409
 42
0.0037905266
 10
735.5160224253764
 20
449.333588005409
 42
0.0037928478
 10
735.8713224253763
 20
449.620938005409
 42
0.0037948377
 10
736.2220224253765
 20
449.9137880054091
 42
0.0037934677
 10
736.5683724253765
 20
450.2118380054089
 42
0.0037885118
 10
736.9100724253763
 20
450.515288005409
 42
0.0037854592
 10
737.2471724253764
 20
450.823738005409
 42
0.003783582
 10
737.5794724253765
 20
451.137438005409
 42
0.003782611
 10
737.9070724253763
 20
451.456038005409
 42
0.0037823429
 10
738.2296724253765
 20
451.7796880054088
 42
0.0037830369
 10
738.5474724253763
 20
452.1080880054089
 42
0.0037848918
 10
738.8600724253765
 20
452.4414380054091
 42
0.003787168
 10
739.1676724253764
 20
452.779338005409
 42
0.003790451
 10
739.4699724253765
 20
453.122038005409
 42
0.0037950422
 10
739.7671224253763
 20
453.4692380054089
 42
0.0038021002
 10
740.0588224253763
 20
453.8209880054089
 42
0.0038038693
 10
740.3452224253765
 20
454.1770880054089
 42
0.0038008224
 10
740.6260224253765
 20
454.5375880054089
 42
0.0037963992
 10
740.9014224253765
 20
454.902288005409
 42
0.003789477
 10
741.1711224253763
 20
455.2711380054088
 42
0.0037848569
 10
741.4352724253763
 20
455.6440380054089
 42
0.0037813049
 10
741.6935724253765
 20
456.020888005409
 42
0.0037789514
 10
741.9462724253763
 20
456.4015880054089
 42
0.0037771049
 10
742.1929724253764
 20
456.7861380054089
 42
0.0037765049
 10
742.4339724253764
 20
457.1742380054088
 42
0.0037768489
 10
742.6688724253763
 20
457.5660380054089
 42
0.003778074
 10
742.8979224253765
 20
457.9612380054091
 42
0.0037803141
 10
743.1207724253763
 20
458.3598880054089
 42
0.003783587
 10
743.3376224253766
 20
458.7618380054091
 42
0.0037884118
 10
743.5481724253764
 20
459.1669880054089
 42
0.0037927989
 10
743.7526224253766
 20
459.5752380054089
 42
0.0037978522
 10
743.9506724253763
 20
459.986588005409
 42
0.0037994972
 10
744.1424724253764
 20
460.400738005409
 42
0.0037972449
 10
744.3278224253763
 20
460.8177880054091
 42
0.0037821004
 10
744.5068224253764
 20
461.2372380054089
 42
0.0037541613
 10
744.6792224253763
 20
461.6590880054089
 42
0.003781841
 10
744.8453224253763
 20
462.0836880054089
 42
0.0038525819
 10
745.0048224253765
 20
462.5111880054089
 42
0.003749104
 10
745.1575724253764
 20
462.938938005409
 42
0.0035147148
 10
745.3029724253765
 20
463.3661380054089
 42
0.0038637472
 10
745.4432224253765
 20
463.8019380054091
 42
0.0045747346
 10
745.5786724253765
 20
464.2494880054089
 42
0.003507743
 10
745.7019724253764
 20
464.6710380054089
 42
0.001304722
 10
745.8101224253764
 20
465.0532880054091
 42
0.0047827039
 10
745.9330724253764
 20
465.5419380054091
 42
0.0081972788
 10
746.1015724253764
 20
466.2899380054089
 42
0.0040960521
 10
746.3096724253764
 20
467.2668880054089
 42
0.002201899
  0
LWPOLYLINE
  5
A60
330
1F
100
AcDbEntity
  8
KONTUR
100
AcDbPolyline
 90
       15
 70
     0
 43
0.0
 10
746.3096724253764
 20
467.2668880054089
 10
746.3096724253764
 20
467.2668880054089
 42
0.029224013
 10
746.3096724253764
 20
467.2668880054089
 42
0.1116143
 10
746.3096724253764
 20
467.2668880054089
 42
0.008314527
 10
746.3096724253764
 20
467.2668880054089
 42
0.0047768489
 10
746.3096724253764
 20
467.266838005409
 42
0.0021317451
 10
746.3096724253764
 20
467.266838005409
 42
0.0011904023
 10
746.3096724253764
 20
467.266838005409
 42
0.0011047726
 10
746.3096724253764
 20
467.2667880054089
 42
0.001040358
 10
746.3097224253763
 20
467.266738005409
 42
0.000439937
 10
746.3097224253763
 20
467.2666880054089
 42
-0.0000533166
 10
746.3097224253763
 20
467.2666380054088
 42
0.0007403967
 10
746.3097724253764
 20
467.2665380054091
 42
0.0007701113
 10
746.3098224253763
 20
467.2663380054089
 42
0.0002254471
 10
746.3098724253764
 20
467.2660880054091
 42
0.0000905752
  0
LWPOLYLINE
  5
A71
330
1F
100
AcDbEntity
  8
KONTUR
100
AcDbPolyline
 90
       47
 70
     0
 43
0.0
 10
618.2433224253764
 20
577.1112880054088
 10
618.2348224253765
 20
577.111238005409
 42
0.0015757138
 10
618.2251224253764
 20
577.111138005409
 42
0.000998318
 10
618.2142224253764
 20
577.1109880054089
 42
0.0009943693
 10
618.2022224253764
 20
577.110788005409
 42
0.0014154939
 10
618.1891224253764
 20
577.110488005409
 42
0.0015963256
 10
618.1750224253765
 20
577.110038005409
 42
0.0017248227
 10
618.1598724253764
 20
577.109438005409
 42
0.00181338
 10
618.1437724253764
 20
577.1087380054089
 42
0.0019665637
 10
618.1267724253764
 20
577.107788005409
 42
0.0020578233
 10
618.1089224253765
 20
577.1066880054091
 42
0.0021903597
 10
618.0902724253764
 20
577.1053380054091
 42
0.0022762976
 10
618.0707724253764
 20
577.1037880054091
 42
0.0024086629
 10
618.0505724253765
 20
577.101938005409
 42
0.0025001226
 10
618.0296724253765
 20
577.0998380054089
 42
0.0026386022
 10
618.0081224253763
 20
577.0973880054089
 42
0.0027316133
 10
617.9860224253764
 20
577.0946380054088
 42
0.0028623912
 10
617.9632724253764
 20
577.091588005409
 42
0.002913348
 10
617.9400224253765
 20
577.0881380054088
 42
0.0029484951
 10
617.9161724253764
 20
577.0843380054089
 42
0.0029815711
 10
617.8918724253765
 20
577.080138005409
 42
0.003070644
 10
617.8670224253765
 20
577.075538005409
 42
0.003126202
 10
617.8417224253765
 20
577.0705380054089
 42
0.0032088844
 10
617.8159724253765
 20
577.065088005409
 42
0.0032557742
 10
617.7897724253764
 20
577.0591880054089
 42
0.0033287724
 10
617.7631724253764
 20
577.052788005409
 42
0.003399167
 10
617.7361224253764
 20
577.0458880054089
 42
0.0035113139
 10
617.7087224253764
 20
577.0384880054089
 42
0.0035080909
 10
617.6811724253764
 20
577.030638005409
 42
0.0035350678
 10
617.6537724253764
 20
577.0223880054091
 42
0.00360074
 10
617.6263224253764
 20
577.0137380054089
 42
0.0035594732
 10
617.5987224253764
 20
577.0045380054089
 42
0.0035454746
 10
617.5717724253764
 20
576.9951880054091
 42
0.0039276739
 10
617.5457224253764
 20
576.985588005409
 42
0.0036252434
 10
617.5176724253764
 20
576.9749880054089
 42
0.0013617592
 10
617.4830224253765
 20
576.9614880054089
 42
0.005464599
 10
617.4351224253764
 20
576.940988005409
 42
0.0096308036
 10
617.3675224253764
 20
576.9090880054089
 42
0.0083044634
 10
617.2846724253764
 20
576.8664880054089
 42
0.0093477468
 10
617.1909724253765
 20
576.812688005409
 42
0.014474144
 10
617.0881224253765
 20
576.743238005409
 42
0.021821434
 10
616.9776724253765
 20
576.654988005409
 42
0.01390978
 10
616.8685224253763
 20
576.5633380054089
 42
-0.0010199789
 10
616.7656724253765
 20
576.4721380054089
 42
0.028799449
 10
616.6490724253765
 20
576.3189380054091
 42
0.054636096
 10
616.4972724253764
 20
576.0371380054089
 42
0.023721992
 10
616.3145724253764
 20
575.640488005409
 42
0.010726326
  0
LWPOLYLINE
  5
AA2
330
1F
100
AcDbEntity
  8
KONTUR
100
AcDbPolyline
 90
       15
 70
     0
 43
0.0
 10
616.2437724253764
 20
575.154438005409
 10
616.2434224253764
 20
575.1308880054089
 42
0.0029336067
 10
616.2433224253764
 20
575.107338005409
 42
0.0029089746
 10
616.2435224253763
 20
575.0837880054089
 42
0.002932348
 10
616.2439724253763
 20
575.060238005409
 42
0.0029952219
 10
616.2447224253765
 20
575.036638005409
 42
0.0029112413
 10
616.2457224253764
 20
575.013138005409
 42
0.002718111
 10
616.2470224253764
 20
574.9897880054091
 42
0.003002305
 10
616.2486224253764
 20
574.9660380054088
 42
0.00358365
 10
616.2505724253765
 20
574.9417880054089
 42
0.0027180852
 10
616.2526224253764
 20
574.919038005409
 42
0.0009254548
 10
616.2545724253764
 20
574.8984380054089
 42
0.0038424727
 10
616.2577224253764
 20
574.872038005409
 42
0.0066218966
 10
616.2633724253765
 20
574.8314380054089
 42
0.0032329329
 10
616.2712724253764
 20
574.7783380054088
 42
0.0017099106
  0
LWPOLYLINE
  5
AB3
330
1F
100
AcDbEntity
  8
KONTUR
100
AcDbPolyline
 90
       15
 70
     0
 43
0.0
 10
746.3098724253764
 20
467.2660880054091
 10
747.5643724253764
 20
473.971288005409
 42
0.0002768111
 10
748.8114224253763
 20
480.677338005409
 42
0.0002739336
 10
750.0506224253763
 20
487.382738005409
 42
0.000276735
 10
751.2837224253763
 20
494.0970380054089
 42
0.0002844214
 10
752.5110224253763
 20
500.8236880054089
 42
0.000277462
 10
753.7264224253763
 20
507.525038005409
 42
0.0002597198
 10
754.9273724253765
 20
514.188238005409
 42
0.000288361
 10
756.1392224253764
 20
520.9609380054089
 42
0.0003463538
 10
757.3703224253763
 20
527.8941380054089
 42
0.0002629539
 10
758.5217724253764
 20
534.4044880054089
 42
0.000088146
 10
759.5590224253765
 20
540.291238005409
 42
0.0003749107
 10
760.8737224253764
 20
547.855438005409
 42
0.0006505327
 10
762.8759724253764
 20
559.5111380054091
 42
0.0003183717
 10
765.4844724253765
 20
574.7783380054088
 42
0.000168406
  0
LINE
  5
AC4
330
1F
100
AcDbEntity
  8
KONTUR
100
AcDbLine
 10
762.1839724253764
 20
557.1723380054091
 30
0.0
 11
760.4978724253765
 21
548.1949380054089
 31
0.0
  0
LINE
  5
AC5
330
1F
100
AcDbEntity
  8
KONTUR
100
AcDbLine
 10
760.4978724253765
 20
548.1949380054089
 30
0.0
 11
760.0232724253765
 21
545.682988005409
 31
0.0
  0
LWPOLYLINE
  5
AC6
330
1F
100
AcDbEntity
  8
KONTUR
100
AcDbPolyline
 90
       23
 70
     0
 43
0.0
 10
760.0232724253765
 20
545.682988005409
 10
759.9255724253765
 20
545.1800880054088
 42
-0.0002238047
 10
759.8349224253764
 20
544.716138005409
 42
-0.0002686981
 10
759.7516224253764
 20
544.292588005409
 42
-0.0003164666
 10
759.6756224253763
 20
543.908688005409
 42
-0.0003642797
 10
759.6074724253763
 20
543.567338005409
 42
-0.0004437331
 10
759.5469724253765
 20
543.267638005409
 42
-0.000559223
 10
759.4947224253765
 20
543.0120880054089
 42
-0.0007539223
 10
759.4505724253763
 20
542.7999380054089
 42
-0.0010763708
 10
759.4150224253763
 20
542.6338880054091
 42
-0.001734748
 10
759.3879224253765
 20
542.512688005409
 42
-0.0032228077
 10
759.3697724253764
 20
542.439138005409
 42
-0.0089170082
 10
759.3606224253765
 20
542.4129380054089
 42
-0.083875962
 10
759.3610224253764
 20
542.4372880054088
 42
-0.11519583
 10
759.3702224253764
 20
542.507638005409
 42
-0.0099351269
 10
759.3884724253764
 20
542.6249880054088
 42
-0.0038256399
 10
759.4171724253763
 20
542.796738005409
 42
-0.0021527732
 10
759.4571224253764
 20
543.026938005409
 42
-0.000946282
 10
759.4999724253764
 20
543.270638005409
 42
-0.0002561619
 10
759.5431724253763
 20
543.5140880054089
 42
-0.000863791
 10
759.6169224253763
 20
543.919838005409
 42
-0.0009023124
 10
759.7535724253764
 20
544.6623380054089
 42
-0.0003094813
 10
759.9464224253763
 20
545.7055380054089
 42
-0.0001407256
  0
LINE
  5
ADF
330
1F
100
AcDbEntity
  8
KONTUR
100
AcDbLine
 10
759.9464224253763
 20
545.7055380054089
 30
0.0
 11
760.4260724253763
 21
548.211988005409
 31
0.0
  0
LINE
  5
AE0
330
1F
100
AcDbEntity
  8
KONTUR
100
AcDbLine
 10
760.4260724253763
 20
548.211988005409
 30
0.0
 11
762.1346724253765
 21
557.184088005409
 31
0.0
  0
LWPOLYLINE
  5
AE1
330
1F
100
AcDbEntity
  8
KONTUR
100
AcDbPolyline
 90
       31
 70
     0
 43
0.0
 10
762.1346724253765
 20
557.184088005409
 10
762.2277224253764
 20
557.6693380054089
 42
-0.0000293789
 10
762.3163224253765
 20
558.1309880054091
 42
-0.0000310933
 10
762.4003224253763
 20
558.568188005409
 42
-0.0000361041
 10
762.4795724253763
 20
558.980638005409
 42
-0.0000457778
 10
762.5537224253765
 20
559.3658380054089
 42
-0.000056877
 10
762.6226724253765
 20
559.723588005409
 42
-0.0000704837
 10
762.6859724253763
 20
560.051588005409
 42
-0.000088411
 10
762.7437224253763
 20
560.350138005409
 42
-0.0001126873
 10
762.7954724253764
 20
560.6166880054088
 42
-0.0001499934
 10
762.8410224253764
 20
560.850688005409
 42
-0.000210586
 10
762.8797724253764
 20
561.048738005409
 42
-0.0003097994
 10
762.9119224253764
 20
561.2114880054089
 42
-0.0004774176
 10
762.9370224253764
 20
561.337088005409
 42
-0.0008231057
 10
762.9554224253764
 20
561.426788005409
 42
-0.0016444844
 10
762.9667724253763
 20
561.4790880054088
 42
-0.0049729182
 10
762.9713224253765
 20
561.4952880054088
 42
-0.0708837
 10
762.9687724253765
 20
561.4736880054088
 42
-0.036383589
 10
762.9594224253765
 20
561.4156380054089
 42
-0.004155367
 10
762.9428724253762
 20
561.319438005409
 42
-0.0014718977
 10
762.9195724253764
 20
561.186938005409
 42
-0.0007590549
 10
762.8894224253763
 20
561.017738005409
 42
-0.0004427774
 10
762.8533224253763
 20
560.8171380054089
 42
-0.0002889256
 10
762.8115224253766
 20
560.5859380054089
 42
-0.0002350494
 10
762.7624724253765
 20
560.3162380054091
 42
-0.0002116229
 10
762.7055224253763
 20
560.0041880054091
 42
-0.0001253766
 10
762.6485724253764
 20
559.692738005409
 42
-0.0000367722
 10
762.5941724253764
 20
559.395788005409
 42
-0.0001447359
 10
762.5131224253764
 20
558.955238005409
 42
-0.0001922088
 10
762.3742724253766
 20
558.202638005409
 42
-0.0000762546
 10
762.1839724253764
 20
557.1723380054091
 42
-0.0000365418
  0
LINE
  5
B02
330
1F
100
AcDbEntity
  8
KONTUR
100
AcDbLine
 10
762.1839724253764
 20
557.1723380054091
 30
0.0
 11
762.1346724253765
 21
557.184088005409
 31
0.0
  0
LINE
  5
B03
330
1F
100
AcDbEntity
  8
KONTUR
100
AcDbLine
 10
760.0232724253765
 20
545.682988005409
 30
0.0
 11
759.9456224253763
 21
545.701388005409
 31
0.0
  0
LINE
  5
B04
330
1F
100
AcDbEntity
  8
KONTUR
100
AcDbLine
 10
1574.109972425376
 20
848.8434880054087
 30
0.0
 11
1574.109972425376
 21
845.843488005409
 31
0.0
  0
LINE
  5
B05
330
1F
100
AcDbEntity
  8
KONTUR
100
AcDbLine
 10
1701.609972425376
 20
845.843488005409
 30
0.0
 11
1701.609972425376
 21
848.8434880054087
 31
0.0
  0
LINE
  5
B06
330
1F
100
AcDbEntity
  8
KONTUR
100
AcDbLine
 10
1698.609972425377
 20
1144.025138005409
 30
0.0
 11
1577.109972425376
 21
1144.025138005409
 31
0.0
  0
LINE
  5
B07
330
1F
100
AcDbEntity
  8
KONTUR
100
AcDbLine
 10
1577.109972425376
 20
1144.025138005409
 30
0.0
 11
1575.609972425376
 21
1144.025138005409
 31
0.0
  0
LINE
  5
B08
330
1F
100
AcDbEntity
  8
KONTUR
100
AcDbLine
 10
1575.609972425376
 20
1144.025138005409
 30
0.0
 11
1574.109972425376
 21
1144.025138005409
 31
0.0
  0
LINE
  5
B09
330
1F
100
AcDbEntity
  8
KONTUR
100
AcDbLine
 10
1574.109972425376
 20
1144.025138005409
 30
0.0
 11
1572.609972425377
 21
1144.025138005409
 31
0.0
  0
LINE
  5
B0A
330
1F
100
AcDbEntity
  8
KONTUR
100
AcDbLine
 10
1572.609972425377
 20
1144.025138005409
 30
0.0
 11
1568.350122425376
 21
1144.025138005409
 31
0.0
  0
LINE
  5
B0B
330
1F
100
AcDbEntity
  8
KONTUR
100
AcDbLine
 10
1568.350122425376
 20
1144.025138005409
 30
0.0
 11
1566.850122425376
 21
1144.025138005409
 31
0.0
  0
LINE
  5
B0C
330
1F
100
AcDbEntity
  8
KONTUR
100
AcDbLine
 10
1708.869822425376
 20
1144.025138005409
 30
0.0
 11
1707.369822425376
 21
1144.025138005409
 31
0.0
  0
LINE
  5
B0D
330
1F
100
AcDbEntity
  8
KONTUR
100
AcDbLine
 10
1707.369822425376
 20
1144.025138005409
 30
0.0
 11
1703.109972425376
 21
1144.025138005409
 31
0.0
  0
LINE
  5
B0E
330
1F
100
AcDbEntity
  8
KONTUR
100
AcDbLine
 10
1703.109972425376
 20
1144.025138005409
 30
0.0
 11
1701.609972425376
 21
1144.025138005409
 31
0.0
  0
LINE
  5
B0F
330
1F
100
AcDbEntity
  8
KONTUR
100
AcDbLine
 10
1701.609972425376
 20
1144.025138005409
 30
0.0
 11
1700.109972425377
 21
1144.025138005409
 31
0.0
  0
LINE
  5
B10
330
1F
100
AcDbEntity
  8
KONTUR
100
AcDbLine
 10
1700.109972425377
 20
1144.025138005409
 30
0.0
 11
1698.609972425377
 21
1144.025138005409
 31
0.0
  0
LINE
  5
B11
330
1F
100
AcDbEntity
  8
KONTUR
100
AcDbLine
 10
1577.109972425376
 20
1142.775138005409
 30
0.0
 11
1575.609972425376
 21
1142.775138005409
 31
0.0
  0
LINE
  5
B12
330
1F
100
AcDbEntity
  8
KONTUR
100
AcDbLine
 10
1575.609972425376
 20
1142.775138005409
 30
0.0
 11
1574.109972425376
 21
1142.775138005409
 31
0.0
  0
LINE
  5
B13
330
1F
100
AcDbEntity
  8
KONTUR
100
AcDbLine
 10
1574.109972425376
 20
1142.775138005409
 30
0.0
 11
1572.609972425377
 21
1142.775138005409
 31
0.0
  0
LINE
  5
B14
330
1F
100
AcDbEntity
  8
KONTUR
100
AcDbLine
 10
1572.609972425377
 20
1142.775138005409
 30
0.0
 11
1568.350122425376
 21
1142.775138005409
 31
0.0
  0
LINE
  5
B15
330
1F
100
AcDbEntity
  8
KONTUR
100
AcDbLine
 10
1568.350122425376
 20
1142.775138005409
 30
0.0
 11
1566.850122425376
 21
1142.775138005409
 31
0.0
  0
LINE
  5
B16
330
1F
100
AcDbEntity
  8
KONTUR
100
AcDbLine
 10
1708.869822425376
 20
1142.775138005409
 30
0.0
 11
1707.369822425376
 21
1142.775138005409
 31
0.0
  0
LINE
  5
B17
330
1F
100
AcDbEntity
  8
KONTUR
100
AcDbLine
 10
1707.369822425376
 20
1142.775138005409
 30
0.0
 11
1703.109972425376
 21
1142.775138005409
 31
0.0
  0
LINE
  5
B18
330
1F
100
AcDbEntity
  8
KONTUR
100
AcDbLine
 10
1703.109972425376
 20
1142.775138005409
 30
0.0
 11
1701.609972425376
 21
1142.775138005409
 31
0.0
  0
LINE
  5
B19
330
1F
100
AcDbEntity
  8
KONTUR
100
AcDbLine
 10
1701.609972425376
 20
1142.775138005409
 30
0.0
 11
1700.109972425377
 21
1142.775138005409
 31
0.0
  0
LINE
  5
B1A
330
1F
100
AcDbEntity
  8
KONTUR
100
AcDbLine
 10
1700.109972425377
 20
1142.775138005409
 30
0.0
 11
1698.609972425377
 21
1142.775138005409
 31
0.0
  0
LINE
  5
B1B
330
1F
100
AcDbEntity
  8
KONTUR
100
AcDbLine
 10
1700.359972425376
 20
845.843488005409
 30
0.0
 11
1700.359972425376
 21
848.8434880054087
 31
0.0
  0
LINE
  5
B1C
330
1F
100
AcDbEntity
  8
KONTUR
100
AcDbLine
 10
1700.359972425376
 20
855.265738005409
 30
0.0
 11
1700.359972425376
 21
848.8434880054087
 31
0.0
  0
LINE
  5
B1D
330
1F
100
AcDbEntity
  8
KONTUR
100
AcDbLine
 10
1700.359972425376
 20
855.265738005409
 30
0.0
 11
1700.359972425376
 21
856.7657380054088
 31
0.0
  0
LINE
  5
B1E
330
1F
100
AcDbEntity
  8
KONTUR
100
AcDbLine
 10
1700.359972425376
 20
856.7657380054088
 30
0.0
 11
1700.359972425376
 21
858.2657380054088
 31
0.0
  0
LINE
  5
B1F
330
1F
100
AcDbEntity
  8
KONTUR
100
AcDbLine
 10
1575.359972425376
 20
858.2657380054088
 30
0.0
 11
1575.359972425376
 21
856.7657380054088
 31
0.0
  0
LINE
  5
B20
330
1F
100
AcDbEntity
  8
KONTUR
100
AcDbLine
 10
1575.359972425376
 20
856.7657380054088
 30
0.0
 11
1575.359972425376
 21
855.265738005409
 31
0.0
  0
LINE
  5
B21
330
1F
100
AcDbEntity
  8
KONTUR
100
AcDbLine
 10
1575.359972425376
 20
855.265738005409
 30
0.0
 11
1575.359972425376
 21
848.8434880054087
 31
0.0
  0
LINE
  5
B22
330
1F
100
AcDbEntity
  8
KONTUR
100
AcDbLine
 10
1575.359972425376
 20
848.8434880054087
 30
0.0
 11
1575.359972425376
 21
845.843488005409
 31
0.0
  0
LINE
  5
B23
330
1F
100
AcDbEntity
  8
KONTUR
100
AcDbLine
 10
1698.609972425377
 20
858.2657380054088
 30
0.0
 11
1698.609972425377
 21
848.596538005409
 31
0.0
  0
LINE
  5
B24
330
1F
100
AcDbEntity
  8
KONTUR
100
AcDbLine
 10
1699.359972425376
 20
858.2657380054088
 30
0.0
 11
1698.609972425377
 21
858.2657380054088
 31
0.0
  0
LINE
  5
B25
330
1F
100
AcDbEntity
  8
KONTUR
100
AcDbLine
 10
1700.359972425376
 20
856.7657380054088
 30
0.0
 11
1701.609972425376
 21
856.7657380054088
 31
0.0
  0
LINE
  5
B26
330
1F
100
AcDbEntity
  8
KONTUR
100
AcDbLine
 10
1698.609972425377
 20
1105.024038005409
 30
0.0
 11
1699.359972425376
 21
1105.024038005409
 31
0.0
  0
LINE
  5
B27
330
1F
100
AcDbEntity
  8
KONTUR
100
AcDbLine
 10
1698.609972425377
 20
1115.024038005409
 30
0.0
 11
1698.609972425377
 21
1105.024038005409
 31
0.0
  0
LINE
  5
B28
330
1F
100
AcDbEntity
  8
KONTUR
100
AcDbLine
 10
1698.609972425377
 20
1141.775138005409
 30
0.0
 11
1698.609972425377
 21
1115.024038005409
 31
0.0
  0
LINE
  5
B29
330
1F
100
AcDbEntity
  8
KONTUR
100
AcDbLine
 10
1701.609972425376
 20
1142.775138005409
 30
0.0
 11
1701.609972425376
 21
1144.025138005409
 31
0.0
  0
LINE
  5
B2A
330
1F
100
AcDbEntity
  8
KONTUR
100
AcDbLine
 10
1574.109972425376
 20
1142.775138005409
 30
0.0
 11
1574.109972425376
 21
1144.025138005409
 31
0.0
  0
LINE
  5
B2B
330
1F
100
AcDbEntity
  8
KONTUR
100
AcDbLine
 10
1577.109972425376
 20
1115.024038005409
 30
0.0
 11
1577.109972425376
 21
1141.775138005409
 31
0.0
  0
LINE
  5
B2C
330
1F
100
AcDbEntity
  8
KONTUR
100
AcDbLine
 10
1577.109972425376
 20
1105.024038005409
 30
0.0
 11
1577.109972425376
 21
1115.024038005409
 31
0.0
  0
LINE
  5
B2D
330
1F
100
AcDbEntity
  8
KONTUR
100
AcDbLine
 10
1576.359972425377
 20
1105.024038005409
 30
0.0
 11
1577.109972425376
 21
1105.024038005409
 31
0.0
  0
LINE
  5
B2E
330
1F
100
AcDbEntity
  8
KONTUR
100
AcDbLine
 10
1575.359972425376
 20
856.7657380054088
 30
0.0
 11
1574.109972425376
 21
856.7657380054088
 31
0.0
  0
LINE
  5
B2F
330
1F
100
AcDbEntity
  8
KONTUR
100
AcDbLine
 10
1577.109972425376
 20
858.2657380054088
 30
0.0
 11
1576.359972425377
 21
858.2657380054088
 31
0.0
  0
LINE
  5
B30
330
1F
100
AcDbEntity
  8
KONTUR
100
AcDbLine
 10
1577.109972425376
 20
848.596538005409
 30
0.0
 11
1577.109972425376
 21
858.2657380054088
 31
0.0
  0
LINE
  5
B31
330
1F
100
AcDbEntity
  8
KONTUR
100
AcDbLine
 10
1610.860672425376
 20
912.113988005409
 30
0.0
 11
1610.860672425376
 21
910.068338005409
 31
0.0
  0
ARC
  5
B32
330
1F
100
AcDbEntity
  8
KONTUR
100
AcDbCircle
 10
1613.360672425376
 20
904.613988005409
 30
0.0
 40
6.0
100
AcDbArc
 50
114.6243200000003
 51
65.37568000000094
  0
LINE
  5
B33
330
1F
100
AcDbEntity
  8
KONTUR
100
AcDbLine
 10
1615.860672425376
 20
910.068338005409
 30
0.0
 11
1615.860672425376
 21
912.113988005409
 31
0.0
  0
ARC
  5
B34
330
1F
100
AcDbEntity
  8
KONTUR
100
AcDbCircle
 10
1613.360672425376
 20
912.113988005409
 30
0.0
 40
2.4999999
100
AcDbArc
 50
0.0000000000007994
 51
180.0000000000012
  0
LINE
  5
B35
330
1F
100
AcDbEntity
  8
KONTUR
100
AcDbLine
 10
1659.860672425376
 20
912.113988005409
 30
0.0
 11
1659.860672425376
 21
910.068338005409
 31
0.0
  0
ARC
  5
B36
330
1F
100
AcDbEntity
  8
KONTUR
100
AcDbCircle
 10
1662.360672425376
 20
904.613988005409
 30
0.0
 40
6.0
100
AcDbArc
 50
114.6243200000003
 51
65.37568000000094
  0
LINE
  5
B37
330
1F
100
AcDbEntity
  8
KONTUR
100
AcDbLine
 10
1664.860672425376
 20
910.068338005409
 30
0.0
 11
1664.860672425376
 21
912.113988005409
 31
0.0
  0
ARC
  5
B38
330
1F
100
AcDbEntity
  8
KONTUR
100
AcDbCircle
 10
1662.360672425376
 20
912.113988005409
 30
0.0
 40
2.5
100
AcDbArc
 50
0.0000000000007994
 51
180.0000000000012
  0
LINE
  5
B39
330
1F
100
AcDbEntity
  8
KONTUR
100
AcDbLine
 10
1659.860672425376
 20
1085.613988005409
 30
0.0
 11
1659.860672425376
 21
1083.568338005409
 31
0.0
  0
ARC
  5
B3A
330
1F
100
AcDbEntity
  8
KONTUR
100
AcDbCircle
 10
1662.360672425376
 20
1078.113988005409
 30
0.0
 40
6.0
100
AcDbArc
 50
114.6243200000003
 51
65.37568000000094
  0
LINE
  5
B3B
330
1F
100
AcDbEntity
  8
KONTUR
100
AcDbLine
 10
1664.860672425376
 20
1083.568338005409
 30
0.0
 11
1664.860672425376
 21
1085.613988005409
 31
0.0
  0
ARC
  5
B3C
330
1F
100
AcDbEntity
  8
KONTUR
100
AcDbCircle
 10
1662.360672425376
 20
1085.613988005409
 30
0.0
 40
2.5
100
AcDbArc
 50
0.000000051
 51
180.0000000000004
  0
LINE
  5
B3D
330
1F
100
AcDbEntity
  8
KONTUR
100
AcDbLine
 10
1610.860672425376
 20
1085.613988005409
 30
0.0
 11
1610.860672425376
 21
1083.568338005409
 31
0.0
  0
ARC
  5
B3E
330
1F
100
AcDbEntity
  8
KONTUR
100
AcDbCircle
 10
1613.360672425376
 20
1078.113988005409
 30
0.0
 40
6.0
100
AcDbArc
 50
114.6243200000003
 51
65.37568000000094
  0
LINE
  5
B3F
330
1F
100
AcDbEntity
  8
KONTUR
100
AcDbLine
 10
1615.860672425376
 20
1083.568338005409
 30
0.0
 11
1615.860672425376
 21
1085.613988005409
 31
0.0
  0
ARC
  5
B40
330
1F
100
AcDbEntity
  8
KONTUR
100
AcDbCircle
 10
1613.360672425376
 20
1085.613988005409
 30
0.0
 40
2.4999999
100
AcDbArc
 50
0.000000051
 51
180.0000000000004
  0
LINE
  5
B41
330
1F
100
AcDbEntity
  8
KONTUR
100
AcDbLine
 10
1574.109972425376
 20
858.2657380054088
 30
0.0
 11
1576.359972425377
 21
858.2657380054088
 31
0.0
  0
LINE
  5
B42
330
1F
100
AcDbEntity
  8
KONTUR
100
AcDbLine
 10
1576.359972425377
 20
1105.024038005409
 30
0.0
 11
1574.109972425376
 21
1105.024038005409
 31
0.0
  0
LWPOLYLINE
  5
B43
330
1F
100
AcDbEntity
  8
KONTUR
100
AcDbPolyline
 90
       11
 70
     0
 43
0.0
 10
1575.359972425376
 20
848.0932880054088
 10
1575.381222425376
 20
848.092488005409
 42
0.0008738571
 10
1575.402372425376
 20
848.0917380054091
 42
0.0008146219
 10
1575.423322425376
 20
848.0910380054088
 42
0.0008879131
 10
1575.444572425376
 20
848.0904380054089
 42
0.0010375434
 10
1575.466172425376
 20
848.0899380054091
 42
0.0007933438
 10
1575.486472425376
 20
848.0894880054091
 42
0.0002965304
 10
1575.504722425376
 20
848.089138005409
 42
0.0010871957
 10
1575.528022425376
 20
848.0887880054088
 42
0.0018452317
 10
1575.563572425376
 20
848.088538005409
 42
0.000913742
 10
1575.609922425376
 20
848.0882880054089
 42
0.000490955
  0
LINE
  5
B50
330
1F
100
AcDbEntity
  8
KONTUR
100
AcDbLine
 10
1575.609922425376
 20
848.0882880054089
 30
0.0
 11
1577.109972425376
 21
848.0882880054089
 31
0.0
  0
LINE
  5
B51
330
1F
100
AcDbEntity
  8
KONTUR
100
AcDbLine
 10
1698.609972425377
 20
848.0882880054089
 30
0.0
 11
1700.109972425377
 21
848.0882880054089
 31
0.0
  0
LWPOLYLINE
  5
B52
330
1F
100
AcDbEntity
  8
KONTUR
100
AcDbPolyline
 90
       11
 70
     0
 43
0.0
 10
1700.109972425377
 20
848.0882880054089
 10
1700.130322425376
 20
848.0883380054088
 42
0.0008474427
 10
1700.150722425376
 20
848.088438005409
 42
0.0007573331
 10
1700.171122425377
 20
848.0885880054091
 42
0.0008346211
 10
1700.191922425377
 20
848.0887880054088
 42
0.0010222906
 10
1700.213322425377
 20
848.089138005409
 42
0.0007716553
 10
1700.233472425376
 20
848.0894880054091
 42
0.0002425118
 10
1700.251772425376
 20
848.0898380054091
 42
0.001115097
 10
1700.275372425376
 20
848.0904380054089
 42
0.0019481364
 10
1700.311972425377
 20
848.0916380054091
 42
0.0009456374
 10
1700.359972425376
 20
848.0932880054088
 42
0.0004955001
  0
LINE
  5
B5F
330
1F
100
AcDbEntity
  8
KONTUR
100
AcDbLine
 10
1701.609972425376
 20
1105.024038005409
 30
0.0
 11
1699.359972425376
 21
1105.024038005409
 31
0.0
  0
LINE
  5
B60
330
1F
100
AcDbEntity
  8
KONTUR
100
AcDbLine
 10
1699.359972425376
 20
858.2657380054088
 30
0.0
 11
1701.609972425376
 21
858.2657380054088
 31
0.0
  0
LINE
  5
B61
330
1F
100
AcDbEntity
  8
KONTUR
100
AcDbLine
 10
1577.109972425376
 20
848.596538005409
 30
0.0
 11
1577.109972425376
 21
845.596538005409
 31
0.0
  0
LINE
  5
B62
330
1F
100
AcDbEntity
  8
KONTUR
100
AcDbLine
 10
1577.109972425376
 20
845.596538005409
 30
0.0
 11
1698.609972425377
 21
845.596538005409
 31
0.0
  0
LINE
  5
B63
330
1F
100
AcDbEntity
  8
KONTUR
100
AcDbLine
 10
1698.609972425377
 20
845.596538005409
 30
0.0
 11
1698.609972425377
 21
848.596538005409
 31
0.0
  0
LINE
  5
B64
330
1F
100
AcDbEntity
  8
KONTUR
100
AcDbLine
 10
1577.109972425376
 20
1144.025138005409
 30
0.0
 11
1577.109972425376
 21
1141.775138005409
 31
0.0
  0
LINE
  5
B65
330
1F
100
AcDbEntity
  8
KONTUR
100
AcDbLine
 10
1698.609972425377
 20
1141.775138005409
 30
0.0
 11
1698.609972425377
 21
1144.025138005409
 31
0.0
  0
LINE
  5
B66
330
1F
100
AcDbEntity
  8
KONTUR
100
AcDbLine
 10
1577.109972425376
 20
849.301788005409
 30
0.0
 11
1575.609922425376
 21
849.301788005409
 31
0.0
  0
LWPOLYLINE
  5
B67
330
1F
100
AcDbEntity
  8
KONTUR
100
AcDbPolyline
 90
       11
 70
     0
 43
0.0
 10
1575.609922425376
 20
849.301788005409
 10
1575.589572425376
 20
849.3018380054091
 42
-0.0008390584
 10
1575.569172425377
 20
849.301938005409
 42
-0.000749781
 10
1575.548822425376
 20
849.3020880054089
 42
-0.0008262327
 10
1575.528022425376
 20
849.302338005409
 42
-0.001011923
 10
1575.506622425376
 20
849.302688005409
 42
-0.0007637556
 10
1575.486472425376
 20
849.303038005409
 42
-0.0002400173
 10
1575.468172425376
 20
849.303388005409
 42
-0.001103578
 10
1575.444572425376
 20
849.3039880054089
 42
-0.0019276937
 10
1575.407972425377
 20
849.305188005409
 42
-0.0009355794
 10
1575.359972425376
 20
849.306838005409
 42
-0.000490198
  0
LINE
  5
B74
330
1F
100
AcDbEntity
  8
KONTUR
100
AcDbLine
 10
1698.609972425377
 20
849.301788005409
 30
0.0
 11
1700.109972425377
 21
849.301788005409
 31
0.0
  0
LWPOLYLINE
  5
B75
330
1F
100
AcDbEntity
  8
KONTUR
100
AcDbPolyline
 90
       11
 70
     0
 43
0.0
 10
1700.109972425377
 20
849.301788005409
 10
1700.130322425376
 20
849.3018380054091
 42
0.0008386759
 10
1700.150722425376
 20
849.301938005409
 42
0.0007494969
 10
1700.171122425377
 20
849.3020880054089
 42
0.0008259837
 10
1700.191922425377
 20
849.302338005409
 42
0.0010117092
 10
1700.213322425377
 20
849.302688005409
 42
0.0007636674
 10
1700.233472425376
 20
849.303038005409
 42
0.0002400012
 10
1700.251772425376
 20
849.303388005409
 42
0.0011035533
 10
1700.275372425376
 20
849.3039880054089
 42
0.0019279702
 10
1700.311972425377
 20
849.305188005409
 42
0.0009358507
 10
1700.359972425376
 20
849.306838005409
 42
0.0004903728
  0
LINE
  5
B82
330
1F
100
AcDbEntity
  8
KONTUR
100
AcDbLine
 10
1700.359972425376
 20
845.843488005409
 30
0.0
 11
1701.609972425376
 21
845.843488005409
 31
0.0
  0
LINE
  5
B83
330
1F
100
AcDbEntity
  8
KONTUR
100
AcDbLine
 10
1708.869822425376
 20
1142.775138005409
 30
0.0
 11
1708.869822425376
 21
1144.025138005409
 31
0.0
  0
LINE
  5
B84
330
1F
100
AcDbEntity
  8
KONTUR
100
AcDbLine
 10
1566.850122425376
 20
1144.025138005409
 30
0.0
 11
1566.850122425376
 21
1142.775138005409
 31
0.0
  0
LINE
  5
B85
330
1F
100
AcDbEntity
  8
KONTUR
100
AcDbLine
 10
1574.109972425376
 20
845.843488005409
 30
0.0
 11
1575.359972425376
 21
845.843488005409
 31
0.0
  0
LINE
  5
B86
330
1F
100
AcDbEntity
  8
KONTUR
100
AcDbLine
 10
1701.609972425376
 20
1141.775138005409
 30
0.0
 11
1702.859972425376
 21
1141.775138005409
 31
0.0
  0
LINE
  5
B87
330
1F
100
AcDbEntity
  8
KONTUR
100
AcDbLine
 10
1701.609972425376
 20
846.025138005409
 30
0.0
 11
1702.859972425376
 21
846.025138005409
 31
0.0
  0
LINE
  5
B88
330
1F
100
AcDbEntity
  8
KONTUR
100
AcDbLine
 10
1703.859972425377
 20
846.025138005409
 30
0.0
 11
1710.490722425377
 21
846.025138005409
 31
0.0
  0
LINE
  5
B89
330
1F
100
AcDbEntity
  8
KONTUR
100
AcDbLine
 10
1565.229222425377
 20
846.025138005409
 30
0.0
 11
1571.859972425376
 21
846.025138005409
 31
0.0
  0
LINE
  5
B8A
330
1F
100
AcDbEntity
  8
KONTUR
100
AcDbLine
 10
1574.109972425376
 20
846.025138005409
 30
0.0
 11
1572.859972425376
 21
846.025138005409
 31
0.0
  0
LINE
  5
B8B
330
1F
100
AcDbEntity
  8
KONTUR
100
AcDbLine
 10
1571.860022425376
 20
1141.775138005409
 30
0.0
 11
1565.268172425376
 21
1141.775138005409
 31
0.0
  0
LINE
  5
B8C
330
1F
100
AcDbEntity
  8
KONTUR
100
AcDbLine
 10
1574.109972425376
 20
1141.775138005409
 30
0.0
 11
1572.859972425376
 21
1141.775138005409
 31
0.0
  0
LINE
  5
B8D
330
1F
100
AcDbEntity
  8
KONTUR
100
AcDbLine
 10
1701.609972425376
 20
851.025138005409
 30
0.0
 11
1701.609972425376
 21
848.8434880054087
 31
0.0
  0
LINE
  5
B8E
330
1F
100
AcDbEntity
  8
KONTUR
100
AcDbLine
 10
1701.609972425376
 20
1141.775138005409
 30
0.0
 11
1701.609972425376
 21
1139.275138005409
 31
0.0
  0
LINE
  5
B8F
330
1F
100
AcDbEntity
  8
KONTUR
100
AcDbLine
 10
1701.609972425376
 20
1139.275138005409
 30
0.0
 11
1701.609972425376
 21
851.025138005409
 31
0.0
  0
LINE
  5
B90
330
1F
100
AcDbEntity
  8
KONTUR
100
AcDbLine
 10
1574.109972425376
 20
1139.275138005409
 30
0.0
 11
1574.109972425376
 21
1141.775138005409
 31
0.0
  0
LINE
  5
B91
330
1F
100
AcDbEntity
  8
KONTUR
100
AcDbLine
 10
1574.109972425376
 20
848.8434880054087
 30
0.0
 11
1574.109972425376
 21
851.025138005409
 31
0.0
  0
LINE
  5
B92
330
1F
100
AcDbEntity
  8
KONTUR
100
AcDbLine
 10
1574.109972425376
 20
851.025138005409
 30
0.0
 11
1574.109972425376
 21
1139.275138005409
 31
0.0
  0
LINE
  5
B93
330
1F
100
AcDbEntity
  8
KONTUR
100
AcDbLine
 10
1710.451722425376
 20
1141.775138005409
 30
0.0
 11
1703.859972425377
 21
1141.775138005409
 31
0.0
  0
LINE
  5
B94
330
1F
100
AcDbEntity
  8
KONTUR
100
AcDbLine
 10
1572.859972425376
 20
846.025138005409
 30
0.0
 11
1572.859972425376
 21
851.025138005409
 31
0.0
  0
LINE
  5
B95
330
1F
100
AcDbEntity
  8
KONTUR
100
AcDbLine
 10
1572.859972425376
 20
851.025138005409
 30
0.0
 11
1572.859972425376
 21
1139.275138005409
 31
0.0
  0
LINE
  5
B96
330
1F
100
AcDbEntity
  8
KONTUR
100
AcDbLine
 10
1572.859972425376
 20
1139.275138005409
 30
0.0
 11
1572.859972425376
 21
1141.775138005409
 31
0.0
  0
LINE
  5
B97
330
1F
100
AcDbEntity
  8
KONTUR
100
AcDbLine
 10
1702.859972425376
 20
1141.775138005409
 30
0.0
 11
1702.859972425376
 21
1139.275138005409
 31
0.0
  0
LINE
  5
B98
330
1F
100
AcDbEntity
  8
KONTUR
100
AcDbLine
 10
1702.859972425376
 20
1139.275138005409
 30
0.0
 11
1702.859972425376
 21
851.025138005409
 31
0.0
  0
LINE
  5
B99
330
1F
100
AcDbEntity
  8
KONTUR
100
AcDbLine
 10
1702.859972425376
 20
851.025138005409
 30
0.0
 11
1702.859972425376
 21
846.025138005409
 31
0.0
  0
LWPOLYLINE
  5
B9A
330
1F
100
AcDbEntity
  8
KONTUR
100
AcDbPolyline
 90
       11
 70
     0
 43
0.0
 10
1564.369422425376
 20
1144.524188005409
 10
1564.371522425376
 20
1144.706788005409
 42
-0.0064110789
 10
1564.378022425376
 20
1144.890388005409
 42
-0.0057809126
 10
1564.389022425376
 20
1145.075838005409
 42
-0.0062735252
 10
1564.405172425377
 20
1145.257988005409
 42
-0.0087336039
 10
1564.427022425376
 20
1145.429938005409
 42
-0.0086715247
 10
1564.451022425376
 20
1145.585188005409
 42
-0.0051098679
 10
1564.475772425376
 20
1145.717788005409
 42
-0.014878149
 10
1564.511472425376
 20
1145.832938005409
 42
-0.044439417
 10
1564.569222425376
 20
1145.935238005409
 42
-0.053925948
 10
1564.646672425376
 20
1146.024488005409
 42
-0.048475178
  0
LWPOLYLINE
  5
BA7
330
1F
100
AcDbEntity
  8
KONTUR
100
AcDbPolyline
 90
       15
 70
     0
 43
0.0
 10
1564.646672425376
 20
1146.024488005409
 10
1564.569872425377
 20
1146.024538005409
 42
-0.0000002381
 10
1564.493072425376
 20
1146.024588005409
 42
-0.0000002167
 10
1564.416322425377
 20
1146.024588005409
 42
-0.0000002377
 10
1564.339472425376
 20
1146.024638005409
 42
-0.0000003053
 10
1564.262522425376
 20
1146.024688005409
 42
-0.0000003322
 10
1564.185872425377
 20
1146.024738005409
 42
-0.000000332
 10
1564.109722425376
 20
1146.024788005409
 42
-0.0000004211
 10
1564.032322425377
 20
1146.024838005409
 42
-0.0000005851
 10
1563.953072425377
 20
1146.024888005409
 42
-0.0000004468
 10
1563.878722425377
 20
1146.024888005409
 42
-0.0000000874
 10
1563.811472425376
 20
1146.024938005409
 42
-0.0000007564
 10
1563.725122425376
 20
1146.024988005409
 42
-0.000001473
 10
1563.592172425376
 20
1146.025088005409
 42
-0.000000731
 10
1563.418022425376
 20
1146.025188005409
 42
-0.0000003782
  0
LWPOLYLINE
  5
BB8
330
1F
100
AcDbEntity
  8
KONTUR
100
AcDbPolyline
 90
       11
 70
     0
 43
0.0
 10
1563.140822425376
 20
1144.525188005409
 10
1563.142872425376
 20
1144.707688005409
 42
-0.0064135871
 10
1563.149372425376
 20
1144.891288005409
 42
-0.0057835937
 10
1563.160372425376
 20
1145.076688005409
 42
-0.0062768259
 10
1563.176522425376
 20
1145.258738005409
 42
-0.0087380389
 10
1563.198372425376
 20
1145.430638005409
 42
-0.0086753348
 10
1563.222372425377
 20
1145.585838005409
 42
-0.0051110319
 10
1563.247072425376
 20
1145.718388005409
 42
-0.014883643
 10
1563.282772425376
 20
1145.833538005409
 42
-0.044445984
 10
1563.340522425376
 20
1145.935888005409
 42
-0.053900558
 10
1563.418022425376
 20
1146.025188005409
 42
-0.048427678
  0
LWPOLYLINE
  5
BC5
330
1F
100
AcDbEntity
  8
KONTUR
100
AcDbPolyline
 90
       11
 70
     0
 43
0.0
 10
1712.579122425376
 20
1144.525188005409
 10
1712.577072425376
 20
1144.707688005409
 42
0.0064132942
 10
1712.570572425377
 20
1144.891288005409
 42
0.0057833278
 10
1712.559572425376
 20
1145.076688005409
 42
0.0062765361
 10
1712.543422425376
 20
1145.258738005409
 42
0.0087376347
 10
1712.521622425377
 20
1145.430638005409
 42
0.0086749343
 10
1712.497622425376
 20
1145.585838005409
 42
0.0051107972
 10
1712.472872425376
 20
1145.718388005409
 42
0.014882967
 10
1712.437222425376
 20
1145.833538005409
 42
0.044444107
 10
1712.379472425376
 20
1145.935888005409
 42
0.053898903
 10
1712.301922425376
 20
1146.025188005409
 42
0.048426965
  0
LWPOLYLINE
  5
BD2
330
1F
100
AcDbEntity
  8
KONTUR
100
AcDbPolyline
 90
       15
 70
     0
 43
0.0
 10
1711.073272425376
 20
1146.024488005409
 10
1711.150072425376
 20
1146.024538005409
 42
0.0000002378
 10
1711.226872425376
 20
1146.024588005409
 42
0.0000002162
 10
1711.303622425376
 20
1146.024588005409
 42
0.0000002373
 10
1711.380472425376
 20
1146.024638005409
 42
0.000000305
 10
1711.457422425376
 20
1146.024688005409
 42
0.0000003319
 10
1711.534072425377
 20
1146.024738005409
 42
0.0000003317
 10
1711.610272425376
 20
1146.024788005409
 42
0.0000004208
 10
1711.687672425377
 20
1146.024838005409
 42
0.0000005846
 10
1711.766872425376
 20
1146.024888005409
 42
0.0000004462
 10
1711.841222425377
 20
1146.024888005409
 42
0.0000000873
 10
1711.908472425376
 20
1146.024938005409
 42
0.0000007558
 10
1711.994822425376
 20
1146.024988005409
 42
0.0000014718
 10
1712.127822425376
 20
1146.025088005409
 42
0.0000007302
 10
1712.301922425376
 20
1146.025188005409
 42
0.000000378
  0
LWPOLYLINE
  5
BE3
330
1F
100
AcDbEntity
  8
KONTUR
100
AcDbPolyline
 90
       11
 70
     0
 43
0.0
 10
1711.350522425377
 20
1144.524188005409
 10
1711.348472425376
 20
1144.706788005409
 42
0.0064107859
 10
1711.341972425377
 20
1144.890388005409
 42
0.0057806466
 10
1711.330922425376
 20
1145.075838005409
 42
0.0062732354
 10
1711.314772425376
 20
1145.257988005409
 42
0.0087331996
 10
1711.292922425376
 20
1145.429938005409
 42
0.0086711241
 10
1711.268922425377
 20
1145.585188005409
 42
0.0051096331
 10
1711.244172425377
 20
1145.717788005409
 42
0.014877472
 10
1711.208522425376
 20
1145.832938005409
 42
0.044437538
 10
1711.150772425376
 20
1145.935238005409
 42
0.053924291
 10
1711.073272425376
 20
1146.024488005409
 42
0.048474465
  0
LINE
  5
BF0
330
1F
100
AcDbEntity
  8
KONTUR
100
AcDbLine
 10
1563.327022425376
 20
1141.775988005409
 30
0.0
 11
1563.327472425376
 21
1142.775088005409
 31
0.0
  0
LINE
  5
BF1
330
1F
100
AcDbEntity
  8
KONTUR
100
AcDbLine
 10
1564.556122425377
 20
1142.774588005409
 30
0.0
 11
1564.556122425377
 21
1142.774588005409
 31
0.0
  0
LINE
  5
BF2
330
1F
100
AcDbEntity
  8
KONTUR
100
AcDbLine
 10
1564.555722425376
 20
1141.775438005409
 30
0.0
 11
1564.556122425377
 21
1142.774588005409
 31
0.0
  0
LINE
  5
BF3
330
1F
100
AcDbEntity
  8
KONTUR
100
AcDbLine
 10
1564.369072425377
 20
1142.774838005409
 30
0.0
 11
1564.369422425376
 21
1144.524188005409
 31
0.0
  0
LINE
  5
BF4
330
1F
100
AcDbEntity
  8
KONTUR
100
AcDbLine
 10
1564.369072425377
 20
1142.774838005409
 30
0.0
 11
1563.140322425377
 21
1142.775138005409
 31
0.0
  0
LINE
  5
BF5
330
1F
100
AcDbEntity
  8
KONTUR
100
AcDbLine
 10
1563.140322425377
 20
1142.775138005409
 30
0.0
 11
1563.140822425376
 21
1144.525188005409
 31
0.0
  0
LINE
  5
BF6
330
1F
100
AcDbEntity
  8
KONTUR
100
AcDbLine
 10
1711.204222425376
 20
1141.775788005409
 30
0.0
 11
1711.188922425376
 21
1141.775488005409
 31
0.0
  0
LWPOLYLINE
  5
BF7
330
1F
100
AcDbEntity
  8
KONTUR
100
AcDbPolyline
 90
       31
 70
     0
 43
0.0
 10
1604.760072425376
 20
1145.890438005409
 10
1603.722222425376
 20
1145.891888005409
 42
-0.0000236663
 10
1602.678872425377
 20
1145.893338005409
 42
-0.0000067106
 10
1601.626422425376
 20
1145.894888005409
 42
-0.0000229078
 10
1600.588522425377
 20
1145.896638005409
 42
-0.0000790886
 10
1599.592272425376
 20
1145.898688005409
 42
-0.000112391
 10
1598.643972425376
 20
1145.901088005409
 42
-0.0001233601
 10
1597.746122425376
 20
1145.903838005409
 42
-0.000107637
 10
1596.880572425376
 20
1145.906688005409
 42
-0.0000439047
 10
1596.031922425376
 20
1145.909638005409
 42
-0.0000215617
 10
1595.201172425377
 20
1145.912588005409
 42
-0.0000429662
 10
1594.393822425377
 20
1145.915638005409
 42
-0.0000533496
 10
1593.609122425376
 20
1145.918738005409
 42
-0.0000525291
 10
1592.847522425377
 20
1145.921938005409
 42
-0.000055175
 10
1592.108572425376
 20
1145.925238005409
 42
-0.0000616082
 10
1591.394022425377
 20
1145.928588005409
 42
-0.0000679478
 10
1590.703372425377
 20
1145.931988005409
 42
-0.000074279
 10
1590.038072425376
 20
1145.935538005409
 42
-0.0000813046
 10
1589.397722425376
 20
1145.939138005409
 42
-0.0000890747
 10
1588.783822425376
 20
1145.942838005409
 42
-0.0001000382
 10
1588.195522425376
 20
1145.946588005409
 42
-0.0001147149
 10
1587.634122425377
 20
1145.950488005409
 42
-0.0001238711
 10
1587.100822425376
 20
1145.954438005409
 42
-0.0001260957
 10
1586.597672425376
 20
1145.958488005409
 42
-0.0001627552
 10
1586.117672425376
 20
1145.962688005409
 42
-0.0002383263
 10
1585.660172425376
 20
1145.967138005409
 42
-0.0001974508
 10
1585.250072425376
 20
1145.971338005409
 42
-0.000017605
 10
1584.897772425377
 20
1145.975038005409
 42
-0.0003587377
 10
1584.502072425376
 20
1145.980388005409
 42
-0.0009748612
 10
1583.959122425376
 20
1145.989538005409
 42
-0.000612855
 10
1583.288572425377
 20
1146.002088005409
 42
-0.0003593888
  0
LWPOLYLINE
  5
C18
330
1F
100
AcDbEntity
  8
KONTUR
100
AcDbPolyline
 90
       39
 70
     0
 43
0.0
 10
1692.431172425376
 20
1146.001688005409
 10
1692.253072425376
 20
1145.997688005409
 42
-0.0008467908
 10
1692.043022425376
 20
1145.993588005409
 42
-0.0006165431
 10
1691.799072425376
 20
1145.989338005409
 42
-0.0004559092
 10
1691.527222425376
 20
1145.985038005409
 42
-0.0003714182
 10
1691.232572425376
 20
1145.980838005409
 42
-0.000327898
 10
1690.921772425377
 20
1145.976738005409
 42
-0.000315637
 10
1690.599022425376
 20
1145.972938005409
 42
-0.0002958918
 10
1690.264322425377
 20
1145.969338005409
 42
-0.0002566034
 10
1689.915072425376
 20
1145.965938005409
 42
-0.000215045
 10
1689.549172425377
 20
1145.962638005409
 42
-0.00016791
 10
1689.163622425376
 20
1145.959388005409
 42
-0.0001395453
 10
1688.759572425377
 20
1145.956188005409
 42
-0.0001285119
 10
1688.337322425376
 20
1145.953088005409
 42
-0.0001158256
 10
1687.897772425376
 20
1145.950038005409
 42
-0.0001014273
 10
1687.440322425376
 20
1145.947038005409
 42
-0.0000898431
 10
1686.965972425377
 20
1145.944088005409
 42
-0.0000803683
 10
1686.474372425376
 20
1145.941188005409
 42
-0.0000719396
 10
1685.966522425376
 20
1145.938288005409
 42
-0.0000640661
 10
1685.441922425376
 20
1145.935488005409
 42
-0.0000572597
 10
1684.901622425376
 20
1145.932688005409
 42
-0.0000509714
 10
1684.345122425376
 20
1145.929888005409
 42
-0.0000455589
 10
1683.773522425377
 20
1145.927138005409
 42
-0.0000405198
 10
1683.186472425376
 20
1145.924438005409
 42
-0.0000358559
 10
1682.584572425376
 20
1145.921688005409
 42
-0.0000309843
 10
1681.967472425376
 20
1145.918988005409
 42
-0.0000280213
 10
1681.337122425376
 20
1145.916238005409
 42
-0.00002669
 10
1680.694322425376
 20
1145.913588005409
 42
-0.0000311266
 10
1680.038872425376
 20
1145.910938005409
 42
-0.0000420346
 10
1679.370472425376
 20
1145.908338005409
 42
-0.0000451571
 10
1678.695322425376
 20
1145.905888005409
 42
-0.000043591
 10
1678.015122425377
 20
1145.903488005409
 42
-0.0000605187
 10
1677.309072425377
 20
1145.901238005409
 42
-0.0000918597
 10
1676.569722425377
 20
1145.899138005409
 42
-0.0000607929
 10
1675.882772425376
 20
1145.897288005409
 42
0.0000173177
 10
1675.277372425377
 20
1145.895638005409
 42
-0.0001227343
 10
1674.419022425377
 20
1145.894138005409
 42
-0.0002527074
 10
1672.955972425376
 20
1145.892538005409
 42
-0.0001037973
 10
1670.958472425376
 20
1145.890888005409
 42
-0.0000482043
  0
LWPOLYLINE
  5
C41
330
1F
100
AcDbEntity
  8
KONTUR
100
AcDbPolyline
 90
       23
 70
     0
 43
0.0
 10
1604.760072425376
 20
1145.890438005409
 10
1606.108722425377
 20
1145.890438005409
 42
0.0000088469
 10
1607.460272425376
 20
1145.890438005409
 42
0.0000179933
 10
1608.814822425376
 20
1145.890588005409
 42
0.0000089698
 10
1610.172222425377
 20
1145.890688005409
 42
-0.0000203259
 10
1611.532672425376
 20
1145.890638005409
 42
-0.0000284774
 10
1612.896522425376
 20
1145.890438005409
 42
-0.0000177632
 10
1614.264472425376
 20
1145.890188005409
 42
-0.0000117606
 10
1615.636322425376
 20
1145.889838005409
 42
-0.0000089471
 10
1617.011822425377
 20
1145.889488005409
 42
-0.0000066907
 10
1618.390072425376
 20
1145.889088005409
 42
-0.000004429
 10
1619.770772425376
 20
1145.888688005409
 42
-0.000002236
 10
1621.155472425377
 20
1145.888288005409
 42
0.000000452
 10
1622.544622425376
 20
1145.887838005409
 42
0.000002189
 10
1623.930122425377
 20
1145.887438005409
 42
0.0000034808
 10
1625.309072425376
 20
1145.887088005409
 42
0.0000070176
 10
1626.711672425376
 20
1145.886788005409
 42
0.0000130108
 10
1628.148272425376
 20
1145.886538005409
 42
0.0000099869
 10
1629.497822425376
 20
1145.886288005409
 42
-0.0000003292
 10
1630.718522425376
 20
1145.886138005409
 42
0.0000212842
 10
1632.286122425377
 20
1145.886188005409
 42
0.0000463893
 10
1634.699672425377
 20
1145.886588005409
 42
0.0000233056
 10
1637.859972425376
 20
1145.887288005409
 42
0.0000118301
  0
LWPOLYLINE
  5
C5A
330
1F
100
AcDbEntity
  8
KONTUR
100
AcDbPolyline
 90
       23
 70
     0
 43
0.0
 10
1670.958472425376
 20
1145.890888005409
 10
1669.610472425376
 20
1145.890638005409
 42
-0.000020554
 10
1668.259372425376
 20
1145.890538005409
 42
-0.0000315362
 10
1666.905072425377
 20
1145.890588005409
 42
-0.0000206012
 10
1665.547722425376
 20
1145.890688005409
 42
0.0000147623
 10
1664.187322425376
 20
1145.890638005409
 42
0.000026378
 10
1662.823422425377
 20
1145.890438005409
 42
0.000017431
 10
1661.455472425376
 20
1145.890188005409
 42
0.0000120757
 10
1660.083622425376
 20
1145.889838005409
 42
0.0000089652
 10
1658.708122425377
 20
1145.889488005409
 42
0.0000066112
 10
1657.329872425376
 20
1145.889088005409
 42
0.0000044244
 10
1655.949172425376
 20
1145.888688005409
 42
0.000002256
 10
1654.564472425377
 20
1145.888288005409
 42
-0.0000004508
 10
1653.175322425377
 20
1145.887838005409
 42
-0.000002194
 10
1651.789822425376
 20
1145.887438005409
 42
-0.000003481
 10
1650.410872425376
 20
1145.887088005409
 42
-0.0000070162
 10
1649.008272425376
 20
1145.886788005409
 42
-0.0000130107
 10
1647.571722425376
 20
1145.886538005409
 42
-0.0000099871
 10
1646.222172425376
 20
1145.886288005409
 42
0.0000003292
 10
1645.001422425376
 20
1145.886138005409
 42
-0.0000212842
 10
1643.433822425377
 20
1145.886188005409
 42
-0.0000463894
 10
1641.020272425376
 20
1145.886588005409
 42
-0.0000233056
 10
1637.859972425376
 20
1145.887288005409
 42
-0.0000118302
  0
LWPOLYLINE
  5
C73
330
1F
100
AcDbEntity
  8
KONTUR
100
AcDbPolyline
 90
       15
 70
     0
 43
0.0
 10
1692.431172425376
 20
1146.001688005409
 10
1693.641872425376
 20
1146.003288005409
 42
-0.0000058583
 10
1694.846422425376
 20
1146.004888005409
 42
-0.0000061808
 10
1696.044372425376
 20
1146.006438005409
 42
-0.0000059877
 10
1697.237572425376
 20
1146.007938005409
 42
-0.0000051668
 10
1698.426222425376
 20
1146.009438005409
 42
-0.0000045009
 10
1699.604422425376
 20
1146.010888005409
 42
-0.000003889
 10
1700.769772425376
 20
1146.012288005409
 42
-0.0000034462
 10
1701.947022425376
 20
1146.013688005409
 42
-0.000002795
 10
1703.144572425376
 20
1146.015138005409
 42
-0.0000021052
 10
1704.265272425376
 20
1146.016438005409
 42
-0.000001815
 10
1705.275522425376
 20
1146.017638005409
 42
-0.000000924
 10
1706.559122425376
 20
1146.019138005409
 42
0.000001254
 10
1708.518272425376
 20
1146.021438005409
 42
0.0000008041
 10
1711.073272425376
 20
1146.024488005409
 42
0.000000275
  0
LINE
  5
C84
330
1F
100
AcDbEntity
  8
KONTUR
100
AcDbLine
 10
1711.188922425376
 20
1141.775488005409
 30
0.0
 11
1711.188922425376
 21
1141.775488005409
 31
0.0
  0
LINE
  5
C85
330
1F
100
AcDbEntity
  8
KONTUR
100
AcDbLine
 10
1711.163822425376
 20
1142.774588005409
 30
0.0
 11
1711.164222425376
 21
1141.775438005409
 31
0.0
  0
LINE
  5
C86
330
1F
100
AcDbEntity
  8
KONTUR
100
AcDbLine
 10
1711.350922425376
 20
1142.774838005409
 30
0.0
 11
1711.163822425376
 21
1142.774588005409
 31
0.0
  0
LINE
  5
C87
330
1F
100
AcDbEntity
  8
KONTUR
100
AcDbLine
 10
1711.350522425377
 20
1144.524188005409
 30
0.0
 11
1711.350922425376
 21
1142.774838005409
 31
0.0
  0
LWPOLYLINE
  5
C88
330
1F
100
AcDbEntity
  8
KONTUR
100
AcDbPolyline
 90
       15
 70
     0
 43
0.0
 10
1583.288572425377
 20
1146.002088005409
 10
1582.077922425376
 20
1146.003638005409
 42
0.000004345
 10
1580.873372425376
 20
1146.005138005409
 42
0.0000046072
 10
1579.675472425376
 20
1146.006638005409
 42
0.0000044416
 10
1578.482322425376
 20
1146.008088005409
 42
0.0000037577
 10
1577.293622425376
 20
1146.009538005409
 42
0.0000032223
 10
1576.115472425377
 20
1146.010938005409
 42
0.0000027489
 10
1574.950172425376
 20
1146.012338005409
 42
0.0000023386
 10
1573.772872425377
 20
1146.013738005409
 42
0.0000017092
 10
1572.575372425376
 20
1146.015138005409
 42
0.0000012788
 10
1571.454672425376
 20
1146.016488005409
 42
0.0000013296
 10
1570.444422425377
 20
1146.017638005409
 42
0.0000001266
 10
1569.160822425376
 20
1146.019138005409
 42
-0.0000021262
 10
1567.201672425377
 20
1146.021438005409
 42
-0.0000012057
 10
1564.646672425376
 20
1146.024488005409
 42
-0.0000005181
  0
LINE
  5
C99
330
1F
100
AcDbEntity
  8
KONTUR
100
AcDbLine
 10
1563.418022425376
 20
1146.025188005409
 30
0.0
 11
1582.064272425376
 21
1146.025188005409
 31
0.0
  0
LINE
  5
C9A
330
1F
100
AcDbEntity
  8
KONTUR
100
AcDbLine
 10
1583.288572425377
 20
1146.002088005409
 30
0.0
 11
1582.970472425377
 21
1146.008038005409
 31
0.0
  0
LWPOLYLINE
  5
C9B
330
1F
100
AcDbEntity
  8
KONTUR
100
AcDbPolyline
 90
       23
 70
     0
 43
0.0
 10
1582.064272425376
 20
1146.025188005409
 10
1582.385072425377
 20
1146.025138005409
 42
0.0000005943
 10
1582.767622425376
 20
1146.025138005409
 42
0.0000004278
 10
1583.214572425376
 20
1146.025138005409
 42
0.0000003049
 10
1583.722272425376
 20
1146.025138005409
 42
0.0000002138
 10
1584.291822425376
 20
1146.025138005409
 42
0.0000001553
 10
1584.919672425376
 20
1146.025138005409
 42
0.0000001161
 10
1585.607272425376
 20
1146.025138005409
 42
0.0000000869
 10
1586.351272425376
 20
1146.025138005409
 42
0.0000000632
 10
1587.152922425376
 20
1146.025138005409
 42
0.0000000458
 10
1588.008422425376
 20
1146.025138005409
 42
0.0000000311
 10
1588.918822425376
 20
1146.025138005409
 42
0.0000000197
 10
1589.882622425376
 20
1146.025138005409
 10
1590.900672425376
 20
1146.025138005409
 10
1591.958172425376
 20
1146.025138005409
 10
1593.048922425377
 20
1146.025138005409
 42
0.0000000167
 10
1594.199222425376
 20
1146.025138005409
 42
0.0000000391
 10
1595.419272425376
 20
1146.025138005409
 42
0.0000000284
 10
1596.587422425376
 20
1146.025138005409
 42
-0.0000000058
 10
1597.662222425377
 20
1146.025138005409
 42
0.000000066
 10
1599.106372425376
 20
1146.025138005409
 42
0.0000001406
 10
1601.408472425376
 20
1146.025138005409
 42
0.0000000662
 10
1604.470272425376
 20
1146.025188005409
 42
0.000000032
  0
LINE
  5
CB4
330
1F
100
AcDbEntity
  8
KONTUR
100
AcDbLine
 10
1637.859972425376
 20
1146.025188005409
 30
0.0
 11
1604.470272425376
 21
1146.025188005409
 31
0.0
  0
LINE
  5
CB5
330
1F
100
AcDbEntity
  8
KONTUR
100
AcDbLine
 10
1637.859972425376
 20
1146.025188005409
 30
0.0
 11
1671.249672425377
 21
1146.025188005409
 31
0.0
  0
LWPOLYLINE
  5
CB6
330
1F
100
AcDbEntity
  8
KONTUR
100
AcDbPolyline
 90
       23
 70
     0
 43
0.0
 10
1671.249672425377
 20
1146.025188005409
 10
1672.627172425376
 20
1146.025138005409
 42
0.0000000516
 10
1673.980522425376
 20
1146.025138005409
 42
0.0000000562
 10
1675.309122425376
 20
1146.025138005409
 42
0.0000000556
 10
1676.611772425376
 20
1146.025138005409
 42
0.0000000486
 10
1677.884722425376
 20
1146.025138005409
 42
0.000000044
 10
1679.127222425377
 20
1146.025138005409
 42
0.0000000399
 10
1680.336072425376
 20
1146.025138005409
 42
0.000000036
 10
1681.510622425376
 20
1146.025138005409
 42
0.0000000308
 10
1682.647422425376
 20
1146.025138005409
 42
0.0000000262
 10
1683.745872425377
 20
1146.025138005409
 10
1684.802372425376
 20
1146.025138005409
 10
1685.816772425376
 20
1146.025138005409
 10
1686.784422425376
 20
1146.025138005409
 10
1687.700522425376
 20
1146.025138005409
 10
1688.557622425376
 20
1146.025138005409
 42
0.0000000233
 10
1689.364722425376
 20
1146.025138005409
 42
0.0000000632
 10
1690.121922425376
 20
1146.025138005409
 42
0.0000000589
 10
1690.800072425377
 20
1146.025138005409
 10
1691.385322425376
 20
1146.025138005409
 42
0.0000001491
 10
1691.998872425376
 20
1146.025138005409
 42
0.0000004807
 10
1692.763122425376
 20
1146.025138005409
 42
0.0000003689
 10
1693.655672425376
 20
1146.025188005409
 42
0.0000002393
  0
LINE
  5
CCF
330
1F
100
AcDbEntity
  8
KONTUR
100
AcDbLine
 10
1692.723422425376
 20
1146.007588005409
 30
0.0
 11
1692.431172425376
 21
1146.001688005409
 31
0.0
  0
LINE
  5
CD0
330
1F
100
AcDbEntity
  8
KONTUR
100
AcDbLine
 10
1712.301922425376
 20
1146.025188005409
 30
0.0
 11
1693.655672425376
 21
1146.025188005409
 31
0.0
  0
LINE
  5
CD1
330
1F
100
AcDbEntity
  8
KONTUR
100
AcDbLine
 10
1711.350922425376
 20
1142.774838005409
 30
0.0
 11
1712.579622425376
 21
1142.775138005409
 31
0.0
  0
LINE
  5
CD2
330
1F
100
AcDbEntity
  8
KONTUR
100
AcDbLine
 10
1712.579622425376
 20
1142.775138005409
 30
0.0
 11
1712.579122425376
 21
1144.525188005409
 31
0.0
  0
LINE
  5
CD3
330
1F
100
AcDbEntity
  8
KONTUR
100
AcDbLine
 10
1712.392922425376
 20
1141.775988005409
 30
0.0
 11
1712.392472425376
 21
1142.775088005409
 31
0.0
  0
LINE
  5
CD4
330
1F
100
AcDbEntity
  8
KONTUR
100
AcDbLine
 10
1563.229222425376
 20
846.029538005409
 30
0.0
 11
1565.229222425377
 21
846.025138005409
 31
0.0
  0
LWPOLYLINE
  5
CD5
330
1F
100
AcDbEntity
  8
KONTUR
100
AcDbPolyline
 90
       15
 70
     0
 43
0.0
 10
1563.268222425377
 20
1141.776038005409
 10
1563.260972425376
 20
1123.290088005409
 42
0.0000098616
 10
1563.254422425376
 20
1104.807688005409
 42
0.0000099457
 10
1563.248622425376
 20
1086.332888005409
 42
0.0000098678
 10
1563.243572425376
 20
1067.839388005409
 42
0.000009554
 10
1563.239172425376
 20
1049.317838005409
 42
0.0000089906
 10
1563.235422425377
 20
1030.871088005409
 42
0.000008214
 10
1563.232322425376
 20
1012.534638005409
 42
0.0000086147
 10
1563.229822425376
 20
993.9027880054089
 42
0.0000095834
 10
1563.228022425376
 20
974.8356380054088
 42
0.000007254
 10
1563.226622425376
 20
956.934438005409
 42
0.000003035
 10
1563.225672425376
 20
940.7506880054091
 42
0.0000091891
 10
1563.225572425376
 20
919.966138005409
 42
0.0000144004
 10
1563.226772425377
 20
887.953188005409
 42
0.000006954
 10
1563.229222425376
 20
846.0294880054089
 42
0.0000037607
  0
LINE
  5
CE6
330
1F
100
AcDbEntity
  8
KONTUR
100
AcDbLine
 10
1565.268172425376
 20
1141.775138005409
 30
0.0
 11
1563.268222425377
 21
1141.776038005409
 31
0.0
  0
LINE
  5
CE7
330
1F
100
AcDbEntity
  8
KONTUR
100
AcDbLine
 10
1710.490722425377
 20
846.025138005409
 30
0.0
 11
1712.490722425376
 21
846.029538005409
 31
0.0
  0
LWPOLYLINE
  5
CE8
330
1F
100
AcDbEntity
  8
KONTUR
100
AcDbPolyline
 90
       15
 70
     0
 43
0.0
 10
1712.490672425376
 20
846.0294880054089
 10
1712.492322425376
 20
864.5154380054091
 42
0.0000063039
 10
1712.493522425376
 20
882.997838005409
 42
0.0000061147
 10
1712.494222425376
 20
901.472638005409
 42
0.0000063019
 10
1712.494472425376
 20
919.966138005409
 42
0.0000068776
 10
1712.494172425377
 20
938.4876880054089
 42
0.0000069351
 10
1712.493372425376
 20
956.934438005409
 42
0.0000066303
 10
1712.492072425376
 20
975.270888005409
 42
0.0000077056
 10
1712.490122425377
 20
993.9027880054089
 42
0.0000097744
 10
1712.487372425376
 20
1012.969888005409
 42
0.0000074379
 10
1712.484472425376
 20
1030.871088005409
 42
0.0000020861
 10
1712.481572425376
 20
1047.054838005409
 42
0.000011387
 10
1712.476322425376
 20
1067.839388005409
 42
0.000020808
 10
1712.466172425376
 20
1099.852338005409
 42
0.0000102494
 10
1712.451722425376
 20
1141.776038005409
 42
0.000005367
  0
LINE
  5
CF9
330
1F
100
AcDbEntity
  8
KONTUR
100
AcDbLine
 10
1712.451722425376
 20
1141.776038005409
 30
0.0
 11
1710.451722425376
 21
1141.775138005409
 31
0.0
  0
LINE
  5
CFA
330
1F
100
AcDbEntity
  8
KONTUR
100
AcDbLine
 10
1572.859972425376
 20
846.025138005409
 30
0.0
 11
1571.859972425376
 21
846.025138005409
 31
0.0
  0
LINE
  5
CFB
330
1F
100
AcDbEntity
  8
KONTUR
100
AcDbLine
 10
1571.860022425376
 20
1141.775138005409
 30
0.0
 11
1572.859972425376
 21
1141.775138005409
 31
0.0
  0
LINE
  5
CFC
330
1F
100
AcDbEntity
  8
KONTUR
100
AcDbLine
 10
1702.859972425376
 20
1141.775138005409
 30
0.0
 11
1703.859972425377
 21
1141.775138005409
 31
0.0
  0
LINE
  5
CFD
330
1F
100
AcDbEntity
  8
KONTUR
100
AcDbLine
 10
1703.859972425377
 20
846.025138005409
 30
0.0
 11
1702.859972425376
 21
846.025138005409
 31
0.0
  0
LINE
  5
CFE
330
1F
100
AcDbEntity
  8
KONTUR
100
AcDbLine
 10
1564.556122425377
 20
1142.774588005409
 30
0.0
 11
1564.369072425377
 21
1142.774838005409
 31
0.0
  0
LWPOLYLINE
  5
F5B
330
1F
100
AcDbEntity
  8
TIT07
100
AcDbPolyline
 90
        4
 70
     1
 43
0.0
 10
24.99999999999979
 20
25.00000000000014
 10
1790.097784188713
 20
25.0
 10
1790.097784188713
 20
1294.988833422131
 10
24.99999999999977
 20
1294.988833422131
  0
LWPOLYLINE
  5
F5C
330
1F
100
AcDbEntity
  8
TIT02
100
AcDbPolyline
 90
        4
 70
     1
 43
0.0
 10
0.0
 20
0.0
 10
1815.097784188713
 20
-0.0000000000000711
 10
1815.097784188713
 20
1319.988833422131
 10
-0.0000000000000178
 20
1319.988833422131
  0
TEXT
  5
F5D
330
1F
100
AcDbEntity
  8
TIT02
100
AcDbText
 10
8.081143170156883
 20
129.4722374932144
 30
0.0
 40
20.0
  1
A
 41
0.8
100
AcDbText
  0
TEXT
  5
F5E
330
1F
100
AcDbEntity
  8
TIT02
100
AcDbText
 10
8.081143170156883
 20
337.0787606832699
 30
0.0
 40
20.0
  1
B
 41
0.8
100
AcDbText
  0
TEXT
  5
F5F
330
1F
100
AcDbEntity
  8
TIT02
100
AcDbText
 10
8.081143170156919
 20
553.8379182100789
 30
0.0
 40
20.0
  1
C
 41
0.8
100
AcDbText
  0
TEXT
  5
F60
330
1F
100
AcDbEntity
  8
TIT02
100
AcDbText
 10
8.081143170156954
 20
763.4230307292283
 30
0.0
 40
20.0
  1
D
 41
0.8
100
AcDbText
  0
TEXT
  5
F61
330
1F
100
AcDbEntity
  8
TIT02
100
AcDbText
 10
8.08114317015699
 20
973.0081432483775
 30
0.0
 40
20.0
  1
E
 41
0.8
100
AcDbText
  0
TEXT
  5
F62
330
1F
100
AcDbEntity
  8
TIT02
100
AcDbText
 10
8.081143170157025
 20
1193.354323279016
 30
0.0
 40
20.0
  1
F
 41
0.8
100
AcDbText
  0
TEXT
  5
F63
330
1F
100
AcDbEntity
  8
TIT02
100
AcDbText
 10
1685.368777903722
 20
1298.239974422834
 30
0.0
 40
15.0
  1
1
 41
0.8
100
AcDbText
  0
TEXT
  5
F64
330
1F
100
AcDbEntity
  8
TIT02
100
AcDbText
 10
1457.567413405802
 20
1298.239974422834
 30
0.0
 40
15.0
  1
2
 41
0.8
100
AcDbText
  0
TEXT
  5
F65
330
1F
100
AcDbEntity
  8
TIT02
100
AcDbText
 10
1231.137036222461
 20
1298.239974422834
 30
0.0
 40
15.0
  1
3
 41
0.8
100
AcDbText
  0
TEXT
  5
F66
330
1F
100
AcDbEntity
  8
TIT02
100
AcDbText
 10
1017.92814126306
 20
1298.239974422834
 30
0.0
 40
15.0
  1
4
 41
0.8
100
AcDbText
  0
TEXT
  5
F67
330
1F
100
AcDbEntity
  8
TIT02
100
AcDbText
 10
793.7783405606428
 20
1298.239974422834
 30
0.0
 40
15.0
  1
5
 41
0.8
100
AcDbText
  0
TEXT
  5
F68
330
1F
100
AcDbEntity
  8
TIT02
100
AcDbText
 10
573.9998227845819
 20
1298.239974422834
 30
0.0
 40
15.0
  1
6
 41
0.8
100
AcDbText
  0
TEXT
  5
F69
330
1F
100
AcDbEntity
  8
TIT02
100
AcDbText
 10
349.2213050085209
 20
1298.239974422834
 30
0.0
 40
15.0
  1
7
 41
0.8
100
AcDbText
  0
TEXT
  5
F6A
330
1F
100
AcDbEntity
  8
TIT02
100
AcDbText
 10
127.7481577884447
 20
1298.239974422834
 30
0.0
 40
15.0
  1
8
 41
0.8
100
AcDbText
  0
LINE
  5
F6B
330
1F
100
AcDbEntity
  8
TIT02
100
AcDbLine
 10
245.6249999999998
 20
1294.988833422131
 30
0.0
 11
245.6249999999998
 21
1319.988833422131
 31
0.0
  0
LINE
  5
F6C
330
1F
100
AcDbEntity
  8
TIT02
100
AcDbLine
 10
466.2499999999998
 20
1294.988833422131
 30
0.0
 11
466.2499999999998
 21
1319.988833422131
 31
0.0
  0
LINE
  5
F6D
330
1F
100
AcDbEntity
  8
TIT02
100
AcDbLine
 10
686.8749999999998
 20
1294.988833422131
 30
0.0
 11
686.8749999999998
 21
1319.988833422131
 31
0.0
  0
LINE
  5
F6E
330
1F
100
AcDbEntity
  8
TIT02
100
AcDbLine
 10
907.4999999999998
 20
1294.988833422131
 30
0.0
 11
907.4999999999998
 21
1319.988833422131
 31
0.0
  0
LINE
  5
F6F
330
1F
100
AcDbEntity
  8
TIT02
100
AcDbLine
 10
1128.125
 20
1294.988833422131
 30
0.0
 11
1128.125
 21
1319.988833422131
 31
0.0
  0
LINE
  5
F70
330
1F
100
AcDbEntity
  8
TIT02
100
AcDbLine
 10
1348.75
 20
1294.988833422131
 30
0.0
 11
1348.75
 21
1319.988833422131
 31
0.0
  0
LINE
  5
F71
330
1F
100
AcDbEntity
  8
TIT02
100
AcDbLine
 10
1569.375
 20
1294.988833422131
 30
0.0
 11
1569.375
 21
1319.988833422131
 31
0.0
  0
LINE
  5
F72
330
1F
100
AcDbEntity
  8
TIT02
100
AcDbLine
 10
24.99999999999973
 20
1091.488833422131
 30
0.0
 11
-0.000000000000057
 21
1091.488833422131
 31
0.0
  0
LINE
  5
F73
330
1F
100
AcDbEntity
  8
TIT02
100
AcDbLine
 10
24.99999999999969
 20
877.9888334221314
 30
0.0
 11
-0.0000000000000962
 21
877.9888334221314
 31
0.0
  0
LINE
  5
F74
330
1F
100
AcDbEntity
  8
TIT02
100
AcDbLine
 10
24.99999999999965
 20
664.4888334221315
 30
0.0
 11
-0.0000000000001355
 21
664.4888334221315
 31
0.0
  0
LINE
  5
F75
330
1F
100
AcDbEntity
  8
TIT02
100
AcDbLine
 10
24.99999999999961
 20
450.9888334221315
 30
0.0
 11
-0.0000000000001747
 21
450.9888334221315
 31
0.0
  0
LINE
  5
F76
330
1F
100
AcDbEntity
  8
TIT02
100
AcDbLine
 10
24.99999999999957
 20
237.4888334221315
 30
0.0
 11
-0.0000000000002139
 21
237.4888334221315
 31
0.0
  0
LINE
  5
F77
330
1F
100
AcDbEntity
  8
TIT02
100
AcDbLine
 10
1569.375
 20
0.0
 30
0.0
 11
1569.375
 21
25.0
 31
0.0
  0
LINE
  5
F78
330
1F
100
AcDbEntity
  8
TIT02
100
AcDbLine
 10
1348.75
 20
0.0
 30
0.0
 11
1348.75
 21
25.0
 31
0.0
  0
LINE
  5
F79
330
1F
100
AcDbEntity
  8
TIT02
100
AcDbLine
 10
1128.125
 20
0.0
 30
0.0
 11
1128.125
 21
25.0
 31
0.0
  0
LINE
  5
F7A
330
1F
100
AcDbEntity
  8
TIT02
100
AcDbLine
 10
907.4999999999995
 20
0.0
 30
0.0
 11
907.4999999999995
 21
25.0
 31
0.0
  0
LINE
  5
F7B
330
1F
100
AcDbEntity
  8
TIT02
100
AcDbLine
 10
686.8749999999995
 20
0.0
 30
0.0
 11
686.8749999999995
 21
25.0
 31
0.0
  0
LINE
  5
F7C
330
1F
100
AcDbEntity
  8
TIT02
100
AcDbLine
 10
466.2499999999997
 20
0.0
 30
0.0
 11
466.2499999999997
 21
25.0
 31
0.0
  0
LINE
  5
F7D
330
1F
100
AcDbEntity
  8
TIT02
100
AcDbLine
 10
245.6249999999997
 20
0.0
 30
0.0
 11
245.6249999999997
 21
25.0
 31
0.0
  0
TEXT
  5
F7E
330
1F
100
AcDbEntity
  8
TIT02
100
AcDbText
 10
127.7481577884446
 20
3.251141000702376
 30
0.0
 40
15.0
  1
8
 41
0.8
100
AcDbText
  0
TEXT
  5
F7F
330
1F
100
AcDbEntity
  8
TIT02
100
AcDbText
 10
349.2213050085207
 20
3.251141000702376
 30
0.0
 40
15.0
  1
7
 41
0.8
100
AcDbText
  0
TEXT
  5
F80
330
1F
100
AcDbEntity
  8
TIT02
100
AcDbText
 10
573.9998227845819
 20
3.251141000702376
 30
0.0
 40
15.0
  1
6
 41
0.8
100
AcDbText
  0
TEXT
  5
F81
330
1F
100
AcDbEntity
  8
TIT02
100
AcDbText
 10
793.7783405606427
 20
3.251141000702376
 30
0.0
 40
15.0
  1
5
 41
0.8
100
AcDbText
  0
TEXT
  5
F82
330
1F
100
AcDbEntity
  8
TIT02
100
AcDbText
 10
1017.92814126306
 20
3.251141000702376
 30
0.0
 40
15.0
  1
4
 41
0.8
100
AcDbText
  0
TEXT
  5
F83
330
1F
100
AcDbEntity
  8
TIT02
100
AcDbText
 10
1231.137036222461
 20
3.251141000702376
 30
0.0
 40
15.0
  1
3
 41
0.8
100
AcDbText
  0
TEXT
  5
F84
330
1F
100
AcDbEntity
  8
TIT02
100
AcDbText
 10
1457.567413405802
 20
3.251141000702376
 30
0.0
 40
15.0
  1
2
 41
0.8
100
AcDbText
  0
TEXT
  5
F85
330
1F
100
AcDbEntity
  8
TIT02
100
AcDbText
 10
1685.368777903722
 20
3.251141000702376
 30
0.0
 40
15.0
  1
1
 41
0.8
100
AcDbText
  0
LINE
  5
F86
330
1F
100
AcDbEntity
  8
TIT02
100
AcDbLine
 10
1815.097784188712
 20
237.4888334221315
 30
0.0
 11
1790.097784188713
 21
237.4888334221315
 31
0.0
  0
LINE
  5
F87
330
1F
100
AcDbEntity
  8
TIT02
100
AcDbLine
 10
1815.097784188713
 20
450.9888334221316
 30
0.0
 11
1790.097784188713
 21
450.9888334221316
 31
0.0
  0
LINE
  5
F88
330
1F
100
AcDbEntity
  8
TIT02
100
AcDbLine
 10
1815.097784188713
 20
664.4888334221315
 30
0.0
 11
1790.097784188713
 21
664.4888334221315
 31
0.0
  0
LINE
  5
F89
330
1F
100
AcDbEntity
  8
TIT02
100
AcDbLine
 10
1815.097784188713
 20
877.9888334221314
 30
0.0
 11
1790.097784188713
 21
877.9888334221314
 31
0.0
  0
LINE
  5
F8A
330
1F
100
AcDbEntity
  8
TIT02
100
AcDbLine
 10
1815.097784188713
 20
1091.488833422131
 30
0.0
 11
1790.097784188713
 21
1091.488833422131
 31
0.0
  0
TEXT
  5
F8B
330
1F
100
AcDbEntity
  8
TIT02
100
AcDbText
 10
1798.17892735887
 20
1193.354323279016
 30
0.0
 40
20.0
  1
F
 41
0.8
100
AcDbText
  0
TEXT
  5
F8C
330
1F
100
AcDbEntity
  8
TIT02
100
AcDbText
 10
1798.17892735887
 20
973.0081432483775
 30
0.0
 40
20.0
  1
E
 41
0.8
100
AcDbText
  0
TEXT
  5
F8D
330
1F
100
AcDbEntity
  8
TIT02
100
AcDbText
 10
1798.17892735887
 20
763.4230307292283
 30
0.0
 40
20.0
  1
D
 41
0.8
100
AcDbText
  0
TEXT
  5
F8E
330
1F
100
AcDbEntity
  8
TIT02
100
AcDbText
 10
1798.17892735887
 20
553.8379182100789
 30
0.0
 40
20.0
  1
C
 41
0.8
100
AcDbText
  0
TEXT
  5
F8F
330
1F
100
AcDbEntity
  8
TIT02
100
AcDbText
 10
1798.17892735887
 20
337.0787606832699
 30
0.0
 40
20.0
  1
B
 41
0.8
100
AcDbText
  0
TEXT
  5
F90
330
1F
100
AcDbEntity
  8
TIT02
100
AcDbText
 10
1798.17892735887
 20
129.4722374932144
 30
0.0
 40
20.0
  1
A
 41
0.8
100
AcDbText
  0
LINE
  5
F91
330
1F
100
AcDbEntity
  8
TIT02
100
AcDbLine
 10
964.0107362270205
 20
-0.0000000000000336
 30
0.0
 11
976.5107362270205
 21
25.00000000000007
 31
0.0
  0
LINE
  5
F92
330
1F
100
AcDbEntity
  8
TIT02
100
AcDbLine
 10
976.5107362270205
 20
25.00000000000007
 30
0.0
 11
989.0107362270205
 21
-0.0000000000000413
 31
0.0
  0
LINE
  5
F93
330
1F
100
AcDbEntity
  8
TIT02
100
AcDbLine
 10
441.2499999999997
 20
-0.0000000000002132
 30
0.0
 11
453.7499999999997
 21
24.99999999999989
 31
0.0
  0
LINE
  5
F94
330
1F
100
AcDbEntity
  8
TIT02
100
AcDbLine
 10
428.7499999999997
 20
24.99999999999989
 30
0.0
 11
441.2499999999997
 21
-0.0000000000002132
 31
0.0
  0
LINE
  5
F95
330
1F
100
AcDbEntity
  8
TIT02
100
AcDbLine
 10
976.5107362270205
 20
1319.988833422131
 30
0.0
 11
989.0107362270205
 21
1294.988833422131
 31
0.0
  0
LINE
  5
F96
330
1F
100
AcDbEntity
  8
TIT02
100
AcDbLine
 10
964.0107362270205
 20
1294.988833422131
 30
0.0
 11
976.5107362270205
 21
1319.988833422131
 31
0.0
  0
LINE
  5
F97
330
1F
100
AcDbEntity
  8
TIT02
100
AcDbLine
 10
428.7499999999997
 20
1319.988833422131
 30
0.0
 11
441.2499999999997
 21
1294.988833422131
 31
0.0
  0
LINE
  5
F98
330
1F
100
AcDbEntity
  8
TIT02
100
AcDbLine
 10
441.2499999999997
 20
1294.988833422131
 30
0.0
 11
453.7499999999997
 21
1319.988833422131
 31
0.0
  0
INSERT
  5
F99
330
1F
100
AcDbEntity
  8
TIT02
100
AcDbBlockReference
 66
     1
  2
NYTITTEL
 10
1790.097784188713
 20
25.0
 30
0.0
 41
5.0
 42
5.0
 43
5.0
  0
ATTRIB
  5
F9A
330
F99
100
AcDbEntity
  8
TITTEXT
 62
     1
100
AcDbText
 10
1443.866624482382
 20
32.45895303572659
 30
0.0
 40
23.5
  1
30588
 41
2.387896159176945
  7
ROMANC
 72
     5
 11
1710.415533250508
 21
32.45895303572659
 31
0.0
100
AcDbAttribute
  2
TEGN.NR
 70
     0
280
     0
  0
ATTRIB
  5
F9B
330
F99
100
AcDbEntity
  8
TITTEXT
 62
     1
100
AcDbText
 10
1081.434297492182
 20
229.126669269382
 30
0.0
 40
20.0
  1
06.11.00
 41
0.8893857483087294
 72
     5
 11
1199.900479166905
 21
229.126669269382
 31
0.0
100
AcDbAttribute
  2
DATO
 70
     0
280
     0
  0
ATTRIB
  5
F9C
330
F99
100
AcDbEntity
  8
TITTEXT
 62
     1
100
AcDbText
 10
888.807784503777
 20
126.1296574766467
 30
0.0
 40
20.0
  1
Millinox
100
AcDbAttribute
  2
LINJE1
 70
     0
280
     0
  0
ATTRIB
  5
F9D
330
F99
100
AcDbEntity
  8
TITTEXT
 62
     1
100
AcDbText
 10
887.2490189554259
 20
82.3728830063736
 30
0.0
 40
20.0
  1
MXT1 Toalettarkholder
100
AcDbAttribute
  2
LINJE2
 70
     0
280
     0
  0
ATTRIB
  5
F9E
330
F99
100
AcDbEntity
  8
TITTEXT
 62
     1
100
AcDbText
 10
887.2490189554259
 20
39.10868339130914
 30
0.0
 40
20.0
  1
Salgstegning
  7
ROMANC
100
AcDbAttribute
  2
LINJE3
 70
     0
280
     0
  0
ATTRIB
  5
F9F
330
F99
100
AcDbEntity
  8
TITTEXT
 62
     1
100
AcDbText
 10
881.8496278403518
 20
228.9773338646859
 30
0.0
 40
20.0
  1
NS-ISO 2768-1 Grov
 41
0.5442882080361438
 72
     5
 11
1065.710184514961
 21
228.9773338646859
 31
0.0
100
AcDbAttribute
  2
TOLERANSE
 70
     0
280
     0
  0
ATTRIB
  5
FA0
330
F99
100
AcDbEntity
  8
TITTEXT
 62
     1
100
AcDbText
 10
1336.332951836766
 20
224.6051272279933
 30
0.0
 40
20.0
  1
1 : 5
 41
1.023058557152822
 72
     5
 11
1425.952881443353
 21
224.6051272279933
 31
0.0
100
AcDbAttribute
  2
MÅLESTOKK
 70
     0
280
     0
  0
ATTRIB
  5
FA1
330
F99
100
AcDbEntity
  8
TITTEXT
100
AcDbText
 10
881.4695355316338
 20
184.5082358128042
 30
0.0
 40
10.0
  1
MXT1 Toalettarkholder
 41
0.5084011028408956
 72
     5
 11
966.0166389340748
 21
184.5082358128042
 31
0.0
100
AcDbAttribute
  2
FILE
 70
     0
280
     0
  0
ATTRIB
  5
FA2
330
F99
100
AcDbEntity
  8
TITTEXT
 62
     1
100
AcDbText
 10
1082.691641629443
 20
179.2782064977796
 30
0.0
 40
20.0
  1

 72
     5
 11
1211.203238801153
 21
179.2782064977796
 31
0.0
100
AcDbAttribute
  2
HENVISNING
 70
     0
280
     0
  0
ATTRIB
  5
FA3
330
F99
100
AcDbEntity
  8
TITTEXT
 62
     1
100
AcDbText
 10
1751.82809350061
 20
32.28078013464797
 30
0.0
 40
25.0
  1

 41
0.8
100
AcDbAttribute
  2
REV
 70
     0
280
     0
  0
SEQEND
  5
130B
330
F99
100
AcDbEntity
  8
TIT02
  0
DIMENSION
  5
FA7
330
1F
100
AcDbEntity
  8
DIM
100
AcDbDimension
  2
*D1
 10
303.6728271699794
 20
1146.025138005409
 30
0.0
 11
284.9228271699793
 21
996.025138005409
 31
0.0
 70
    32
  1
285
 71
     5
 42
-1.0
 73
     0
 74
     0
 75
     0
  3
Dimensjoner
100
AcDbAlignedDimension
 13
257.3015924253764
 23
846.025138005409
 33
0.0
 14
249.3274374253764
 24
1146.025138005409
 34
0.0
 50
90.0
100
AcDbRotatedDimension
  0
DIMENSION
  5
FD7
330
1F
100
AcDbEntity
  8
DIM
100
AcDbDimension
  2
*D2
 10
1662.360672425376
 20
813.8362787668443
 30
0.0
 11
1637.860672425376
 21
832.5862787668443
 31
0.0
 70
    32
 71
     5
 42
-1.0
 73
     0
 74
     0
 75
     0
  3
Dimensjoner
100
AcDbAlignedDimension
 13
1613.360672425376
 23
912.113988005409
 33
0.0
 14
1662.360672425376
 24
912.113988005409
 34
0.0
100
AcDbRotatedDimension
  0
DIMENSION
  5
FE4
330
1F
100
AcDbEntity
  8
DIM
100
AcDbDimension
  2
*D3
 10
1520.631105622531
 20
912.113988005409
 30
0.0
 11
1501.881105622531
 21
878.8552630054093
 31
0.0
 70
    32
 71
     5
 42
-1.0
 73
     0
 74
     0
 75
     0
  3
Dimensjoner
100
AcDbAlignedDimension
 13
1577.109972425376
 23
845.596538005409
 33
0.0
 14
1613.360672425376
 24
912.113988005409
 34
0.0
 50
90.0
100
AcDbRotatedDimension
  0
DIMENSION
  5
FF1
330
1F
100
AcDbEntity
  8
DIM
100
AcDbDimension
  2
*D4
 10
1484.281266785194
 20
1085.613988005409
 30
0.0
 11
1465.531266785194
 21
965.6052630054093
 31
0.0
 70
    32
 71
     5
 42
-1.0
 73
     0
 74
     0
 75
     0
  3
Dimensjoner
100
AcDbAlignedDimension
 13
1577.109972425376
 23
845.596538005409
 33
0.0
 14
1613.360672425376
 24
1085.613988005409
 34
0.0
 50
90.0
100
AcDbRotatedDimension
  0
DIMENSION
  5
10CF
330
1F
100
AcDbEntity
  8
DIM
100
AcDbDimension
  2
*D5
 10
765.5970224253765
 20
1179.959116570086
 30
0.0
 11
690.8778724253765
 21
1198.709116570086
 31
0.0
 70
    32
 71
     5
 42
-1.0
 73
     0
 74
     0
 75
     0
  3
Dimensjoner
100
AcDbAlignedDimension
 13
616.1587224253765
 23
1144.525188005409
 33
0.0
 14
765.5970224253765
 24
1144.525188005409
 34
0.0
100
AcDbRotatedDimension
  0
LWPOLYLINE
  5
1199
330
1F
100
AcDbEntity
  8
KONTUR
100
AcDbPolyline
 90
       15
 70
     0
 43
0.0
 10
249.3274374253764
 20
1146.025138005409
 10
243.3855474253764
 20
1146.025138005409
 42
0.0000000296
 10
237.4459974253764
 20
1146.025138005409
 42
0.0000000292
 10
231.5101024253763
 20
1146.025138005409
 42
0.0000000296
 10
225.5694124253764
 20
1146.025138005409
 42
0.0000000301
 10
219.6209624253764
 20
1146.025138005409
 42
0.0000000293
 10
213.6976674253764
 20
1146.025138005409
 42
0.0000000273
 10
207.8109624253764
 20
1146.025138005409
 42
0.0000000302
 10
201.8307574253764
 20
1146.025138005409
 42
0.000000036
 10
195.7122924253764
 20
1146.025138005409
 42
0.0000000273
 10
189.9686624253765
 20
1146.025138005409
 10
184.7766724253764
 20
1146.025138005409
 42
0.0000000387
 10
178.1113774253764
 20
1146.025138005409
 42
0.0000000666
 10
167.8488024253763
 20
1146.025138005409
 42
0.0000000326
 10
157.1711974253758
 20
1146.025138005409
  0
LWPOLYLINE
  5
11AE
330
1F
100
AcDbEntity
  8
KONTUR
100
AcDbPolyline
 90
       15
 70
     0
 43
0.0
 10
145.9383419333002
 20
861.3540996066499
 10
145.3186024253764
 20
888.875538005409
 42
-0.0021404108
 10
145.0758074253764
 20
906.075188005409
 42
-0.002124772
 10
144.9832474253765
 20
923.268288005409
 42
-0.0021419181
 10
145.0373374253764
 20
940.477038005409
 42
-0.0021853634
 10
145.2449024253764
 20
957.7074380054089
 42
-0.0021237313
 10
145.5901324253764
 20
974.863038005409
 42
-0.0019832914
 10
146.0755574253765
 20
991.909038005409
 42
-0.0021869367
 10
146.7332324253764
 20
1009.217988005409
 42
-0.0026037731
 10
147.5821324253764
 20
1026.916288005409
 42
-0.0019788864
 10
148.4651474253764
 20
1043.526688005409
 42
-0.0006857137
 10
149.3360174253764
 20
1058.538338005409
 42
-0.0027842922
 10
150.7838774253764
 20
1077.774088005409
 42
-0.0047871339
 10
153.4389574253764
 20
1107.340888005409
 42
-0.0023440984
 10
157.1711974253765
 20
1146.025138005409
 42
-0.0012436178
  0
LWPOLYLINE
  5
11BF
330
1F
100
AcDbEntity
  8
KONTUR
100
AcDbPolyline
 90
       15
 70
     0
 43
0.0
 10
145.9383419333002
 20
861.3540996066498
 10
149.9091274253765
 20
860.1926880054089
 42
0.004479077
 10
156.4253724253764
 20
858.410588005409
 42
0.0044519702
 10
162.9687174253764
 20
856.7491380054089
 42
0.0044887582
 10
169.5458524253764
 20
855.2035880054091
 42
0.0045780873
 10
176.1592174253765
 20
853.779188005409
 42
0.004448273
 10
182.7685724253764
 20
852.4721380054091
 42
0.0041529897
 10
189.3603574253764
 20
851.2879380054092
 42
0.004582915
 10
196.0806724253764
 20
850.2185380054088
 42
0.0054650793
 10
202.9798824253764
 20
849.2678880054091
 42
0.0041477994
 10
209.4692824253764
 20
848.4451880054089
 42
0.0014177326
 10
215.3459724253764
 20
847.7603880054089
 42
0.0058544219
 10
222.9215374253764
 20
847.1544880054089
 42
0.010090823
 10
234.6223474253765
 20
846.5757880054089
 42
0.0049276462
 10
249.9655224253764
 20
846.030538005409
 42
0.0026056733
  0
DIMENSION
  5
11D0
330
1F
100
AcDbEntity
  8
KONTUR
  6
Continuous
100
AcDbDimension
  2
*D7
 10
262.3015924253764
 20
779.4231251785423
 30
0.0
 11
204.1199671793383
 21
798.1731251785423
 31
0.0
 70
    32
  1
117
 71
     5
 42
-1.0
 73
     0
 74
     0
 75
     0
  3
Dimensjoner
100
AcDbAlignedDimension
 13
145.9383419333002
 23
861.3540996066498
 33
0.0
 14
262.3015924253764
 24
851.0251380054091
 34
0.0
100
AcDbRotatedDimension
  0
LWPOLYLINE
  5
11FB
330
1F
100
AcDbEntity
  8
KONTUR
100
AcDbPolyline
 90
       15
 70
     0
 43
0.0
 10
1235.817402917452
 20
861.3540996066499
 10
1236.437142425376
 20
888.875538005409
 42
0.0021404108
 10
1236.679937425376
 20
906.075188005409
 42
0.002124772
 10
1236.772497425376
 20
923.268288005409
 42
0.0021419181
 10
1236.718407425376
 20
940.477038005409
 42
0.0021853634
 10
1236.510842425376
 20
957.7074380054089
 42
0.0021237313
 10
1236.165612425376
 20
974.863038005409
 42
0.0019832914
 10
1235.680187425376
 20
991.909038005409
 42
0.0021869367
 10
1235.022512425376
 20
1009.217988005409
 42
0.0026037731
 10
1234.173612425376
 20
1026.916288005409
 42
0.0019788864
 10
1233.290597425376
 20
1043.526688005409
 42
0.0006857137
 10
1232.419727425376
 20
1058.538338005409
 42
0.0027842922
 10
1230.971867425376
 20
1077.774088005409
 42
0.0047871339
 10
1228.316787425376
 20
1107.340888005409
 42
0.0023440984
 10
1224.584547425376
 20
1146.025138005409
 42
0.0012436178
  0
LINE
  5
120C
330
1F
100
AcDbEntity
  8
KONTUR
100
AcDbLine
 10
1129.454152425376
 20
1141.775138005409
 30
0.0
 11
1129.454152425376
 21
846.025138005409
 31
0.0
  0
LINE
  5
120D
330
1F
100
AcDbEntity
  8
KONTUR
100
AcDbLine
 10
1119.454152425376
 20
851.025138005409
 30
0.0
 11
1119.454152425376
 21
1139.275138005409
 31
0.0
  0
LWPOLYLINE
  5
120E
330
1F
100
AcDbEntity
  8
KONTUR
100
AcDbPolyline
 90
       15
 70
     0
 43
0.0
 10
1235.817402917453
 20
861.3540996066498
 10
1231.846617425376
 20
860.1926880054089
 42
-0.004479077
 10
1225.330372425376
 20
858.410588005409
 42
-0.0044519702
 10
1218.787027425376
 20
856.7491380054089
 42
-0.0044887582
 10
1212.209892425376
 20
855.2035880054091
 42
-0.0045780873
 10
1205.596527425376
 20
853.779188005409
 42
-0.004448273
 10
1198.987172425376
 20
852.4721380054091
 42
-0.0041529897
 10
1192.395387425376
 20
851.2879380054092
 42
-0.004582915
 10
1185.675072425376
 20
850.2185380054088
 42
-0.0054650793
 10
1178.775862425376
 20
849.2678880054091
 42
-0.0041477994
 10
1172.286462425376
 20
848.4451880054089
 42
-0.0014177326
 10
1166.409772425376
 20
847.7603880054089
 42
-0.0058544219
 10
1158.834207425376
 20
847.1544880054089
 42
-0.010090823
 10
1147.133397425376
 20
846.5757880054089
 42
-0.0049276462
 10
1131.790222425376
 20
846.030538005409
 42
-0.0026056733
  0
LWPOLYLINE
  5
121F
330
1F
100
AcDbEntity
  8
KONTUR
100
AcDbPolyline
 90
       15
 70
     0
 43
0.0
 10
1185.141387425376
 20
850.133738005409
 10
1184.304092425376
 20
850.0104880054091
 42
-0.0005339814
 10
1183.466692425376
 20
849.889038005409
 42
-0.0005287238
 10
1182.629352425377
 20
849.769438005409
 42
-0.000534038
 10
1181.790897425376
 20
849.651488005409
 42
-0.0005483362
 10
1180.950887425376
 20
849.5352880054088
 42
-0.000534652
 10
1180.114017425376
 20
849.4212380054089
 42
-0.0005003148
 10
1179.281892425376
 20
849.3095880054088
 42
-0.000555015
 10
1178.436067425376
 20
849.1982380054089
 42
-0.000665894
 10
1177.570167425376
 20
849.086438005409
 42
-0.0005055877
 10
1176.757062425376
 20
848.9825880054091
 42
-0.0001701494
 10
1176.021837425376
 20
848.889588005409
 42
-0.000719669
 10
1175.077022425376
 20
848.7743380054089
 42
-0.001247206
 10
1173.621052425376
 20
848.6022880054088
 42
-0.0006103291
 10
1171.713892425376
 20
848.380288005409
 42
-0.000322941
  0
LWPOLYLINE
  5
1230
330
1F
100
AcDbEntity
  8
KONTUR
100
AcDbPolyline
 90
       15
 70
     0
 43
0.0
 10
1203.199127425376
 20
853.2883880054089
 10
1202.933517425376
 20
853.2354380054089
 42
-0.0001798559
 10
1202.667927425376
 20
853.1826880054089
 42
-0.0001784378
 10
1202.402407425376
 20
853.130138005409
 42
-0.0001798981
 10
1202.136577425376
 20
853.077738005409
 42
-0.0001836146
 10
1201.870307425376
 20
853.025488005409
 42
-0.0001784167
 10
1201.605082425376
 20
852.973588005409
 42
-0.000166583
 10
1201.341402425376
 20
852.9221880054088
 42
-0.000183849
 10
1201.073437425376
 20
852.8701880054089
 42
-0.000219143
 10
1200.799167425376
 20
852.817188005409
 42
-0.000166354
 10
1200.541642425376
 20
852.7675880054089
 42
-0.0000571303
 10
1200.308812425376
 20
852.722788005409
 42
-0.000234621
 10
1200.009707425376
 20
852.6656880054088
 42
-0.0004037078
 10
1199.548907425376
 20
852.578338005409
 42
-0.0001974
 10
1198.945392425376
 20
852.4642880054089
 42
-0.0001046123
  0
LWPOLYLINE
  5
1241
330
1F
100
AcDbEntity
  8
KONTUR
100
AcDbPolyline
 90
       15
 70
     0
 43
0.0
 10
1148.687497425376
 20
846.503488005409
 10
1148.446752425376
 20
846.4913880054089
 42
-0.0001600764
 10
1148.206037425376
 20
846.4794380054091
 42
-0.000158801
 10
1147.965407425376
 20
846.467688005409
 42
-0.0001600983
 10
1147.724517425376
 20
846.456038005409
 42
-0.000163416
 10
1147.483252425376
 20
846.444538005409
 42
-0.000158792
 10
1147.242952425376
 20
846.4332380054088
 42
-0.0001482596
 10
1147.004077425376
 20
846.4221380054091
 42
-0.0001636342
 10
1146.761337425376
 20
846.411088005409
 42
-0.0001950608
 10
1146.512912425376
 20
846.3998880054091
 42
-0.0001480653
 10
1146.279667425376
 20
846.389488005409
 42
-0.0000508292
 10
1146.068797425376
 20
846.3801880054091
 42
-0.0002088516
 10
1145.797952425376
 20
846.368588005409
 42
-0.0003593814
 10
1145.380752425376
 20
846.3511380054088
 42
-0.0001757143
 10
1144.834372425376
 20
846.328538005409
 42
-0.000093114
  0
LWPOLYLINE
  5
1252
330
1F
100
AcDbEntity
  8
KONTUR
100
AcDbPolyline
 90
       15
 70
     0
 43
0.0
 10
1161.517147425376
 20
847.4315880054089
 10
1161.317987425376
 20
847.4076380054089
 42
-0.0011618611
 10
1161.118777425376
 20
847.384638005409
 42
-0.0011806128
 10
1160.919557425376
 20
847.3626380054088
 42
-0.0011632503
 10
1160.720057425376
 20
847.3414380054089
 42
-0.001098916
 10
1160.520167425376
 20
847.321138005409
 42
-0.0010177812
 10
1160.321012425376
 20
847.3016380054089
 42
-0.0009194849
 10
1160.122982425376
 20
847.2829880054089
 42
-0.000937717
 10
1159.921687425376
 20
847.264838005409
 42
-0.0010005721
 10
1159.715617425376
 20
847.247038005409
 42
-0.0007559567
 10
1159.522107425376
 20
847.230738005409
 42
-0.000352596
 10
1159.347132425376
 20
847.2163380054089
 42
-0.0008879728
 10
1159.122317425376
 20
847.1989880054089
 42
-0.0012864746
 10
1158.775927425376
 20
847.1734880054091
 42
-0.0006140548
 10
1158.322227425376
 20
847.1409380054088
 42
-0.000338266
  0
LWPOLYLINE
  5
1263
330
1F
100
AcDbEntity
  8
KONTUR
100
AcDbPolyline
 90
       15
 70
     0
 43
0.0
 10
1165.467062425376
 20
847.7297880054089
 10
1164.987112425376
 20
847.6841880054089
 42
-0.0003201973
 10
1164.507187425376
 20
847.6391880054089
 42
-0.0003176389
 10
1164.027387425376
 20
847.5948380054087
 42
-0.0003202326
 10
1163.547032425376
 20
847.5510380054088
 42
-0.0003268753
 10
1163.065872425376
 20
847.507838005409
 42
-0.000317628
 10
1162.586592425376
 20
847.4653880054091
 42
-0.00029656
 10
1162.110107425376
 20
847.423788005409
 42
-0.0003273197
 10
1161.625872425376
 20
847.3821880054088
 42
-0.0003901937
 10
1161.130247425376
 20
847.340338005409
 42
-0.0002961798
 10
1160.664887425376
 20
847.301438005409
 42
-0.0001016583
 10
1160.244137425376
 20
847.266588005409
 42
-0.0004177921
 10
1159.703627425376
 20
847.2231880054092
 42
-0.000718933
 10
1158.870932425376
 20
847.158138005409
 42
-0.000351502
 10
1157.780332425376
 20
847.074038005409
 42
-0.0001862606
  0
LINE
  5
1274
330
1F
100
AcDbEntity
  8
KONTUR
100
AcDbLine
 10
1131.790222425376
 20
846.030538005409
 30
0.0
 11
1129.454152425376
 21
846.025138005409
 31
0.0
  0
LINE
  5
1275
330
1F
100
AcDbEntity
  8
KONTUR
100
AcDbLine
 10
1130.704152425376
 20
846.025138005409
 30
0.0
 11
1129.454152425376
 21
846.025138005409
 31
0.0
  0
LINE
  5
1276
330
1F
100
AcDbEntity
  8
KONTUR
100
AcDbLine
 10
1130.704152425376
 20
846.025138005409
 30
0.0
 11
1130.704152425376
 21
846.025138005409
 31
0.0
  0
LWPOLYLINE
  5
1277
330
1F
100
AcDbEntity
  8
KONTUR
100
AcDbPolyline
 90
       15
 70
     0
 43
0.0
 10
1146.323227425376
 20
846.419038005409
 10
1146.242647425376
 20
846.412188005409
 42
-0.0012525532
 10
1146.162062425376
 20
846.405688005409
 42
-0.0012775599
 10
1146.081487425377
 20
846.399688005409
 42
-0.0012543388
 10
1146.000812425376
 20
846.393988005409
 42
-0.0011700003
 10
1145.919992425376
 20
846.388688005409
 42
-0.0010744691
 10
1145.839482425376
 20
846.383738005409
 42
-0.000964794
 10
1145.759437425376
 20
846.379138005409
 42
-0.0009686116
 10
1145.678082425376
 20
846.3747880054091
 42
-0.0010083302
 10
1145.594812425376
 20
846.3706380054091
 42
-0.0007609788
 10
1145.516627425376
 20
846.3668880054088
 42
-0.0003774262
 10
1145.445932425376
 20
846.3636880054089
 42
-0.0008508231
 10
1145.355117425376
 20
846.359938005409
 42
-0.001162646
 10
1145.215222425376
 20
846.354638005409
 42
-0.0005498238
 10
1145.031997425376
 20
846.3480380054089
 42
-0.0003074326
  0
LINE
  5
1288
330
1F
100
AcDbEntity
  8
KONTUR
100
AcDbLine
 10
1130.704152425376
 20
846.027738005409
 30
0.0
 11
1130.704152425376
 21
846.025138005409
 31
0.0
  0
LINE
  5
1289
330
1F
100
AcDbEntity
  8
KONTUR
100
AcDbLine
 10
1128.454152425376
 20
846.025138005409
 30
0.0
 11
1129.454152425376
 21
846.025138005409
 31
0.0
  0
ARC
  5
128A
330
1F
100
AcDbEntity
  8
KONTUR
100
AcDbCircle
 10
1124.454152425376
 20
851.025138005409
 30
0.0
 40
5.0
100
AcDbArc
 50
179.9999999999992
 51
269.9999999999994
  0
LINE
  5
128B
330
1F
100
AcDbEntity
  8
KONTUR
100
AcDbLine
 10
1128.454152425376
 20
846.025138005409
 30
0.0
 11
1124.454152425376
 21
846.025138005409
 31
0.0
  0
CIRCLE
  5
128C
330
1F
100
AcDbEntity
  8
KONTUR
100
AcDbCircle
 10
1124.454152425376
 20
851.275138005409
 30
0.0
 40
2.05
  0
ARC
  5
128D
330
1F
100
AcDbEntity
  8
KONTUR
100
AcDbCircle
 10
1123.454152425376
 20
848.8434880054087
 30
0.0
 40
2.9999999
100
AcDbArc
 50
199.1248799999993
 51
283.8696899999994
  0
LINE
  5
128E
330
1F
100
AcDbEntity
  8
KONTUR
100
AcDbLine
 10
1124.173292425376
 20
845.930938005409
 30
0.0
 11
1124.555002425376
 21
846.0251880054088
 31
0.0
  0
ARC
  5
128F
330
1F
100
AcDbEntity
  8
KONTUR
100
AcDbCircle
 10
1122.454152425376
 20
848.596538005409
 30
0.0
 40
2.99999985
100
AcDbArc
 50
179.9999999999992
 51
283.8696899999994
  0
LINE
  5
1290
330
1F
100
AcDbEntity
  8
KONTUR
100
AcDbLine
 10
1124.173292425376
 20
845.930938005409
 30
0.0
 11
1123.173292425376
 21
845.6840380054089
 31
0.0
  0
LINE
  5
1291
330
1F
100
AcDbEntity
  8
KONTUR
100
AcDbLine
 10
1119.454152425376
 20
848.596538005409
 30
0.0
 11
1119.454152425376
 21
851.025138005409
 31
0.0
  0
LWPOLYLINE
  5
1292
330
1F
100
AcDbEntity
  8
KONTUR
100
AcDbPolyline
 90
       15
 70
     0
 43
0.0
 10
1132.428307425376
 20
1146.025138005409
 10
1138.370197425376
 20
1146.025138005409
 42
-0.0000000296
 10
1144.309747425376
 20
1146.025138005409
 42
-0.0000000292
 10
1150.245642425376
 20
1146.025138005409
 42
-0.0000000296
 10
1156.186332425376
 20
1146.025138005409
 42
-0.0000000301
 10
1162.134782425376
 20
1146.025138005409
 42
-0.0000000293
 10
1168.058077425376
 20
1146.025138005409
 42
-0.0000000273
 10
1173.944782425376
 20
1146.025138005409
 42
-0.0000000302
 10
1179.924987425376
 20
1146.025138005409
 42
-0.000000036
 10
1186.043452425376
 20
1146.025138005409
 42
-0.0000000273
 10
1191.787082425376
 20
1146.025138005409
 10
1196.979072425376
 20
1146.025138005409
 42
-0.0000000387
 10
1203.644367425376
 20
1146.025138005409
 42
-0.0000000666
 10
1213.906942425376
 20
1146.025138005409
 42
-0.0000000326
 10
1224.584547425377
 20
1146.025138005409
  0
LINE
  5
12A3
330
1F
100
AcDbEntity
  8
KONTUR
100
AcDbLine
 10
1254.546062425376
 20
1146.020888005409
 30
0.0
 11
1254.584547425376
 21
1146.025138005409
 31
0.0
  0
LINE
  5
12A4
330
1F
100
AcDbEntity
  8
KONTUR
100
AcDbLine
 10
1129.454152425376
 20
1141.775138005409
 30
0.0
 11
1131.821817425376
 21
1141.775138005409
 31
0.0
  0
LINE
  5
12A5
330
1F
100
AcDbEntity
  8
KONTUR
100
AcDbLine
 10
1129.954152425376
 20
1142.775138005409
 30
0.0
 11
1130.724332425376
 21
1142.775138005409
 31
0.0
  0
LINE
  5
12A6
330
1F
100
AcDbEntity
  8
KONTUR
100
AcDbLine
 10
1129.954152425376
 20
1144.025138005409
 30
0.0
 11
1130.724197425376
 21
1144.025138005409
 31
0.0
  0
LINE
  5
12A7
330
1F
100
AcDbEntity
  8
KONTUR
100
AcDbLine
 10
1131.954122425376
 20
1142.775188005409
 30
0.0
 11
1130.954167425376
 21
1142.775138005409
 31
0.0
  0
LINE
  5
12A8
330
1F
100
AcDbEntity
  8
KONTUR
100
AcDbLine
 10
1131.821817425376
 20
1141.775138005409
 30
0.0
 11
1131.954122425376
 21
1141.775188005409
 31
0.0
  0
LINE
  5
12A9
330
1F
100
AcDbEntity
  8
KONTUR
100
AcDbLine
 10
1130.724332425376
 20
1142.775138005409
 30
0.0
 11
1130.954167425376
 21
1142.775138005409
 31
0.0
  0
LINE
  5
12AA
330
1F
100
AcDbEntity
  8
KONTUR
100
AcDbLine
 10
1130.926207425376
 20
1141.775938005409
 30
0.0
 11
1131.081172425376
 21
1141.775988005409
 31
0.0
  0
LINE
  5
12AB
330
1F
100
AcDbEntity
  8
KONTUR
100
AcDbLine
 10
1130.954167425376
 20
1142.775138005409
 30
0.0
 11
1130.954132425376
 21
1144.525238005409
 31
0.0
  0
LINE
  5
12AC
330
1F
100
AcDbEntity
  8
KONTUR
100
AcDbLine
 10
1130.724332425376
 20
1142.775138005409
 30
0.0
 11
1130.954167425376
 21
1142.775138005409
 31
0.0
  0
LINE
  5
12AD
330
1F
100
AcDbEntity
  8
KONTUR
100
AcDbLine
 10
1130.724332425376
 20
1142.775138005409
 30
0.0
 11
1130.723982425376
 21
1144.524238005409
 31
0.0
  0
LINE
  5
12AE
330
1F
100
AcDbEntity
  8
KONTUR
100
AcDbLine
 10
1131.724332425376
 20
1141.775988005409
 30
0.0
 11
1131.724122425376
 21
1142.774588005409
 31
0.0
  0
LINE
  5
12AF
330
1F
100
AcDbEntity
  8
KONTUR
100
AcDbLine
 10
1131.954122425376
 20
1142.775188005409
 30
0.0
 11
1131.724122425376
 21
1142.774588005409
 31
0.0
  0
LINE
  5
12B0
330
1F
100
AcDbEntity
  8
KONTUR
100
AcDbLine
 10
1131.954122425376
 20
1141.775188005409
 30
0.0
 11
1131.954122425376
 21
1142.775188005409
 31
0.0
  0
LWPOLYLINE
  5
12B1
330
1F
100
AcDbEntity
  8
KONTUR
100
AcDbPolyline
 90
       11
 70
     0
 43
0.0
 10
1130.954132425376
 20
1144.525238005409
 10
1130.964587425377
 20
1144.707738005409
 42
-0.034100985
 10
1130.998697425376
 20
1144.891288005409
 42
-0.029857727
 10
1131.056787425376
 20
1145.076688005409
 42
-0.030596331
 10
1131.142422425376
 20
1145.258738005409
 42
-0.038465278
 10
1131.258322425376
 20
1145.430638005409
 42
-0.032313566
 10
1131.385882425376
 20
1145.585838005409
 42
-0.016647114
 10
1131.517392425376
 20
1145.718388005409
 42
-0.04134528
 10
1131.707347425376
 20
1145.833538005409
 42
-0.070300803
 10
1132.015117425377
 20
1145.935838005409
 42
-0.037997615
 10
1132.428307425376
 20
1146.025138005409
 42
-0.020265485
  0
LWPOLYLINE
  5
12BE
330
1F
100
AcDbEntity
  8
KONTUR
100
AcDbPolyline
 90
       15
 70
     0
 43
0.0
 10
1132.198457425376
 20
1146.024538005409
 10
1132.212827425376
 20
1146.024538005409
 42
0.0000115037
 10
1132.227192425376
 20
1146.024588005409
 42
0.000012266
 10
1132.241552425376
 20
1146.024638005409
 42
0.0000115266
 10
1132.255927425376
 20
1146.024688005409
 42
0.0000090367
 10
1132.270322425376
 20
1146.024688005409
 42
0.0000072366
 10
1132.284657425376
 20
1146.024738005409
 42
0.0000058066
 10
1132.298912425376
 20
1146.024788005409
 42
0.0000040331
 10
1132.313392425376
 20
1146.024838005409
 42
0.0000011973
 10
1132.328212425376
 20
1146.024838005409
 42
0.0000007993
 10
1132.342122425376
 20
1146.024888005409
 42
0.0000031406
 10
1132.354702425376
 20
1146.024938005409
 42
-0.000004363
 10
1132.370852425376
 20
1146.024988005409
 42
-0.000014947
 10
1132.395732425376
 20
1146.025038005409
 42
-0.0000077698
 10
1132.428307425376
 20
1146.025138005409
 42
-0.000003721
  0
LWPOLYLINE
  5
12CF
330
1F
100
AcDbEntity
  8
KONTUR
100
AcDbPolyline
 90
       11
 70
     0
 43
0.0
 10
1130.723982425376
 20
1144.524238005409
 10
1130.734392425376
 20
1144.706788005409
 42
-0.034113257
 10
1130.768472425376
 20
1144.890388005409
 42
-0.0298675
 10
1130.826542425376
 20
1145.075838005409
 42
-0.030605077
 10
1130.912177425376
 20
1145.257988005409
 42
-0.038477082
 10
1131.028102425376
 20
1145.429938005409
 42
-0.032324632
 10
1131.155692425376
 20
1145.585188005409
 42
-0.016655467
 10
1131.287247425376
 20
1145.717788005409
 42
-0.04135689
 10
1131.477267425376
 20
1145.832988005409
 42
-0.070317553
 10
1131.785132425376
 20
1145.935288005409
 42
-0.038008034
 10
1132.198457425376
 20
1146.024538005409
 42
-0.020270951
  0
LINE
  5
12DC
330
1F
100
AcDbEntity
  8
KONTUR
100
AcDbLine
 10
1129.454152425376
 20
1141.775138005409
 30
0.0
 11
1128.454152425376
 21
1141.775138005409
 31
0.0
  0
LINE
  5
12DD
330
1F
100
AcDbEntity
  8
KONTUR
100
AcDbLine
 10
1121.954152425376
 20
1141.775138005409
 30
0.0
 11
1128.454152425376
 21
1141.775138005409
 31
0.0
  0
ARC
  5
12DE
330
1F
100
AcDbEntity
  8
KONTUR
100
AcDbCircle
 10
1121.954152425376
 20
1139.275138005409
 30
0.0
 40
2.5
100
AcDbArc
 50
89.99999999999896
 51
179.9999999999992
  0
LINE
  5
12DF
330
1F
100
AcDbEntity
  8
KONTUR
100
AcDbLine
 10
1122.454152425376
 20
1142.775138005409
 30
0.0
 11
1122.454152425376
 21
1144.025138005409
 31
0.0
  0
LINE
  5
12E0
330
1F
100
AcDbEntity
  8
KONTUR
100
AcDbLine
 10
1120.704117425376
 20
1141.382988005409
 30
0.0
 11
1120.704152425376
 21
1141.775138005409
 31
0.0
  0
LINE
  5
12E1
330
1F
100
AcDbEntity
  8
KONTUR
100
AcDbLine
 10
1123.954152425376
 20
1142.775138005409
 30
0.0
 11
1129.954152425376
 21
1142.775138005409
 31
0.0
  0
LINE
  5
12E2
330
1F
100
AcDbEntity
  8
KONTUR
100
AcDbLine
 10
1122.454152425376
 20
1142.775138005409
 30
0.0
 11
1123.954152425376
 21
1142.775138005409
 31
0.0
  0
LINE
  5
12E3
330
1F
100
AcDbEntity
  8
KONTUR
100
AcDbLine
 10
1121.704152425376
 20
1142.775138005409
 30
0.0
 11
1122.454152425376
 21
1142.775138005409
 31
0.0
  0
ARC
  5
12E4
330
1F
100
AcDbEntity
  8
KONTUR
100
AcDbCircle
 10
1121.704152425376
 20
1141.775138005409
 30
0.0
 40
1.0
100
AcDbArc
 50
89.99999999999982
 51
179.9999999987
  0
ARC
  5
12E5
330
1F
100
AcDbEntity
  8
KONTUR
100
AcDbCircle
 10
1121.704152425376
 20
1141.775138005409
 30
0.0
 40
2.2499999
100
AcDbArc
 50
90.00000299999981
 51
179.9999977154
  0
LINE
  5
12E6
330
1F
100
AcDbEntity
  8
KONTUR
100
AcDbLine
 10
1123.954152425376
 20
1144.025138005409
 30
0.0
 11
1129.954152425376
 21
1144.025138005409
 31
0.0
  0
LINE
  5
12E7
330
1F
100
AcDbEntity
  8
KONTUR
100
AcDbLine
 10
1122.454152425376
 20
1144.025138005409
 30
0.0
 11
1123.954152425376
 21
1144.025138005409
 31
0.0
  0
LINE
  5
12E8
330
1F
100
AcDbEntity
  8
KONTUR
100
AcDbLine
 10
1121.704152425376
 20
1144.025138005409
 30
0.0
 11
1122.454152425376
 21
1144.025138005409
 31
0.0
  0
LINE
  5
12E9
330
1F
100
AcDbEntity
  8
KONTUR
100
AcDbLine
 10
1119.454152425376
 20
1139.275138005409
 30
0.0
 11
1119.454152425376
 21
1141.775138005409
 31
0.0
  0
ENDSEC
  0
SECTION
  2
OBJECTS
  0
DICTIONARY
  5
C
330
0
100
AcDbDictionary
281
     1
  3
ACAD_COLOR
350
6C
  3
ACAD_GROUP
350
D
  3
ACAD_LAYOUT
350
1A
  3
ACAD_MATERIAL
350
6B
  3
ACAD_MLINESTYLE
350
17
  3
ACAD_PLOTSETTINGS
350
19
  3
ACAD_PLOTSTYLENAME
350
E
  3
ACAD_TABLESTYLE
350
92
  3
AcDbVariableDictionary
350
59
  3
ASE_INDEX_DICTIONARY
350
11F4
  0
DICTIONARY
  5
6C
102
{ACAD_REACTORS
330
C
102
}
330
C
100
AcDbDictionary
281
     1
  0
DICTIONARY
  5
D
102
{ACAD_REACTORS
330
C
102
}
330
C
100
AcDbDictionary
281
     1
  0
DICTIONARY
  5
1A
102
{ACAD_REACTORS
330
C
102
}
330
C
100
AcDbDictionary
281
     1
  3
Layout1
350
74
  3
Model
350
22
  0
DICTIONARY
  5
6B
102
{ACAD_REACTORS
330
C
102
}
330
C
100
AcDbDictionary
281
     1
  0
DICTIONARY
  5
17
102
{ACAD_REACTORS
330
C
102
}
330
C
100
AcDbDictionary
281
     1
  3
Standard
350
18
  0
DICTIONARY
  5
19
102
{ACAD_REACTORS
330
C
102
}
330
C
100
AcDbDictionary
281
     1
  0
ACDBDICTIONARYWDFLT
  5
E
102
{ACAD_REACTORS
330
C
102
}
330
C
100
AcDbDictionary
281
     1
  3
Normal
350
F
100
AcDbDictionaryWithDefault
340
F
  0
DICTIONARY
  5
92
102
{ACAD_REACTORS
330
C
102
}
330
C
100
AcDbDictionary
281
     1
  3
Standard
350
93
  0
DICTIONARY
  5
59
102
{ACAD_REACTORS
330
C
102
}
330
C
100
AcDbDictionary
281
     1
  3
CTABLESTYLE
350
98
  3
DIMASSOC
350
12EC
  3
HIDETEXT
350
5E
  0
DICTIONARY
  5
11F4
102
{ACAD_REACTORS
330
C
102
}
330
C
100
AcDbDictionary
281
     1
  3
ASEBLOCKHIERARCHYINDEXRECORD
350
11F5
  0
LAYOUT
  5
74
102
{ACAD_REACTORS
330
1A
102
}
330
1A
100
AcDbPlotSettings
  1

  2
\\IVNT01\EPSON Stylus COLOR 760
  4

  6

 40
0.0
 41
0.0
 42
0.0
 43
0.0
 44
0.0
 45
0.0
 46
0.0
 47
0.0
 48
0.0
 49
0.0
140
0.0
141
0.0
142
1.0
143
1.0
 70
   688
 72
     0
 73
     0
 74
     5
  7

 75
    16
 76
     0
 77
     2
 78
   300
147
1.0
148
0.0
149
0.0
100
AcDbLayout
  1
Layout1
 70
     0
 71
     1
 10
0.0
 20
0.0
 11
12.0
 21
9.0
 12
0.0
 22
0.0
 32
0.0
 14
1.000000000000000E+20
 24
1.000000000000000E+20
 34
1.000000000000000E+20
 15
-1.000000000000000E+20
 25
-1.000000000000000E+20
 35
-1.000000000000000E+20
146
0.0
 13
0.0
 23
0.0
 33
0.0
 16
1.0
 26
0.0
 36
0.0
 17
0.0
 27
1.0
 37
0.0
 76
     0
330
73
  0
LAYOUT
  5
22
102
{ACAD_REACTORS
330
1A
102
}
330
1A
100
AcDbPlotSettings
  1

  2
\\Intra\PLOTTER
  4
User619
  6

 40
0.0
 41
0.0
 42
0.0
 43
0.0
 44
297.2000122070312
 45
420.2000122070312
 46
10.0
 47
20.0
 48
0.0
 49
0.0
140
0.0
141
0.0
142
1.0
143
5.0
 70
 11936
 72
     1
 73
     1
 74
     1
  7
monochrome.ctb
 75
     0
 76
     0
 77
     2
 78
   300
147
0.28088241027059
148
0.0553881623945927
149
0.0402797890565125
100
AcDbLayout
  1
Model
 70
     1
 71
     0
 10
0.0
 20
0.0
 11
0.0
 21
0.0
 12
0.0
 22
0.0
 32
0.0
 14
0.0
 24
0.0
 34
0.0
 15
1815.097784188713
 25
1319.988833422131
 35
0.0
146
0.0
 13
0.0
 23
0.0
 33
0.0
 16
1.0
 26
0.0
 36
0.0
 17
0.0
 27
1.0
 37
0.0
 76
     0
330
1F
331
97
  0
MLINESTYLE
  5
18
102
{ACAD_REACTORS
330
17
102
}
330
17
100
AcDbMlineStyle
  2
Standard
 70
     0
  3

 62
   256
 51
90.0
 52
90.0
 71
     2
 49
0.5
 62
   256
  6
BYLAYER
 49
-0.5
 62
   256
  6
BYLAYER
  0
ACDBPLACEHOLDER
  5
F
102
{ACAD_REACTORS
330
E
102
}
330
E
  0
TABLESTYLE
  5
93
102
{ACAD_REACTORS
330
92
102
}
330
92
100
AcDbTableStyle
  3
Standard
 70
     0
 71
     0
 40
0.06
 41
0.06
280
     0
281
     0
  7
Standard
140
0.18
170
     2
 62
     0
 63
     7
283
     0
 90
      512
 91
        0
  1

274
    -2
284
     1
 64
     0
275
    -2
285
     1
 65
     0
276
    -2
286
     1
 66
     0
277
    -2
287
     1
 67
     0
278
    -2
288
     1
 68
     0
279
    -2
289
     1
 69
     0
  7
Standard
140
0.25
170
     5
 62
     0
 63
     7
283
     0
 90
      512
 91
        0
  1

274
    -2
284
     1
 64
     0
275
    -2
285
     1
 65
     0
276
    -2
286
     1
 66
     0
277
    -2
287
     1
 67
     0
278
    -2
288
     1
 68
     0
279
    -2
289
     1
 69
     0
  7
Standard
140
0.18
170
     5
 62
     0
 63
     7
283
     0
 90
      512
 91
        0
  1

274
    -2
284
     1
 64
     0
275
    -2
285
     1
 65
     0
276
    -2
286
     1
 66
     0
277
    -2
287
     1
 67
     0
278
    -2
288
     1
 68
     0
279
    -2
289
     1
 69
     0
  0
DICTIONARYVAR
  5
98
102
{ACAD_REACTORS
330
59
102
}
330
59
100
DictionaryVariables
280
     0
  1
Standard
  0
DICTIONARYVAR
  5
12EC
102
{ACAD_REACTORS
330
59
102
}
330
59
100
DictionaryVariables
280
     0
  1
2
  0
DICTIONARYVAR
  5
5E
102
{ACAD_REACTORS
330
59
102
}
330
59
100
DictionaryVariables
280
     0
  1
1
  0
XRECORD
  5
11F5
102
{ACAD_REACTORS
330
11F4
102
}
330
11F4
100
AcDbXrecord
280
     1
330
F99
  0
ENDSEC
  0
EOF
