  0
SECTION
  2
HEADER
  9
$ACADVER
  1
AC1021
  9
$ACADMAINTVER
 70
     1
  9
$DWGCODEPAGE
  3
ANSI_1252
  9
$LASTSAVEDBY
  1
fottrem
  9
$INSBASE
 10
0.0
 20
0.0
 30
0.0
  9
$EXTMIN
 10
0.0
 20
0.0
 30
0.0
  9
$EXTMAX
 10
3630.195568377425
 20
2639.977666844263
 30
0.0
  9
$LIMMIN
 10
0.0
 20
0.0
  9
$LIMMAX
 10
0.0
 20
0.0
  9
$ORTHOMODE
 70
     1
  9
$REGENMODE
 70
     1
  9
$FILLMODE
 70
     1
  9
$QTEXTMODE
 70
     0
  9
$MIRRTEXT
 70
     1
  9
$LTSCALE
 40
1.0
  9
$ATTMODE
 70
     1
  9
$TEXTSIZE
 40
0.125
  9
$TRACEWID
 40
0.05
  9
$TEXTSTYLE
  7
Standard
  9
$CLAYER
  8
KONTUR
  9
$CELTYPE
  6
Continuous
  9
$CECOLOR
 62
     2
  9
$CELTSCALE
 40
1.0
  9
$DISPSILH
 70
     0
  9
$DIMSCALE
 40
10.0
  9
$DIMASZ
 40
3.5
  9
$DIMEXO
 40
1.0
  9
$DIMDLI
 40
1.25
  9
$DIMRND
 40
0.01
  9
$DIMDLE
 40
0.0
  9
$DIMEXE
 40
1.0
  9
$DIMTP
 40
0.0
  9
$DIMTM
 40
0.0
  9
$DIMTXT
 40
3.5
  9
$DIMCEN
 40
0.09
  9
$DIMTSZ
 40
0.0
  9
$DIMTOL
 70
     0
  9
$DIMLIM
 70
     0
  9
$DIMTIH
 70
     0
  9
$DIMTOH
 70
     0
  9
$DIMSE1
 70
     0
  9
$DIMSE2
 70
     0
  9
$DIMTAD
 70
     1
  9
$DIMZIN
 70
     3
  9
$DIMBLK
  1

  9
$DIMASO
 70
     1
  9
$DIMSHO
 70
     1
  9
$DIMPOST
  1

  9
$DIMAPOST
  1

  9
$DIMALT
 70
     0
  9
$DIMALTD
 70
     2
  9
$DIMALTF
 40
1.0
  9
$DIMLFAC
 40
1.0
  9
$DIMTOFL
 70
     1
  9
$DIMTVP
 40
0.0
  9
$DIMTIX
 70
     0
  9
$DIMSOXD
 70
     0
  9
$DIMSAH
 70
     0
  9
$DIMBLK1
  1

  9
$DIMBLK2
  1

  9
$DIMSTYLE
  2
Dimensjoner
  9
$DIMCLRD
 70
     0
  9
$DIMCLRE
 70
     0
  9
$DIMCLRT
 70
     0
  9
$DIMTFAC
 40
1.0
  9
$DIMGAP
 40
2.0
  9
$DIMJUST
 70
     0
  9
$DIMSD1
 70
     0
  9
$DIMSD2
 70
     0
  9
$DIMTOLJ
 70
     1
  9
$DIMTZIN
 70
     0
  9
$DIMALTZ
 70
     0
  9
$DIMALTTZ
 70
     0
  9
$DIMUPT
 70
     0
  9
$DIMDEC
 70
     0
  9
$DIMTDEC
 70
     0
  9
$DIMALTU
 70
     2
  9
$DIMALTTD
 70
     2
  9
$DIMTXSTY
  7
Standard
  9
$DIMAUNIT
 70
     0
  9
$DIMADEC
 70
     0
  9
$DIMALTRND
 40
0.0
  9
$DIMAZIN
 70
     0
  9
$DIMDSEP
 70
    46
  9
$DIMATFIT
 70
     3
  9
$DIMFRAC
 70
     0
  9
$DIMLDRBLK
  1

  9
$DIMLUNIT
 70
     2
  9
$DIMLWD
 70
    -2
  9
$DIMLWE
 70
    -2
  9
$DIMTMOVE
 70
     0
  9
$DIMFXL
 40
1.0
  9
$DIMFXLON
 70
     0
  9
$DIMJOGANG
 40
0.7853981633974483
  9
$DIMTFILL
 70
     0
  9
$DIMTFILLCLR
 70
     0
  9
$DIMARCSYM
 70
     0
  9
$DIMLTYPE
  6

  9
$DIMLTEX1
  6

  9
$DIMLTEX2
  6

  9
$LUNITS
 70
     2
  9
$LUPREC
 70
     3
  9
$SKETCHINC
 40
0.1
  9
$FILLETRAD
 40
10.0
  9
$AUNITS
 70
     0
  9
$AUPREC
 70
     1
  9
$MENU
  1
.
  9
$ELEVATION
 40
0.0
  9
$PELEVATION
 40
0.0
  9
$THICKNESS
 40
0.0
  9
$LIMCHECK
 70
     0
  9
$CHAMFERA
 40
6.0
  9
$CHAMFERB
 40
6.0
  9
$CHAMFERC
 40
0.0
  9
$CHAMFERD
 40
0.0
  9
$SKPOLY
 70
     0
  9
$TDCREATE
 40
2453353.758792488
  9
$TDUCREATE
 40
2453353.717125822
  9
$TDUPDATE
 40
2454414.543296794
  9
$TDUUPDATE
 40
2454414.501630127
  9
$TDINDWG
 40
0.0788748611
  9
$TDUSRTIMER
 40
0.0788748611
  9
$USRTIMER
 70
     1
  9
$ANGBASE
 50
0.0
  9
$ANGDIR
 70
     0
  9
$PDMODE
 70
     2
  9
$PDSIZE
 40
-0.01
  9
$PLINEWID
 40
0.0
  9
$SPLFRAME
 70
     0
  9
$SPLINETYPE
 70
     6
  9
$SPLINESEGS
 70
     8
  9
$HANDSEED
  5
175C
  9
$SURFTAB1
 70
     6
  9
$SURFTAB2
 70
     6
  9
$SURFTYPE
 70
     6
  9
$SURFU
 70
     6
  9
$SURFV
 70
     6
  9
$UCSBASE
  2

  9
$UCSNAME
  2

  9
$UCSORG
 10
0.0
 20
0.0
 30
0.0
  9
$UCSXDIR
 10
1.0
 20
0.0
 30
0.0
  9
$UCSYDIR
 10
0.0
 20
1.0
 30
0.0
  9
$UCSORTHOREF
  2

  9
$UCSORTHOVIEW
 70
     0
  9
$UCSORGTOP
 10
0.0
 20
0.0
 30
0.0
  9
$UCSORGBOTTOM
 10
0.0
 20
0.0
 30
0.0
  9
$UCSORGLEFT
 10
0.0
 20
0.0
 30
0.0
  9
$UCSORGRIGHT
 10
0.0
 20
0.0
 30
0.0
  9
$UCSORGFRONT
 10
0.0
 20
0.0
 30
0.0
  9
$UCSORGBACK
 10
0.0
 20
0.0
 30
0.0
  9
$PUCSBASE
  2

  9
$PUCSNAME
  2

  9
$PUCSORG
 10
0.0
 20
0.0
 30
0.0
  9
$PUCSXDIR
 10
1.0
 20
0.0
 30
0.0
  9
$PUCSYDIR
 10
0.0
 20
1.0
 30
0.0
  9
$PUCSORTHOREF
  2

  9
$PUCSORTHOVIEW
 70
     0
  9
$PUCSORGTOP
 10
0.0
 20
0.0
 30
0.0
  9
$PUCSORGBOTTOM
 10
0.0
 20
0.0
 30
0.0
  9
$PUCSORGLEFT
 10
0.0
 20
0.0
 30
0.0
  9
$PUCSORGRIGHT
 10
0.0
 20
0.0
 30
0.0
  9
$PUCSORGFRONT
 10
0.0
 20
0.0
 30
0.0
  9
$PUCSORGBACK
 10
0.0
 20
0.0
 30
0.0
  9
$USERI1
 70
     0
  9
$USERI2
 70
     0
  9
$USERI3
 70
     0
  9
$USERI4
 70
     0
  9
$USERI5
 70
     0
  9
$USERR1
 40
0.0
  9
$USERR2
 40
0.0
  9
$USERR3
 40
0.0
  9
$USERR4
 40
0.0
  9
$USERR5
 40
0.0
  9
$WORLDVIEW
 70
     1
  9
$SHADEDGE
 70
     3
  9
$SHADEDIF
 70
    70
  9
$TILEMODE
 70
     1
  9
$MAXACTVP
 70
    16
  9
$PINSBASE
 10
0.0
 20
0.0
 30
0.0
  9
$PLIMCHECK
 70
     0
  9
$PEXTMIN
 10
1.000000000000000E+20
 20
1.000000000000000E+20
 30
1.000000000000000E+20
  9
$PEXTMAX
 10
-1.000000000000000E+20
 20
-1.000000000000000E+20
 30
-1.000000000000000E+20
  9
$PLIMMIN
 10
0.0
 20
0.0
  9
$PLIMMAX
 10
12.0
 20
9.0
  9
$UNITMODE
 70
     0
  9
$VISRETAIN
 70
     0
  9
$PLINEGEN
 70
     1
  9
$PSLTSCALE
 70
     0
  9
$TREEDEPTH
 70
  3020
  9
$CMLSTYLE
  2
Standard
  9
$CMLJUST
 70
     0
  9
$CMLSCALE
 40
1.0
  9
$PROXYGRAPHICS
 70
     1
  9
$MEASUREMENT
 70
     0
  9
$CELWEIGHT
370
    -1
  9
$ENDCAPS
280
     0
  9
$JOINSTYLE
280
     0
  9
$LWDISPLAY
290
     0
  9
$INSUNITS
 70
     0
  9
$HYPERLINKBASE
  1

  9
$STYLESHEET
  1

  9
$XEDIT
290
     0
  9
$CEPSNTYPE
380
     0
  9
$PSTYLEMODE
290
     1
  9
$FINGERPRINTGUID
  2
{8CBD0E4B-06D7-11D4-B82A-0060B0CEDD4B}
  9
$VERSIONGUID
  2
{D81CBCED-3710-4F2F-BAA3-00B70031ABCF}
  9
$EXTNAMES
290
     1
  9
$PSVPSCALE
 40
0.0
  9
$OLESTARTUP
290
     0
  9
$SORTENTS
280
   127
  9
$INDEXCTL
280
     0
  9
$HIDETEXT
280
     1
  9
$XCLIPFRAME
290
     0
  9
$HALOGAP
280
     0
  9
$OBSCOLOR
 70
   257
  9
$OBSLTYPE
280
     0
  9
$INTERSECTIONDISPLAY
280
     0
  9
$INTERSECTIONCOLOR
 70
   257
  9
$DIMASSOC
280
     2
  9
$PROJECTNAME
  1

  9
$CAMERADISPLAY
290
     0
  9
$LENSLENGTH
 40
50.0
  9
$CAMERAHEIGHT
 40
0.0
  9
$STEPSPERSEC
 40
2.0
  9
$STEPSIZE
 40
6.0
  9
$3DDWFPREC
 40
2.0
  9
$PSOLWIDTH
 40
0.25
  9
$PSOLHEIGHT
 40
4.0
  9
$LOFTANG1
 40
1.570796326794897
  9
$LOFTANG2
 40
1.570796326794897
  9
$LOFTMAG1
 40
0.0
  9
$LOFTMAG2
 40
0.0
  9
$LOFTPARAM
 70
     7
  9
$LOFTNORMALS
280
     1
  9
$LATITUDE
 40
37.795
  9
$LONGITUDE
 40
-122.394
  9
$NORTHDIRECTION
 40
0.0
  9
$TIMEZONE
 70
 -8000
  9
$LIGHTGLYPHDISPLAY
280
     1
  9
$TILEMODELIGHTSYNCH
280
     1
  9
$SOLIDHIST
280
     1
  9
$SHOWHIST
280
     1
  9
$DWFFRAME
280
     2
  9
$DGNFRAME
280
     2
  9
$REALWORLDSCALE
290
     1
  9
$INTERFERECOLOR
 62
   256
  9
$CSHADOW
280
     0
  9
$SHADOWPLANELOCATION
 40
0.0
  0
ENDSEC
  0
SECTION
  2
CLASSES
  0
CLASS
  1
ACDBDICTIONARYWDFLT
  2
AcDbDictionaryWithDefault
  3
ObjectDBX Classes
 90
        0
 91
        3
280
     0
281
     0
  0
CLASS
  1
ACDBPLACEHOLDER
  2
AcDbPlaceHolder
  3
ObjectDBX Classes
 90
        0
 91
        1
280
     0
281
     0
  0
CLASS
  1
LAYOUT
  2
AcDbLayout
  3
ObjectDBX Classes
 90
        0
 91
        1
280
     0
281
     0
  0
CLASS
  1
DICTIONARYVAR
  2
AcDbDictionaryVar
  3
ObjectDBX Classes
 90
        0
 91
        3
280
     0
281
     0
  0
CLASS
  1
TABLESTYLE
  2
AcDbTableStyle
  3
ObjectDBX Classes
 90
     4095
 91
        3
280
     0
281
     0
  0
ENDSEC
  0
SECTION
  2
TABLES
  0
TABLE
  2
VPORT
  5
8
330
0
100
AcDbSymbolTable
 70
     1
  0
VPORT
  5
97
330
8
100
AcDbSymbolTableRecord
100
AcDbViewportTableRecord
  2
*Active
 70
     0
 10
0.0
 20
0.0
 11
1.0
 21
1.0
 12
1852.933030935358
 22
1363.262360045617
 13
0.0
 23
0.0
 14
1.0
 24
1.0
 15
0.0
 25
0.0
 16
0.0
 26
0.0
 36
1.0
 17
0.0
 27
0.0
 37
0.0
 40
2746.003928015465
 41
1.446578631452581
 42
50.0
 43
0.0
 44
0.0
 50
0.0
 51
0.0
 71
    16
 72
   100
 73
     1
 74
     1
 75
     0
 76
     0
 77
     0
 78
     0
281
     0
 65
     0
110
0.0
120
0.0
130
0.0
111
1.0
121
0.0
131
0.0
112
0.0
122
1.0
132
0.0
 79
     0
146
0.0
 60
     3
 61
     5
292
     1
282
     1
141
0.0
142
0.0
 63
   256
  0
ENDTAB
  0
TABLE
  2
LTYPE
  5
5
330
0
100
AcDbSymbolTable
 70
     2
  0
LTYPE
  5
14
330
5
100
AcDbSymbolTableRecord
100
AcDbLinetypeTableRecord
  2
ByBlock
 70
     0
  3

 72
    65
 73
     0
 40
0.0
  0
LTYPE
  5
15
330
5
100
AcDbSymbolTableRecord
100
AcDbLinetypeTableRecord
  2
ByLayer
 70
     0
  3

 72
    65
 73
     0
 40
0.0
  0
LTYPE
  5
16
330
5
100
AcDbSymbolTableRecord
100
AcDbLinetypeTableRecord
  2
Continuous
 70
     0
  3
Solid line
 72
    65
 73
     0
 40
0.0
  0
LTYPE
  5
1738
330
5
100
AcDbSymbolTableRecord
100
AcDbLinetypeTableRecord
  2
CENTER
 70
     0
  3
____ _ ____ _ ____ _ ____ _ ____ _ ____ _ ____
 72
    65
 73
     4
 40
2.0
 49
1.25
 74
     4
 75
     0
340
0
 46
1.0
 50
0.0
 44
0.0
 45
0.0
 49
-0.25
 74
     4
 75
     0
340
0
 46
1.0
 50
0.0
 44
0.0
 45
0.0
 49
0.25
 74
     4
 75
     0
340
0
 46
1.0
 50
0.0
 44
0.0
 45
0.0
 49
-0.25
 74
     4
 75
     0
340
0
 46
1.0
 50
0.0
 44
0.0
 45
0.0
  0
ENDTAB
  0
TABLE
  2
LAYER
  5
2
330
0
100
AcDbSymbolTable
 70
    12
  0
LAYER
  5
10
330
2
100
AcDbSymbolTableRecord
100
AcDbLayerTableRecord
  2
0
 70
     0
 62
     7
  6
Continuous
370
    -3
390
F
347
0
  0
LAYER
  5
F1
330
2
100
AcDbSymbolTableRecord
100
AcDbLayerTableRecord
  2
DIM
 70
     0
 62
   250
  6
Continuous
370
    -3
390
F
347
0
  0
LAYER
  5
120C
330
2
100
AcDbSymbolTableRecord
100
AcDbLayerTableRecord
  2
TIT07
 70
     0
 62
   250
  6
Continuous
370
    -3
390
F
347
0
  0
LAYER
  5
120D
330
2
100
AcDbSymbolTableRecord
100
AcDbLayerTableRecord
  2
TIT02
 70
     0
 62
   250
  6
Continuous
370
    -3
390
F
347
0
  0
LAYER
  5
120E
330
2
100
AcDbSymbolTableRecord
100
AcDbLayerTableRecord
  2
TITTEXT
 70
     0
 62
   250
  6
Continuous
370
    -3
390
F
347
0
  0
LAYER
  5
120F
330
2
100
AcDbSymbolTableRecord
100
AcDbLayerTableRecord
  2
TIT5
 70
     0
 62
   250
  6
Continuous
370
    -3
390
F
347
0
  0
LAYER
  5
1210
330
2
100
AcDbSymbolTableRecord
100
AcDbLayerTableRecord
  2
TIT3
 70
     0
 62
   250
  6
Continuous
370
    -3
390
F
347
0
  0
LAYER
  5
1211
330
2
100
AcDbSymbolTableRecord
100
AcDbLayerTableRecord
  2
TITLOGO
 70
     0
 62
   250
  6
Continuous
370
    -3
390
F
347
0
  0
LAYER
  5
126B
330
2
100
AcDbSymbolTableRecord
100
AcDbLayerTableRecord
  2
Defpoints
 70
     0
 62
   250
  6
Continuous
290
     0
370
    -3
390
F
347
0
  0
LAYER
  5
1468
330
2
100
AcDbSymbolTableRecord
100
AcDbLayerTableRecord
  2
KONTUR
 70
     0
 62
   250
  6
Continuous
370
    -3
390
F
347
0
  0
LAYER
  5
16AD
330
2
100
AcDbSymbolTableRecord
100
AcDbLayerTableRecord
  2
TEKST
 70
     0
 62
   250
  6
Continuous
370
    -3
390
F
347
0
  0
LAYER
  5
16AE
330
2
100
AcDbSymbolTableRecord
100
AcDbLayerTableRecord
  2
PENN3
 70
     0
 62
   250
  6
Continuous
370
    -3
390
F
347
0
  0
ENDTAB
  0
TABLE
  2
STYLE
  5
3
330
0
100
AcDbSymbolTable
 70
     2
  0
STYLE
  5
11
330
3
100
AcDbSymbolTableRecord
100
AcDbTextStyleTableRecord
  2
Standard
 70
     0
 40
0.0
 41
1.0
 50
0.0
 71
     0
 42
1.0
  3
romans.shx
  4

  0
STYLE
  5
1212
330
3
100
AcDbSymbolTableRecord
100
AcDbTextStyleTableRecord
  2
ROMANC
 70
     0
 40
0.0
 41
1.0
 50
0.0
 71
     0
 42
4.9913929970647
  3
romanc
  4

  0
ENDTAB
  0
TABLE
  2
VIEW
  5
6
330
0
100
AcDbSymbolTable
 70
     0
  0
ENDTAB
  0
TABLE
  2
UCS
  5
7
330
0
100
AcDbSymbolTable
 70
     0
  0
ENDTAB
  0
TABLE
  2
APPID
  5
9
330
0
100
AcDbSymbolTable
 70
     2
  0
APPID
  5
12
330
9
100
AcDbSymbolTableRecord
100
AcDbRegAppTableRecord
  2
ACAD
 70
     0
  0
APPID
  5
1737
330
9
100
AcDbSymbolTableRecord
100
AcDbRegAppTableRecord
  2
DCO15
 70
     0
  0
ENDTAB
  0
TABLE
  2
DIMSTYLE
  5
A
330
0
100
AcDbSymbolTable
 70
     2
100
AcDbDimStyleTable
  0
DIMSTYLE
105
27
330
A
100
AcDbSymbolTableRecord
100
AcDbDimStyleTableRecord
  2
Standard
 70
     0
 41
0.125
 43
0.25
 44
0.125
 47
0.005
 48
-0.005
140
3.0
147
0.0625
171
     0
172
     1
271
     3
272
     3
274
     0
279
     2
340
11
  0
DIMSTYLE
105
1268
102
{ACAD_REACTORS
330
126A
330
1278
330
1285
330
1297
330
12A4
330
12B1
330
12C7
102
}
330
A
100
AcDbSymbolTableRecord
100
AcDbDimStyleTableRecord
  2
Dimensjoner
 70
     0
 40
10.0
 41
3.5
 42
1.0
 43
1.25
 44
1.0
 45
0.01
 73
     0
 74
     0
 77
     1
 78
     3
140
3.5
143
1.0
147
2.0
172
     1
271
     0
272
     0
340
11
  0
ENDTAB
  0
TABLE
  2
BLOCK_RECORD
  5
1
330
0
100
AcDbSymbolTable
 70
    17
  0
BLOCK_RECORD
  5
1F
330
1
100
AcDbSymbolTableRecord
100
AcDbBlockTableRecord
  2
*Model_Space
340
22
 70
     0
280
     1
281
     0
  0
BLOCK_RECORD
  5
73
330
1
100
AcDbSymbolTableRecord
100
AcDbBlockTableRecord
  2
*Paper_Space
340
74
 70
     0
280
     1
281
     0
  0
BLOCK_RECORD
  5
11CA
330
1
100
AcDbSymbolTableRecord
100
AcDbBlockTableRecord
  2
NYTITTEL
340
0
102
{BLKREFS
331
1312
102
}
 70
     0
280
     1
281
     0
  0
BLOCK_RECORD
  5
126C
330
1
100
AcDbSymbolTableRecord
100
AcDbBlockTableRecord
  2
*D1
340
0
 70
     0
280
     1
281
     0
  0
BLOCK_RECORD
  5
1279
330
1
100
AcDbSymbolTableRecord
100
AcDbBlockTableRecord
  2
*D2
340
0
 70
     0
280
     1
281
     0
  0
BLOCK_RECORD
  5
1286
330
1
100
AcDbSymbolTableRecord
100
AcDbBlockTableRecord
  2
*D3
340
0
 70
     0
280
     1
281
     0
  0
BLOCK_RECORD
  5
1298
330
1
100
AcDbSymbolTableRecord
100
AcDbBlockTableRecord
  2
*D4
340
0
 70
     0
280
     1
281
     0
  0
BLOCK_RECORD
  5
12A5
330
1
100
AcDbSymbolTableRecord
100
AcDbBlockTableRecord
  2
*D5
340
0
 70
     0
280
     1
281
     0
  0
BLOCK_RECORD
  5
12B2
330
1
100
AcDbSymbolTableRecord
100
AcDbBlockTableRecord
  2
*D6
340
0
 70
     0
280
     1
281
     0
  0
BLOCK_RECORD
  5
12C8
330
1
100
AcDbSymbolTableRecord
100
AcDbBlockTableRecord
  2
*D7
340
0
 70
     0
280
     1
281
     0
  0
BLOCK_RECORD
  5
16AF
330
1
100
AcDbSymbolTableRecord
100
AcDbBlockTableRecord
  2
ENDSY
340
0
 70
     0
280
     1
281
     0
  0
BLOCK_RECORD
  5
16B5
330
1
100
AcDbSymbolTableRecord
100
AcDbBlockTableRecord
  2
ENDRING
340
0
 70
     0
280
     1
281
     0
  0
BLOCK_RECORD
  5
16F0
330
1
100
AcDbSymbolTableRecord
100
AcDbBlockTableRecord
  2
*D10
340
0
 70
     0
280
     1
281
     0
  0
BLOCK_RECORD
  5
16FB
330
1
100
AcDbSymbolTableRecord
100
AcDbBlockTableRecord
  2
*D11
340
0
 70
     0
280
     1
281
     0
  0
BLOCK_RECORD
  5
1707
330
1
100
AcDbSymbolTableRecord
100
AcDbBlockTableRecord
  2
*D12
340
0
 70
     0
280
     1
281
     0
  0
BLOCK_RECORD
  5
1712
330
1
100
AcDbSymbolTableRecord
100
AcDbBlockTableRecord
  2
*D13
340
0
 70
     0
280
     1
281
     0
  0
BLOCK_RECORD
  5
171D
330
1
100
AcDbSymbolTableRecord
100
AcDbBlockTableRecord
  2
*D14
340
0
 70
     0
280
     1
281
     0
  0
BLOCK_RECORD
  5
172A
330
1
100
AcDbSymbolTableRecord
100
AcDbBlockTableRecord
  2
*D15
340
0
 70
     0
280
     1
281
     0
  0
BLOCK_RECORD
  5
1735
330
1
100
AcDbSymbolTableRecord
100
AcDbBlockTableRecord
  2
*D16
340
0
 70
     0
280
     1
281
     0
  0
ENDTAB
  0
ENDSEC
  0
SECTION
  2
BLOCKS
  0
BLOCK
  5
20
330
1F
100
AcDbEntity
  8
0
100
AcDbBlockBegin
  2
*Model_Space
 70
     0
 71
     0
 10
0.0
 20
0.0
 30
0.0
  3
*Model_Space
  1

  0
ENDBLK
  5
21
330
1F
100
AcDbEntity
  8
0
100
AcDbBlockEnd
  0
BLOCK
  5
75
330
73
100
AcDbEntity
 67
     1
  8
0
100
AcDbBlockBegin
  2
*Paper_Space
 70
     0
 71
     0
 10
0.0
 20
0.0
 30
0.0
  3
*Paper_Space
  1

  0
ENDBLK
  5
76
330
73
100
AcDbEntity
 67
     1
  8
0
100
AcDbBlockEnd
  0
BLOCK
  5
1739
330
11CA
100
AcDbEntity
  8
0
100
AcDbBlockBegin
  2
NYTITTEL
 70
     2
 71
     0
 10
0.0
 20
0.0
 30
0.0
  3
NYTITTEL
  1

  0
ATTDEF
  5
11CB
330
11CA
100
AcDbEntity
  8
TITTEXT
 62
     1
100
AcDbText
 10
-69.24623194126616
 20
1.491790607145319
 30
0.0
 40
4.7
  1

 41
1.738632422466427
  7
ROMANC
 72
     5
 11
-15.93645018764084
 21
1.491790607145319
 31
0.0
100
AcDbAttributeDefinition
  3
Gi tegn.nr.
  2
TEGN.NR
 70
     0
280
     0
  0
ATTDEF
  5
11CC
330
11CA
100
AcDbEntity
  8
TITTEXT
 62
     1
100
AcDbText
 10
-141.7326973393061
 20
40.82533385387639
 30
0.0
 40
4.0
  1

 41
1.6809390643035
 72
     5
 11
-118.0394610043615
 21
40.82533385387639
 31
0.0
100
AcDbAttributeDefinition
  3
Gi dato
  2
DATO
 70
     0
280
     0
  0
ATTDEF
  5
11CD
330
11CA
100
AcDbEntity
  8
TITTEXT
 62
     1
100
AcDbText
 10
-180.2579999369871
 20
20.22593149532933
 30
0.0
 40
4.0
  1

100
AcDbAttributeDefinition
  3
GI tekst 1 av 3
  2
LINJE1
 70
     0
280
     0
  0
ATTDEF
  5
11CE
330
11CA
100
AcDbEntity
  8
TITTEXT
 62
     1
100
AcDbText
 10
-180.5697530466574
 20
11.47457660127472
 30
0.0
 40
4.0
  1

100
AcDbAttributeDefinition
  3
Gi text 2 av 3
  2
LINJE2
 70
     0
280
     0
  0
ATTDEF
  5
11CF
330
11CA
100
AcDbEntity
  8
TITTEXT
 62
     1
100
AcDbText
 10
-180.5697530466574
 20
2.821736678261829
 30
0.0
 40
4.0
  1

  7
ROMANC
100
AcDbAttributeDefinition
  3
Gi text 3 av 3
  2
LINJE3
 70
     0
280
     0
  0
ATTDEF
  5
11D0
330
11CA
100
AcDbEntity
  8
TITTEXT
 62
     1
100
AcDbText
 10
-181.6496312696722
 20
40.79546677293718
 30
0.0
 40
4.0
  1
NS 1430 Grov
 41
0.8357298030664062
 72
     5
 11
-144.8775199347503
 21
40.79546677293718
 31
0.0
100
AcDbAttributeDefinition
  3
Gi toleranse
  2
TOLERANSE
 70
     0
280
     0
  0
TEXT
  5
11D1
330
11CA
100
AcDbEntity
  8
TITTEXT
  6
Continuous
100
AcDbText
 10
-69.10343731001751
 20
8.626187841844711
 30
0.0
 40
2.0
  1
Tegn.Nr
100
AcDbText
  0
TEXT
  5
11D2
330
11CA
100
AcDbEntity
  8
TITTEXT
  6
Continuous
100
AcDbText
 10
-141.6055620444255
 20
47.29186086155432
 30
0.0
 40
2.0
  1
Dato
100
AcDbText
  0
TEXT
  5
11D3
330
11CA
100
AcDbEntity
  8
TITTEXT
  6
Continuous
100
AcDbText
 10
-91.55191673091852
 20
47.18445351569319
 30
0.0
 40
2.0
  1
Målestokk
 41
1.461509461800674
 72
     5
 11
-70.85694275182098
 21
47.18445351569319
 31
0.0
100
AcDbText
  0
LINE
  5
11D4
330
11CA
100
AcDbEntity
  8
TIT5
  6
Continuous
100
AcDbLine
 10
-69.96039999999994
 20
50.0676
 30
0.0
 11
-69.96040000000005
 21
0.0
 31
0.0
  0
LINE
  5
11D5
330
11CA
100
AcDbEntity
  8
TIT5
  6
Continuous
100
AcDbLine
 10
0.0
 20
50.0676
 30
0.0
 11
-182.9195568377425
 21
50.0676
 31
0.0
  0
LINE
  5
11D6
330
11CA
100
AcDbEntity
  8
TIT5
  6
Continuous
100
AcDbLine
 10
0.0
 20
29.982
 30
0.0
 11
-182.9195568377425
 21
29.982
 31
0.0
  0
LINE
  5
11D7
330
11CA
100
AcDbEntity
  8
TIT3
100
AcDbLine
 10
-21.51400939457073
 20
11.482
 30
0.0
 11
-21.51400939457073
 21
29.982
 31
0.0
  0
LINE
  5
11D8
330
11CA
100
AcDbEntity
  8
TIT3
100
AcDbLine
 10
-92.92514395021168
 20
40.0248
 30
0.0
 11
-182.9195568377425
 21
40.0248
 31
0.0
  0
LINE
  5
11D9
330
11CA
100
AcDbEntity
  8
TIT3
100
AcDbLine
 10
-114.5680053875333
 20
29.982
 30
0.0
 11
-114.5680053875332
 21
50.0676
 31
0.0
  0
LINE
  5
11DA
330
11CA
100
AcDbEntity
  8
TIT3
100
AcDbLine
 10
-142.8771568377425
 20
50.0676
 30
0.0
 11
-142.8771568377425
 21
29.982
 31
0.0
  0
TEXT
  5
11DB
330
11CA
100
AcDbEntity
  8
TITTEXT
100
AcDbText
 10
-181.167086450043
 20
46.90759060821532
 30
0.0
 40
2.0
  1
Toleranse
 72
     2
 11
-167.487086450043
 21
46.90759060821532
 31
0.0
100
AcDbText
  0
TEXT
  5
11DC
330
11CA
100
AcDbEntity
  8
TITTEXT
100
AcDbText
 10
-113.1770069197315
 20
47.00610557925702
 30
0.0
 40
2.0
  1
Godkj.
 72
     2
 11
-104.4170069197315
 21
47.00610557925702
 31
0.0
100
AcDbText
  0
TEXT
  5
11DD
330
11CA
100
AcDbEntity
  8
TITTEXT
100
AcDbText
 10
-113.1524146752855
 20
36.855850712696
 30
0.0
 40
2.0
  1
Sign.
 72
     2
 11
-106.3124146752855
 21
36.855850712696
 31
0.0
100
AcDbText
  0
TEXT
  5
11DE
330
11CA
100
AcDbEntity
  8
TITTEXT
100
AcDbText
 10
-20.801715864528
 20
17.71289834513043
 30
0.0
 40
2.0
  1
Erst. for
 72
     2
 11
-7.961715864528003
 21
17.71289834513043
 31
0.0
100
AcDbText
  0
TEXT
  5
11DF
330
11CA
100
AcDbEntity
  8
TITTEXT
100
AcDbText
 10
-20.80805041591818
 20
26.91904293740981
 30
0.0
 40
2.0
  1
Erst. av
 72
     2
 11
-8.908050415918183
 21
26.91904293740981
 31
0.0
100
AcDbText
  0
LINE
  5
11E0
330
11CA
100
AcDbEntity
  8
TIT3
100
AcDbLine
 10
0.0
 20
20.732
 30
0.0
 11
-21.51400939457073
 21
20.732
 31
0.0
  0
LINE
  5
11E1
330
11CA
100
AcDbEntity
  8
TIT5
100
AcDbLine
 10
-69.96040000000005
 20
11.482
 30
0.0
 11
0.0
 21
11.482
 31
0.0
  0
TEXT
  5
11E2
330
11CA
100
AcDbEntity
  8
TITTEXT
100
AcDbText
 10
-141.555008927983
 20
36.86986493459284
 30
0.0
 40
2.0
  1
Henvisning
100
AcDbText
  0
LINE
  5
11E3
330
11CA
100
AcDbEntity
  8
TIT3
  6
Continuous
100
AcDbLine
 10
-12.0
 20
0.0
 30
0.0
 11
-12.0
 21
11.482
 31
0.0
  0
TEXT
  5
11E4
330
11CA
100
AcDbEntity
  8
TITTEXT
100
AcDbText
 10
-10.82279055378638
 20
8.45347094915094
 30
0.0
 40
2.0
  1
Rev.
 41
1.392711486499723
 72
     5
 11
-2.717209702357991
 21
8.45347094915094
 31
0.0
100
AcDbText
  0
LINE
  5
11E5
330
11CA
100
AcDbEntity
  8
TITLOGO
100
AcDbLine
 10
-48.97099281931298
 20
39.71625216430618
 30
0.0
 11
-48.97099281931298
 21
39.71625216430618
 31
0.0
  0
LWPOLYLINE
  5
11E6
330
11CA
100
AcDbEntity
  8
TITLOGO
100
AcDbPolyline
 90
        4
 70
     1
 43
0.0
 10
-55.12924281931294
 20
47.1941271643062
 10
-52.3433678193129
 20
47.1941271643062
 10
-52.34336781931302
 20
44.40825216430619
 10
-55.12924281931294
 20
44.40825216430619
  0
LWPOLYLINE
  5
11E7
330
11CA
100
AcDbEntity
  8
TITLOGO
100
AcDbPolyline
 90
        4
 70
     1
 43
0.0
 10
-55.12924281931294
 20
43.67512716430619
 10
-52.34336781931302
 20
43.67512716430619
 10
-52.34336781931302
 20
34.14450216430619
 10
-55.12924281931294
 20
34.14450216430619
  0
LWPOLYLINE
  5
11E8
330
11CA
100
AcDbEntity
  8
TITLOGO
100
AcDbPolyline
 90
       16
 70
     1
 43
0.0
 10
-42.66611781931294
 20
43.67512716430619
 10
-43.83911781931306
 20
43.67512716430619
 10
-43.83911781931295
 20
41.18250216430617
 10
-42.66611781931294
 20
41.18250216430617
 10
-42.66611781931306
 20
36.19725216430621
 42
0.4142135623730943
 10
-40.613367819313
 20
34.14450216430619
 10
-38.70724281931291
 20
34.14450216430619
 10
-38.70724281931291
 20
36.49050216430619
 10
-39.29374281931291
 20
36.49050216430619
 42
-0.414213562373095
 10
-39.88024281931291
 20
37.07700216430621
 10
-39.88024281931291
 20
41.18250216430617
 10
-38.70724281931291
 20
41.18250216430617
 10
-38.70724281931291
 20
43.67512716430619
 10
-39.88024281931291
 20
43.67512716430619
 10
-39.88024281931291
 20
46.60762716430621
 10
-42.66611781931294
 20
46.60762716430621
  0
LWPOLYLINE
  5
11E9
330
11CA
100
AcDbEntity
  8
TITLOGO
100
AcDbPolyline
 90
       10
 70
     1
 43
0.0
 10
-38.26736781931299
 20
34.14450216430619
 10
-38.26736781931299
 20
43.67512716430619
 10
-35.48149281931296
 20
43.67512716430619
 10
-35.48149281931296
 20
42.35550216430617
 42
-0.2543787227385051
 10
-33.64884860200516
 20
43.67512716430581
 10
-32.69561781931293
 20
43.67512716430619
 10
-32.69561781931293
 20
41.32912716430619
 10
-32.98886781931299
 20
41.32912716430619
 42
0.3905993853567616
 10
-35.48149281931296
 20
38.5432521643062
 10
-35.48149281931296
 20
34.14450216430619
  0
LWPOLYLINE
  5
11EA
330
11CA
100
AcDbEntity
  8
TITLOGO
100
AcDbPolyline
 90
       20
 70
     0
 43
0.0
 10
-29.7166282987223
 20
41.2507466290658
 42
0.379473448914867
 10
-30.34961781931293
 20
40.59600216430619
 10
-32.98886781931299
 20
40.59600216430619
 10
-32.69561781931293
 20
41.32912716430619
 42
-0.3274066131215764
 10
-29.90974281931301
 20
43.67512716430615
 10
-27.85699281931295
 20
43.67512716430613
 42
-0.3949778487510142
 10
-24.48461781931292
 20
40.59600216430614
 10
-24.48461781931292
 20
35.25209684983969
 42
0.056951946194459
 10
-24.43169652505594
 20
34.78899026363499
 10
-24.28245040078912
 20
34.14450216430619
 10
-27.06832540078904
 20
34.14450216430619
 10
-27.27049281931272
 20
35.01751977833575
 42
-0.2186532576860458
 10
-29.19699427028706
 20
34.14450216430619
 10
-30.49624148385089
 20
34.1445021643065
 42
-0.9196372788771361
 10
-30.98472860966478
 20
39.968530805462
 10
-27.63709495076023
 20
40.37310096542402
 42
0.3660032853380205
 10
-27.27049281931295
 20
40.80683026159738
 10
-27.27049281931295
 20
40.71903256884092
 42
0.3043116803459277
 10
-27.63446517915713
 20
41.26167766406107
 42
0.2561420566528492
 10
-29.72739989511786
 20
41.24620470614481
 42
0.2000773934777471
  0
ARC
  5
11EB
330
11CA
100
AcDbEntity
  8
TITLOGO
100
AcDbCircle
 10
-30.34066159576798
 20
37.34328841538027
 30
0.0
 40
0.3034067324656107
100
AcDbArc
 50
112.4246900569293
 51
174.9013990403172
  0
ARC
  5
11EC
330
11CA
100
AcDbEntity
  8
TITLOGO
100
AcDbCircle
 10
-28.38728647747325
 20
37.60489579890201
 30
0.0
 40
1.11679367081117
100
AcDbArc
 50
266.2430288263793
 51
359.9913759562492
  0
LWPOLYLINE
  5
11ED
330
11CA
100
AcDbEntity
  8
TITLOGO
100
AcDbPolyline
 90
        3
 70
     0
 43
0.0
 10
-30.64286781931298
 20
37.37025216430618
 42
0.4142135623730885
 10
-29.76311781931304
 20
36.49050216430619
 10
-28.31410908797761
 20
36.49050216430619
 42
0.457422358137597
  0
LWPOLYLINE
  5
11EE
330
11CA
100
AcDbEntity
  8
TITLOGO
100
AcDbPolyline
 90
        4
 70
     0
 43
0.0
 10
-27.27049281931295
 20
37.60472770354154
 10
-27.27049281931295
 20
38.30191291453687
 42
-0.1626173210226224
 10
-27.6072839686268
 20
38.10949600017294
 10
-30.45640178244582
 20
37.62375205740504
 42
0.5166139189045675
  0
LWPOLYLINE
  5
11EF
330
11CA
100
AcDbEntity
  8
TITLOGO
100
AcDbPolyline
 90
       10
 70
     1
 43
0.0
 10
-46.62499281931298
 20
39.71625216430618
 42
1.007843017112507
 10
-48.97099281931298
 20
39.71625216430618
 10
-48.97099281931298
 20
34.14450216430619
 10
-51.75686781931302
 20
34.14450216430619
 10
-51.75686781931302
 20
43.67512716430619
 10
-48.97099281931298
 20
43.67512716430619
 10
-48.97099281931298
 20
42.64875216430619
 42
-0.7714530828112528
 10
-44.132367819313
 20
40.44937716430618
 10
-44.132367819313
 20
34.14450216430619
 10
-46.62499281931298
 20
34.14450216430619
  0
CIRCLE
  5
11F0
330
11CA
100
AcDbEntity
  8
TITLOGO
100
AcDbCircle
 10
-22.44423780561078
 20
44.97010325138288
 30
0.0
 40
2.199375
  0
TEXT
  5
11F1
330
11CA
100
AcDbEntity
  8
TITLOGO
100
AcDbText
 10
-23.45256040100139
 20
43.92676991234262
 30
0.0
 40
1.720685780777585
  1
R
 41
1.224347040717559
 72
     5
 11
-21.64078417341955
 21
43.92676991234262
 31
0.0
100
AcDbText
  0
LINE
  5
11F2
330
11CA
100
AcDbEntity
  8
TIT3
100
AcDbLine
 10
-92.92514395021173
 20
29.982
 30
0.0
 11
-92.92514395021162
 21
50.0676
 31
0.0
  0
ATTDEF
  5
11F3
330
11CA
100
AcDbEntity
  8
TITTEXT
 62
     1
100
AcDbText
 10
-90.75296647038938
 20
39.92102544559865
 30
0.0
 40
4.0
  1
1 : 1
 41
1.133746097432732
 72
     5
 11
-72.8289805490719
 21
39.92102544559865
 31
0.0
100
AcDbAttributeDefinition
  3
GI MÅLESTOKK
  2
MÅLESTOKK
 70
     0
280
     0
  0
TEXT
  5
11F4
330
11CA
100
AcDbEntity
  8
TITTEXT
100
AcDbText
 10
-181.3611936703865
 20
36.87468455854161
 30
0.0
 40
2.0
  1
File
 72
     2
 11
-176.7011936703865
 21
36.87468455854161
 31
0.0
100
AcDbText
  0
LINE
  5
11F5
330
11CA
100
AcDbEntity
  8
TIT3
100
AcDbLine
 10
-162.7174095923384
 20
40.0248
 30
0.0
 11
-162.7174095923384
 21
29.982
 31
0.0
  0
TEXT
  5
11F6
330
11CA
100
AcDbEntity
  8
TITTEXT
100
AcDbText
 10
-161.5699039480799
 20
36.87468455854161
 30
0.0
 40
1.7
  1
CAD-Drawing
 72
     2
 11
-145.1479039480799
 21
36.87468455854161
 31
0.0
100
AcDbText
  0
CIRCLE
  5
11F7
330
11CA
100
AcDbEntity
  8
TITTEXT
 62
     1
100
AcDbCircle
 10
-156.2095991825164
 20
32.99490621920847
 30
0.0
 40
2.0
  0
CIRCLE
  5
11F8
330
11CA
100
AcDbEntity
  8
TITTEXT
 62
     1
100
AcDbCircle
 10
-156.2095991825164
 20
32.99490621920847
 30
0.0
 40
1.0
  0
LINE
  5
11F9
330
11CA
100
AcDbEntity
  8
TITTEXT
 62
     1
100
AcDbLine
 10
-151.7059835265652
 20
34.99490621920848
 30
0.0
 11
-151.7059835265652
 21
30.99490621920847
 31
0.0
  0
LINE
  5
11FA
330
11CA
100
AcDbEntity
  8
TITTEXT
 62
     1
100
AcDbLine
 10
-147.7059835265652
 20
33.99490621920847
 30
0.0
 11
-147.7059835265652
 21
31.99490621920847
 31
0.0
  0
LINE
  5
11FB
330
11CA
100
AcDbEntity
  8
TITTEXT
 62
     1
100
AcDbLine
 10
-151.7059835265652
 20
34.99490621920847
 30
0.0
 11
-147.7059835265652
 21
33.99490621920847
 31
0.0
  0
LINE
  5
11FC
330
11CA
100
AcDbEntity
  8
TITTEXT
 62
     1
100
AcDbLine
 10
-151.7059835265652
 20
30.99490621920847
 30
0.0
 11
-147.7059835265652
 21
31.99490621920847
 31
0.0
  0
LINE
  5
11FD
330
11CA
100
AcDbEntity
  8
TITTEXT
  6
CENTER
100
AcDbLine
 10
-158.9284650753107
 20
32.99490621920847
 30
0.0
 11
-146.9879424206737
 21
32.99490621920847
 31
0.0
  0
LINE
  5
11FE
330
11CA
100
AcDbEntity
  8
TITTEXT
  6
CENTER
100
AcDbLine
 10
-156.2095991825164
 20
35.71377211200271
 30
0.0
 11
-156.2095991825164
 21
30.27604032641424
 31
0.0
  0
ATTDEF
  5
11FF
330
11CA
100
AcDbEntity
  8
TITTEXT
100
AcDbText
 10
-181.7256497314158
 20
31.90164716256084
 30
0.0
 40
2.0
  1

 41
2.959148619085432
 72
     5
 11
-164.8162290509276
 21
31.90164716256084
 31
0.0
100
AcDbAttributeDefinition
  3
GI FILE
  2
FILE
 70
     0
280
     0
  0
ATTDEF
  5
1200
330
11CA
100
AcDbEntity
  8
TITTEXT
 62
     1
100
AcDbText
 10
-141.4812285118539
 20
30.85564129955591
 30
0.0
 40
4.0
  1

 41
0.7538389778228805
 72
     5
 11
-115.7789090775119
 21
30.85564129955591
 31
0.0
100
AcDbAttributeDefinition
  3
GI HENVISNING
  2
HENVISNING
 70
     0
280
     0
  0
TEXT
  5
1201
330
11CA
100
AcDbEntity
  8
TITTEXT
100
AcDbText
 10
-68.96371879326756
 20
27.25314362427463
 30
0.0
 40
1.5
  1
THIS DRAWING AND DESIGN IS THE PROPERTY
 41
0.85
100
AcDbText
  0
TEXT
  5
1202
330
11CA
100
AcDbEntity
  8
TITTEXT
100
AcDbText
 10
-68.96371879326756
 20
24.75314362427463
 30
0.0
 40
1.5
  1
OF INTRA AND MUST NOT BE IMPARTED TO ANY
 41
0.82
100
AcDbText
  0
TEXT
  5
1203
330
11CA
100
AcDbEntity
  8
TITTEXT
100
AcDbText
 10
-68.96371879326756
 20
22.25314362427463
 30
0.0
 40
1.5
  1
THIRD PART WITHOUT PERMISSION.
 41
0.85
100
AcDbText
  0
TEXT
  5
1204
330
11CA
100
AcDbEntity
  8
TITTEXT
100
AcDbText
 10
-68.96371879326756
 20
18.19084504124961
 30
0.0
 40
1.5
  1
DENNE TEGNING OG DESIGN TILHØRER INTRA OG
 41
0.82
100
AcDbText
  0
TEXT
  5
1205
330
11CA
100
AcDbEntity
  8
TITTEXT
100
AcDbText
 10
-68.96371879326756
 20
15.69084504124961
 30
0.0
 40
1.5
  1
MÅ IKKE KOPIERES, UTLEVERES, ELLER FORE-
 41
0.85
100
AcDbText
  0
TEXT
  5
1206
330
11CA
100
AcDbEntity
  8
TITTEXT
100
AcDbText
 10
-68.96371879326756
 20
13.19084504124961
 30
0.0
 40
1.5
  1
LEGGES ANDRE UTEN INTRA'S SAMTYKKE.
 41
0.85
100
AcDbText
  0
ATTDEF
  5
1207
330
11CA
100
AcDbEntity
  8
TITTEXT
 62
     1
100
AcDbText
 10
-7.653938137620543
 20
1.456156026929595
 30
0.0
 40
5.0
  1

 41
0.8
100
AcDbAttributeDefinition
  3
GI REVISJONSNR
  2
REV
 70
     0
280
     0
  0
LINE
  5
1208
330
11CA
100
AcDbEntity
  8
TIT5
100
AcDbLine
 10
-182.9195568377425
 20
50.0676
 30
0.0
 11
-182.9195568377425
 21
0.0
 31
0.0
  0
ENDBLK
  5
173A
330
11CA
100
AcDbEntity
  8
0
100
AcDbBlockEnd
  0
BLOCK
  5
173B
330
126C
100
AcDbEntity
  8
0
100
AcDbBlockBegin
  2
*D1
 70
     1
 71
     0
 10
0.0
 20
0.0
 30
0.0
  3
*D1
  1

  0
LINE
  5
1697
330
126C
100
AcDbEntity
  8
DIM
 62
     0
370
    -2
100
AcDbLine
 10
577.1004207094693
 20
2130.661960122919
 30
0.0
 11
577.1004207094693
 21
2188.671933731613
 31
0.0
  0
LINE
  5
1698
330
126C
100
AcDbEntity
  8
DIM
 62
     0
370
    -2
100
AcDbLine
 10
387.2268307094693
 20
2086.046160122919
 30
0.0
 11
387.2268307094693
 21
2188.671933731613
 31
0.0
  0
LINE
  5
1699
330
126C
100
AcDbEntity
  8
DIM
 62
     0
370
    -2
100
AcDbLine
 10
542.1004207094693
 20
2178.671933731613
 30
0.0
 11
422.2268307094693
 21
2178.671933731613
 31
0.0
  0
SOLID
  5
169A
330
126C
100
AcDbEntity
  8
DIM
 62
     0
100
AcDbTrace
 10
542.1004207094693
 20
2184.505267064946
 30
0.0
 11
542.1004207094693
 21
2172.838600398279
 31
0.0
 12
577.1004207094693
 22
2178.671933731613
 32
0.0
 13
577.1004207094693
 23
2178.671933731613
 33
0.0
  0
SOLID
  5
169B
330
126C
100
AcDbEntity
  8
DIM
 62
     0
100
AcDbTrace
 10
422.2268307094693
 20
2184.505267064946
 30
0.0
 11
422.2268307094693
 21
2172.838600398279
 31
0.0
 12
387.2268307094693
 22
2178.671933731613
 32
0.0
 13
387.2268307094693
 23
2178.671933731613
 33
0.0
  0
MTEXT
  5
169C
330
126C
100
AcDbEntity
  8
DIM
 62
     0
100
AcDbMText
 10
482.1636257094693
 20
2216.541988301872
 30
0.0
 40
35.0
 41
0.0
 46
0.0
 71
     5
 72
     1
  1
\A1;{\fArial|b0|i0|c0|p34;190}
 73
     1
 44
1.0
  0
POINT
  5
169D
330
126C
100
AcDbEntity
  8
Defpoints
 62
     0
100
AcDbPoint
 10
577.1004207094693
 20
2120.661960122919
 30
0.0
  0
POINT
  5
169E
330
126C
100
AcDbEntity
  8
Defpoints
 62
     0
100
AcDbPoint
 10
387.2268307094693
 20
2076.046160122919
 30
0.0
  0
POINT
  5
169F
330
126C
100
AcDbEntity
  8
Defpoints
 62
     0
100
AcDbPoint
 10
387.2268307094693
 20
2178.671933731613
 30
0.0
  0
ENDBLK
  5
173C
330
126C
100
AcDbEntity
  8
0
100
AcDbBlockEnd
  0
BLOCK
  5
173D
330
1279
100
AcDbEntity
  8
0
100
AcDbBlockBegin
  2
*D2
 70
     1
 71
     0
 10
0.0
 20
0.0
 30
0.0
  3
*D2
  1

  0
LINE
  5
1672
330
1279
100
AcDbEntity
  8
DIM
 62
     0
370
    -2
100
AcDbLine
 10
587.1004207094693
 20
2120.661960122919
 30
0.0
 11
666.823388216466
 21
2120.661960122919
 31
0.0
  0
LINE
  5
1673
330
1279
100
AcDbEntity
  8
DIM
 62
     0
370
    -2
100
AcDbLine
 10
577.1004807094691
 20
1520.661960122919
 30
0.0
 11
666.8233882164659
 21
1520.661960122919
 31
0.0
  0
LINE
  5
1674
330
1279
100
AcDbEntity
  8
DIM
 62
     0
370
    -2
100
AcDbLine
 10
656.823388216466
 20
2085.661960122919
 30
0.0
 11
656.8233882164659
 21
1555.661960122919
 31
0.0
  0
SOLID
  5
1675
330
1279
100
AcDbEntity
  8
DIM
 62
     0
100
AcDbTrace
 10
650.9900548831326
 20
2085.661960122919
 30
0.0
 11
662.6567215497994
 21
2085.661960122919
 31
0.0
 12
656.823388216466
 22
2120.661960122919
 32
0.0
 13
656.823388216466
 23
2120.661960122919
 33
0.0
  0
SOLID
  5
1676
330
1279
100
AcDbEntity
  8
DIM
 62
     0
100
AcDbTrace
 10
650.9900548831325
 20
1555.661960122919
 30
0.0
 11
662.6567215497993
 21
1555.661960122919
 31
0.0
 12
656.8233882164659
 22
1520.661960122919
 32
0.0
 13
656.8233882164659
 23
1520.661960122919
 33
0.0
  0
MTEXT
  5
1677
330
1279
100
AcDbEntity
  8
DIM
 62
     0
100
AcDbMText
 10
618.9533336462065
 20
1820.661960122919
 30
0.0
 40
35.0
 41
0.0
 46
0.0
 71
     5
 72
     1
  1
\A1;{\fArial|b0|i0|c0|p34;600}
 11
6.123031769111886E-17
 21
1.0
 31
0.0
 73
     1
 44
1.0
  0
POINT
  5
1678
330
1279
100
AcDbEntity
  8
Defpoints
 62
     0
100
AcDbPoint
 10
577.1004207094693
 20
2120.661960122919
 30
0.0
  0
POINT
  5
1679
330
1279
100
AcDbEntity
  8
Defpoints
 62
     0
100
AcDbPoint
 10
567.1004807094691
 20
1520.661960122919
 30
0.0
  0
POINT
  5
167A
330
1279
100
AcDbEntity
  8
Defpoints
 62
     0
100
AcDbPoint
 10
656.8233882164659
 20
1520.661960122919
 30
0.0
  0
ENDBLK
  5
173E
330
1279
100
AcDbEntity
  8
0
100
AcDbBlockEnd
  0
BLOCK
  5
173F
330
1286
100
AcDbEntity
  8
0
100
AcDbBlockBegin
  2
*D3
 70
     1
 71
     0
 10
0.0
 20
0.0
 30
0.0
  3
*D3
  1

  0
LINE
  5
16A0
330
1286
100
AcDbEntity
  8
DIM
 62
     0
370
    -2
100
AcDbLine
 10
447.2567007094691
 20
1510.661960122919
 30
0.0
 11
447.2567007094691
 21
1420.109077320568
 31
0.0
  0
LINE
  5
16A1
330
1286
100
AcDbEntity
  8
DIM
 62
     0
370
    -2
100
AcDbLine
 10
577.1004807094691
 20
1515.661960637941
 30
0.0
 11
577.1004807094691
 21
1420.109077320568
 31
0.0
  0
LINE
  5
16A2
330
1286
100
AcDbEntity
  8
DIM
 62
     0
370
    -2
100
AcDbLine
 10
482.2567007094691
 20
1430.109077320568
 30
0.0
 11
542.1004807094691
 21
1430.109077320568
 31
0.0
  0
SOLID
  5
16A3
330
1286
100
AcDbEntity
  8
DIM
 62
     0
100
AcDbTrace
 10
482.2567007094691
 20
1435.942410653901
 30
0.0
 11
482.2567007094691
 21
1424.275743987235
 31
0.0
 12
447.2567007094691
 22
1430.109077320568
 32
0.0
 13
447.2567007094691
 23
1430.109077320568
 33
0.0
  0
SOLID
  5
16A4
330
1286
100
AcDbEntity
  8
DIM
 62
     0
100
AcDbTrace
 10
542.1004807094691
 20
1435.942410653901
 30
0.0
 11
542.1004807094691
 21
1424.275743987235
 31
0.0
 12
577.1004807094691
 22
1430.109077320568
 32
0.0
 13
577.1004807094691
 23
1430.109077320568
 33
0.0
  0
MTEXT
  5
16A5
330
1286
100
AcDbEntity
  8
DIM
 62
     0
100
AcDbMText
 10
512.1785907094691
 20
1467.609077320568
 30
0.0
 40
35.0
 41
0.0
 46
0.0
 71
     5
 72
     1
  1
\A1;130
 73
     1
 44
1.0
  0
POINT
  5
16A6
330
1286
100
AcDbEntity
  8
Defpoints
 62
     0
100
AcDbPoint
 10
447.2567007094691
 20
1520.661960122919
 30
0.0
  0
POINT
  5
16A7
330
1286
100
AcDbEntity
  8
Defpoints
 62
     0
100
AcDbPoint
 10
577.1004807094691
 20
1525.661960637941
 30
0.0
  0
POINT
  5
16A8
330
1286
100
AcDbEntity
  8
Defpoints
 62
     0
100
AcDbPoint
 10
577.1004807094691
 20
1430.109077320568
 30
0.0
  0
ENDBLK
  5
1740
330
1286
100
AcDbEntity
  8
0
100
AcDbBlockEnd
  0
BLOCK
  5
1741
330
1298
100
AcDbEntity
  8
0
100
AcDbBlockBegin
  2
*D4
 70
     1
 71
     0
 10
0.0
 20
0.0
 30
0.0
  3
*D4
  1

  0
LINE
  5
1636
330
1298
100
AcDbEntity
  8
DIM
 62
     0
370
    -2
100
AcDbLine
 10
1514.005980709469
 20
2081.907460122919
 30
0.0
 11
1514.005980709469
 21
2225.90801823009
 31
0.0
  0
LINE
  5
1637
330
1298
100
AcDbEntity
  8
DIM
 62
     0
370
    -2
100
AcDbLine
 10
1214.337980709469
 20
2075.96556012292
 30
0.0
 11
1214.337980709469
 21
2225.90801823009
 31
0.0
  0
LINE
  5
1638
330
1298
100
AcDbEntity
  8
DIM
 62
     0
370
    -2
100
AcDbLine
 10
1479.005980709469
 20
2215.90801823009
 30
0.0
 11
1249.337980709469
 21
2215.90801823009
 31
0.0
  0
SOLID
  5
1639
330
1298
100
AcDbEntity
  8
DIM
 62
     0
100
AcDbTrace
 10
1479.005980709469
 20
2221.741351563424
 30
0.0
 11
1479.005980709469
 21
2210.074684896757
 31
0.0
 12
1514.005980709469
 22
2215.90801823009
 32
0.0
 13
1514.005980709469
 23
2215.90801823009
 33
0.0
  0
SOLID
  5
163A
330
1298
100
AcDbEntity
  8
DIM
 62
     0
100
AcDbTrace
 10
1249.337980709469
 20
2221.741351563424
 30
0.0
 11
1249.337980709469
 21
2210.074684896757
 31
0.0
 12
1214.337980709469
 22
2215.90801823009
 32
0.0
 13
1214.337980709469
 23
2215.90801823009
 33
0.0
  0
MTEXT
  5
163B
330
1298
100
AcDbEntity
  8
DIM
 62
     0
100
AcDbMText
 10
1364.171980709469
 20
2253.790010044552
 30
0.0
 40
35.0
 41
0.0
 46
0.0
 71
     5
 72
     1
  1
\A1;{\fArial|b0|i0|c0|p34;300}
 73
     1
 44
1.0
  0
POINT
  5
163C
330
1298
100
AcDbEntity
  8
Defpoints
 62
     0
100
AcDbPoint
 10
1514.005980709469
 20
2071.907460122919
 30
0.0
  0
POINT
  5
163D
330
1298
100
AcDbEntity
  8
Defpoints
 62
     0
100
AcDbPoint
 10
1214.337980709469
 20
2065.96556012292
 30
0.0
  0
POINT
  5
163E
330
1298
100
AcDbEntity
  8
Defpoints
 62
     0
100
AcDbPoint
 10
1214.337980709469
 20
2215.90801823009
 30
0.0
  0
ENDBLK
  5
1742
330
1298
100
AcDbEntity
  8
0
100
AcDbBlockEnd
  0
BLOCK
  5
1743
330
12A5
100
AcDbEntity
  8
0
100
AcDbBlockBegin
  2
*D5
 70
     1
 71
     0
 10
0.0
 20
0.0
 30
0.0
  3
*D5
  1

  0
LINE
  5
1651
330
12A5
100
AcDbEntity
  8
DIM
 62
     0
370
    -2
100
AcDbLine
 10
2990.971480709469
 20
1620.66116012292
 30
0.0
 11
2877.334657392405
 21
1620.66116012292
 31
0.0
  0
LINE
  5
1652
330
12A5
100
AcDbEntity
  8
DIM
 62
     0
370
    -2
100
AcDbLine
 10
2941.397780709469
 20
1520.661260122919
 30
0.0
 11
2877.334657392405
 21
1520.661260122919
 31
0.0
  0
LINE
  5
1653
330
12A5
100
AcDbEntity
  8
DIM
 62
     0
370
    -2
100
AcDbLine
 10
2887.334657392405
 20
1655.66116012292
 30
0.0
 11
2887.334657392405
 21
1690.66116012292
 31
0.0
  0
LINE
  5
1654
330
12A5
100
AcDbEntity
  8
DIM
 62
     0
370
    -2
100
AcDbLine
 10
2887.334657392405
 20
1485.661260122919
 30
0.0
 11
2887.334657392405
 21
1325.661260122919
 31
0.0
  0
LINE
  5
1655
330
12A5
100
AcDbEntity
  8
DIM
 62
     0
370
    -2
100
AcDbLine
 10
2887.334657392405
 20
1620.66116012292
 30
0.0
 11
2887.334657392405
 21
1520.661260122919
 31
0.0
  0
SOLID
  5
1656
330
12A5
100
AcDbEntity
  8
DIM
 62
     0
100
AcDbTrace
 10
2881.501324059071
 20
1655.66116012292
 30
0.0
 11
2893.167990725738
 21
1655.66116012292
 31
0.0
 12
2887.334657392405
 22
1620.66116012292
 32
0.0
 13
2887.334657392405
 23
1620.66116012292
 33
0.0
  0
SOLID
  5
1657
330
12A5
100
AcDbEntity
  8
DIM
 62
     0
100
AcDbTrace
 10
2881.501324059071
 20
1485.661260122919
 30
0.0
 11
2893.167990725738
 21
1485.661260122919
 31
0.0
 12
2887.334657392405
 22
1520.661260122919
 32
0.0
 13
2887.334657392405
 23
1520.661260122919
 33
0.0
  0
MTEXT
  5
1658
330
12A5
100
AcDbEntity
  8
DIM
 62
     0
100
AcDbMText
 10
2849.834657392404
 20
1388.16126012292
 30
0.0
 40
35.0
 41
0.0
 46
0.0
 71
     5
 72
     1
  1
\A1;100
 11
6.123031769111886E-17
 21
1.0
 31
0.0
 73
     1
 44
1.0
  0
POINT
  5
1659
330
12A5
100
AcDbEntity
  8
Defpoints
 62
     0
100
AcDbPoint
 10
3000.971480709469
 20
1620.66116012292
 30
0.0
  0
POINT
  5
165A
330
12A5
100
AcDbEntity
  8
Defpoints
 62
     0
100
AcDbPoint
 10
2951.397780709469
 20
1520.661260122919
 30
0.0
  0
POINT
  5
165B
330
12A5
100
AcDbEntity
  8
Defpoints
 62
     0
100
AcDbPoint
 10
2887.334657392405
 20
1520.661260122919
 30
0.0
  0
ENDBLK
  5
1744
330
12A5
100
AcDbEntity
  8
0
100
AcDbBlockEnd
  0
BLOCK
  5
1745
330
12B2
100
AcDbEntity
  8
0
100
AcDbBlockBegin
  2
*D6
 70
     1
 71
     0
 10
0.0
 20
0.0
 30
0.0
  3
*D6
  1

  0
LINE
  5
1648
330
12B2
100
AcDbEntity
  8
DIM
 62
     0
370
    -2
100
AcDbLine
 10
2941.397780557658
 20
1520.661360147882
 30
0.0
 11
2767.704657940036
 21
1520.661360147882
 31
0.0
  0
LINE
  5
1649
330
12B2
100
AcDbEntity
  8
DIM
 62
     0
370
    -2
100
AcDbLine
 10
2990.971480709469
 20
2070.66116012292
 30
0.0
 11
2767.704657940036
 21
2070.66116012292
 31
0.0
  0
LINE
  5
164A
330
12B2
100
AcDbEntity
  8
DIM
 62
     0
370
    -2
100
AcDbLine
 10
2777.704657940036
 20
1555.661360147882
 30
0.0
 11
2777.704657940036
 21
2035.661160122919
 31
0.0
  0
SOLID
  5
164B
330
12B2
100
AcDbEntity
  8
DIM
 62
     0
100
AcDbTrace
 10
2771.871324606702
 20
1555.661360147882
 30
0.0
 11
2783.537991273369
 21
1555.661360147882
 31
0.0
 12
2777.704657940036
 22
1520.661360147882
 32
0.0
 13
2777.704657940036
 23
1520.661360147882
 33
0.0
  0
SOLID
  5
164C
330
12B2
100
AcDbEntity
  8
DIM
 62
     0
100
AcDbTrace
 10
2771.871324606702
 20
2035.661160122919
 30
0.0
 11
2783.537991273369
 21
2035.661160122919
 31
0.0
 12
2777.704657940036
 22
2070.66116012292
 32
0.0
 13
2777.704657940036
 23
2070.66116012292
 33
0.0
  0
MTEXT
  5
164D
330
12B2
100
AcDbEntity
  8
DIM
 62
     0
100
AcDbMText
 10
2739.834603369776
 20
1795.661260135401
 30
0.0
 40
35.0
 41
0.0
 46
0.0
 71
     5
 72
     1
  1
\A1;{\fArial|b0|i0|c0|p34;550}
 11
6.123031769111886E-17
 21
1.0
 31
0.0
 73
     1
 44
1.0
  0
POINT
  5
164E
330
12B2
100
AcDbEntity
  8
Defpoints
 62
     0
100
AcDbPoint
 10
2951.397780557658
 20
1520.661360147882
 30
0.0
  0
POINT
  5
164F
330
12B2
100
AcDbEntity
  8
Defpoints
 62
     0
100
AcDbPoint
 10
3000.971480709469
 20
2070.66116012292
 30
0.0
  0
POINT
  5
1650
330
12B2
100
AcDbEntity
  8
Defpoints
 62
     0
100
AcDbPoint
 10
2777.704657940036
 20
2070.66116012292
 30
0.0
  0
ENDBLK
  5
1746
330
12B2
100
AcDbEntity
  8
0
100
AcDbBlockEnd
  0
BLOCK
  5
1747
330
12C8
100
AcDbEntity
  8
0
100
AcDbBlockBegin
  2
*D7
 70
     1
 71
     0
 10
0.0
 20
0.0
 30
0.0
  3
*D7
  1

  0
LINE
  5
165C
330
12C8
100
AcDbEntity
  8
DIM
 62
     0
370
    -2
100
AcDbLine
 10
3000.971480709469
 20
1610.66116012292
 30
0.0
 11
3000.971480709469
 21
1402.973143098965
 31
0.0
  0
LINE
  5
165D
330
12C8
100
AcDbEntity
  8
DIM
 62
     0
370
    -2
100
AcDbLine
 10
3200.971480709469
 20
1610.66116012292
 30
0.0
 11
3200.971480709469
 21
1402.973143098965
 31
0.0
  0
LINE
  5
165E
330
12C8
100
AcDbEntity
  8
DIM
 62
     0
370
    -2
100
AcDbLine
 10
3035.971480709469
 20
1412.973143098965
 30
0.0
 11
3165.971480709469
 21
1412.973143098965
 31
0.0
  0
SOLID
  5
165F
330
12C8
100
AcDbEntity
  8
DIM
 62
     0
100
AcDbTrace
 10
3035.971480709469
 20
1418.806476432298
 30
0.0
 11
3035.971480709469
 21
1407.139809765632
 31
0.0
 12
3000.971480709469
 22
1412.973143098965
 32
0.0
 13
3000.971480709469
 23
1412.973143098965
 33
0.0
  0
SOLID
  5
1660
330
12C8
100
AcDbEntity
  8
DIM
 62
     0
100
AcDbTrace
 10
3165.971480709469
 20
1418.806476432298
 30
0.0
 11
3165.971480709469
 21
1407.139809765632
 31
0.0
 12
3200.971480709469
 22
1412.973143098965
 32
0.0
 13
3200.971480709469
 23
1412.973143098965
 33
0.0
  0
MTEXT
  5
1661
330
12C8
100
AcDbEntity
  8
DIM
 62
     0
100
AcDbMText
 10
3100.971480709469
 20
1450.473143098965
 30
0.0
 40
35.0
 41
0.0
 46
0.0
 71
     5
 72
     1
  1
\A1;200
 73
     1
 44
1.0
  0
POINT
  5
1662
330
12C8
100
AcDbEntity
  8
Defpoints
 62
     0
100
AcDbPoint
 10
3000.971480709469
 20
1620.66116012292
 30
0.0
  0
POINT
  5
1663
330
12C8
100
AcDbEntity
  8
Defpoints
 62
     0
100
AcDbPoint
 10
3200.971480709469
 20
1620.66116012292
 30
0.0
  0
POINT
  5
1664
330
12C8
100
AcDbEntity
  8
Defpoints
 62
     0
100
AcDbPoint
 10
3200.971480709469
 20
1412.973143098965
 30
0.0
  0
ENDBLK
  5
1748
330
12C8
100
AcDbEntity
  8
0
100
AcDbBlockEnd
  0
BLOCK
  5
1749
330
16AF
100
AcDbEntity
  8
0
100
AcDbBlockBegin
  2
ENDSY
 70
     0
 71
     0
 10
0.0
 20
0.0
 30
0.0
  3
ENDSY
  1

  0
LWPOLYLINE
  5
16B0
330
16AF
100
AcDbEntity
  8
PENN3
100
AcDbPolyline
 90
        3
 70
     1
 43
0.0
 10
-4.19999999999996
 20
7.274613391789273
 10
4.200000000000045
 20
7.274613391789273
 10
0.0
 20
0.0
  0
TEXT
  5
16B1
330
16AF
100
AcDbEntity
  8
TEKST
100
AcDbText
 10
-1.67858159659329
 20
3.158966042153821
 30
0.0
 40
3.5
  1
B
100
AcDbText
  0
ENDBLK
  5
174A
330
16AF
100
AcDbEntity
  8
0
100
AcDbBlockEnd
  0
BLOCK
  5
174B
330
16B5
100
AcDbEntity
  8
0
100
AcDbBlockBegin
  2
ENDRING
 70
     0
 71
     0
 10
0.0
 20
0.0
 30
0.0
  3
ENDRING
  1

  0
TEXT
  5
16B6
330
16B5
100
AcDbEntity
  8
TITTEXT
100
AcDbText
 10
81.33885699640881
 20
7.157926916054379
 30
0.0
 40
3.0
  1
X
100
AcDbText
  0
TEXT
  5
16B7
330
16B5
100
AcDbEntity
  8
TITTEXT
100
AcDbText
 10
21.7551734755048
 20
7.157926916054379
 30
0.0
 40
3.0
  1
X
100
AcDbText
  0
TEXT
  5
16B8
330
16B5
100
AcDbEntity
  8
TITTEXT
100
AcDbText
 10
4.144796452585609
 20
7.157926916054379
 30
0.0
 40
3.0
  1
X
100
AcDbText
  0
TEXT
  5
16B9
330
16B5
100
AcDbEntity
  8
TITTEXT
100
AcDbText
 10
81.51891735804942
 20
1.403460819627753
 30
0.0
 40
2.4
  1
Dato/Sign.
100
AcDbText
  0
TEXT
  5
16BA
330
16B5
100
AcDbEntity
  8
TITTEXT
100
AcDbText
 10
21.37904441282946
 20
1.212161830925808
 30
0.0
 40
2.4
  1
Forandring
100
AcDbText
  0
TEXT
  5
16BB
330
16B5
100
AcDbEntity
  8
TITTEXT
100
AcDbText
 10
1.170115363486516
 20
1.212161830925808
 30
0.0
 40
2.4
  1
Symb.
 41
0.8
100
AcDbText
  0
LINE
  5
16BC
330
16B5
100
AcDbEntity
  8
TIT3
100
AcDbLine
 10
0.0
 20
11.99999999999999
 30
0.0
 11
110.0
 21
12.0
 31
0.0
  0
LINE
  5
16BD
330
16B5
100
AcDbEntity
  8
TIT5
100
AcDbLine
 10
0.0
 20
5.999999999999986
 30
0.0
 11
110.0
 21
6.0
 31
0.0
  0
LINE
  5
16BE
330
16B5
100
AcDbEntity
  8
TIT5
100
AcDbLine
 10
0.0
 20
0.0
 30
0.0
 11
110.0
 21
0.0
 31
0.0
  0
LINE
  5
16BF
330
16B5
100
AcDbEntity
  8
TIT5
100
AcDbLine
 10
110.0
 20
11.99999999999999
 30
0.0
 11
110.0
 21
0.0
 31
0.0
  0
LINE
  5
16C0
330
16B5
100
AcDbEntity
  8
TIT3
100
AcDbLine
 10
79.99999999999996
 20
11.99999999999999
 30
0.0
 11
79.99999999999999
 21
0.0
 31
0.0
  0
LINE
  5
16C1
330
16B5
100
AcDbEntity
  8
TIT5
100
AcDbLine
 10
10.0
 20
12.0
 30
0.0
 11
10.0
 21
0.0
 31
0.0
  0
LINE
  5
16C2
330
16B5
100
AcDbEntity
  8
TIT5
100
AcDbLine
 10
0.0
 20
12.0
 30
0.0
 11
0.0
 21
0.0
 31
0.0
  0
LINE
  5
16C3
330
16B5
100
AcDbEntity
  8
TIT5
100
AcDbLine
 10
20.0
 20
12.0
 30
0.0
 11
20.0
 21
-0.0000000000000024
 31
0.0
  0
TEXT
  5
16C4
330
16B5
100
AcDbEntity
  8
TITTEXT
100
AcDbText
 10
12.62006189366085
 20
7.157926916054377
 30
0.0
 40
3.0
  1
XX
100
AcDbText
  0
TEXT
  5
16C5
330
16B5
100
AcDbEntity
  8
TITTEXT
100
AcDbText
 10
11.17011536348652
 20
1.212161830925806
 30
0.0
 40
2.4
  1
Rute
100
AcDbText
  0
ENDBLK
  5
174C
330
16B5
100
AcDbEntity
  8
0
100
AcDbBlockEnd
  0
BLOCK
  5
174D
330
16F0
100
AcDbEntity
  8
0
100
AcDbBlockBegin
  2
*D10
 70
     1
 71
     0
 10
0.0
 20
0.0
 30
0.0
  3
*D10
  1

  0
POINT
  5
16E7
330
16F0
100
AcDbEntity
  8
Defpoints
  6
ByBlock
 62
     0
100
AcDbPoint
 10
577.1004207094693
 20
2120.661960122919
 30
0.0
  0
POINT
  5
16E8
330
16F0
100
AcDbEntity
  8
Defpoints
  6
ByBlock
 62
     0
100
AcDbPoint
 10
387.2268307094693
 20
2076.046160122919
 30
0.0
  0
LINE
  5
16E9
330
16F0
100
AcDbEntity
  8
0
  6
ByBlock
 62
     0
370
    -2
100
AcDbLine
 10
577.1004207094693
 20
2130.661960122919
 30
0.0
 11
577.1004207094693
 21
2188.671933731613
 31
0.0
  0
LINE
  5
16EA
330
16F0
100
AcDbEntity
  8
0
  6
ByBlock
 62
     0
370
    -2
100
AcDbLine
 10
387.2268307094693
 20
2086.046160122919
 30
0.0
 11
387.2268307094693
 21
2188.671933731613
 31
0.0
  0
LINE
  5
16EB
330
16F0
100
AcDbEntity
  8
0
  6
ByBlock
 62
     0
370
    -2
100
AcDbLine
 10
542.1004207094693
 20
2178.671933731613
 30
0.0
 11
422.2268307094693
 21
2178.671933731613
 31
0.0
  0
SOLID
  5
16EC
330
16F0
100
AcDbEntity
  8
0
  6
ByBlock
 62
     0
100
AcDbTrace
 10
577.1004207094693
 20
2178.671933731613
 30
0.0
 11
542.1004207094693
 21
2184.505267064947
 31
0.0
 12
542.1004207094693
 22
2172.838600398278
 32
0.0
 13
542.1004207094693
 23
2172.838600398278
 33
0.0
  0
SOLID
  5
16ED
330
16F0
100
AcDbEntity
  8
0
  6
ByBlock
 62
     0
100
AcDbTrace
 10
387.2268307094693
 20
2178.671933731613
 30
0.0
 11
422.2268307094693
 21
2184.505267064947
 31
0.0
 12
422.2268307094693
 22
2172.838600398278
 32
0.0
 13
422.2268307094693
 23
2172.838600398278
 33
0.0
  0
MTEXT
  5
16EE
330
16F0
100
AcDbEntity
  8
0
  6
ByBlock
 62
     0
100
AcDbMText
 10
482.1636257094693
 20
2216.541988301872
 30
0.0
 40
35.0
 41
0.0
 46
0.0
 71
     5
 72
     1
  1
{\fArial|b0|i0|c0|p34;190}
 73
     1
 44
1.0
  0
ENDBLK
  5
174E
330
16F0
100
AcDbEntity
  8
KONTUR
100
AcDbBlockEnd
  0
BLOCK
  5
174F
330
16FB
100
AcDbEntity
  8
0
100
AcDbBlockBegin
  2
*D11
 70
     1
 71
     0
 10
0.0
 20
0.0
 30
0.0
  3
*D11
  1

  0
POINT
  5
16F2
330
16FB
100
AcDbEntity
  8
Defpoints
  6
ByBlock
 62
     0
100
AcDbPoint
 10
577.1004207094693
 20
2120.661960122919
 30
0.0
  0
POINT
  5
16F3
330
16FB
100
AcDbEntity
  8
Defpoints
  6
ByBlock
 62
     0
100
AcDbPoint
 10
387.2268307094693
 20
2076.046160122919
 30
0.0
  0
LINE
  5
16F4
330
16FB
100
AcDbEntity
  8
0
  6
ByBlock
 62
     0
370
    -2
100
AcDbLine
 10
577.1004207094693
 20
2130.661960122919
 30
0.0
 11
577.1004207094693
 21
2188.671933731613
 31
0.0
  0
LINE
  5
16F5
330
16FB
100
AcDbEntity
  8
0
  6
ByBlock
 62
     0
370
    -2
100
AcDbLine
 10
387.2268307094693
 20
2086.046160122919
 30
0.0
 11
387.2268307094693
 21
2188.671933731613
 31
0.0
  0
LINE
  5
16F6
330
16FB
100
AcDbEntity
  8
0
  6
ByBlock
 62
     0
370
    -2
100
AcDbLine
 10
542.1004207094693
 20
2178.671933731613
 30
0.0
 11
422.2268307094693
 21
2178.671933731613
 31
0.0
  0
SOLID
  5
16F7
330
16FB
100
AcDbEntity
  8
0
  6
ByBlock
 62
     0
100
AcDbTrace
 10
577.1004207094693
 20
2178.671933731613
 30
0.0
 11
542.1004207094693
 21
2184.505267064947
 31
0.0
 12
542.1004207094693
 22
2172.838600398278
 32
0.0
 13
542.1004207094693
 23
2172.838600398278
 33
0.0
  0
SOLID
  5
16F8
330
16FB
100
AcDbEntity
  8
0
  6
ByBlock
 62
     0
100
AcDbTrace
 10
387.2268307094693
 20
2178.671933731613
 30
0.0
 11
422.2268307094693
 21
2184.505267064947
 31
0.0
 12
422.2268307094693
 22
2172.838600398278
 32
0.0
 13
422.2268307094693
 23
2172.838600398278
 33
0.0
  0
MTEXT
  5
16F9
330
16FB
100
AcDbEntity
  8
0
  6
ByBlock
 62
     0
100
AcDbMText
 10
482.1636257094693
 20
2216.541988301872
 30
0.0
 40
35.0
 41
0.0
 46
0.0
 71
     5
 72
     1
  1
{\fArial|b0|i0|c0|p34;190}
 73
     1
 44
1.0
  0
ENDBLK
  5
1750
330
16FB
100
AcDbEntity
  8
KONTUR
100
AcDbBlockEnd
  0
BLOCK
  5
1751
330
1707
100
AcDbEntity
  8
0
100
AcDbBlockBegin
  2
*D12
 70
     1
 71
     0
 10
0.0
 20
0.0
 30
0.0
  3
*D12
  1

  0
POINT
  5
16FD
330
1707
100
AcDbEntity
  8
Defpoints
  6
ByBlock
 62
     0
100
AcDbPoint
 10
577.1004207094693
 20
2120.661960122919
 30
0.0
  0
POINT
  5
16FE
330
1707
100
AcDbEntity
  8
Defpoints
  6
ByBlock
 62
     0
100
AcDbPoint
 10
387.2268307094693
 20
2076.046160122919
 30
0.0
  0
LINE
  5
16FF
330
1707
100
AcDbEntity
  8
0
  6
ByBlock
 62
     0
370
    -2
100
AcDbLine
 10
577.1004207094693
 20
2130.661960122919
 30
0.0
 11
577.1004207094693
 21
2188.671933731613
 31
0.0
  0
LINE
  5
1700
330
1707
100
AcDbEntity
  8
0
  6
ByBlock
 62
     0
370
    -2
100
AcDbLine
 10
387.2268307094693
 20
2086.046160122919
 30
0.0
 11
387.2268307094693
 21
2188.671933731613
 31
0.0
  0
LINE
  5
1701
330
1707
100
AcDbEntity
  8
0
  6
ByBlock
 62
     0
370
    -2
100
AcDbLine
 10
612.1004207094693
 20
2178.671933731613
 30
0.0
 11
647.1004207094693
 21
2178.671933731613
 31
0.0
  0
SOLID
  5
1702
330
1707
100
AcDbEntity
  8
0
  6
ByBlock
 62
     0
100
AcDbTrace
 10
577.1004207094693
 20
2178.671933731613
 30
0.0
 11
612.1004207094693
 21
2184.505267064947
 31
0.0
 12
612.1004207094693
 22
2172.838600398278
 32
0.0
 13
612.1004207094693
 23
2172.838600398278
 33
0.0
  0
LINE
  5
1703
330
1707
100
AcDbEntity
  8
0
  6
ByBlock
 62
     0
370
    -2
100
AcDbLine
 10
352.2268307094693
 20
2178.671933731613
 30
0.0
 11
317.2268307094693
 21
2178.671933731613
 31
0.0
  0
SOLID
  5
1704
330
1707
100
AcDbEntity
  8
0
  6
ByBlock
 62
     0
100
AcDbTrace
 10
387.2268307094693
 20
2178.671933731613
 30
0.0
 11
352.2268307094693
 21
2184.505267064947
 31
0.0
 12
352.2268307094693
 22
2172.838600398278
 32
0.0
 13
352.2268307094693
 23
2172.838600398278
 33
0.0
  0
MTEXT
  5
1705
330
1707
100
AcDbEntity
  8
0
  6
ByBlock
 62
     0
100
AcDbMText
 10
482.1636257094693
 20
2216.171933731613
 30
0.0
 40
35.0
 41
0.0
 46
0.0
 71
     5
 72
     1
  1
190
 73
     1
 44
1.0
  0
ENDBLK
  5
1752
330
1707
100
AcDbEntity
  8
KONTUR
100
AcDbBlockEnd
  0
BLOCK
  5
1753
330
1712
100
AcDbEntity
  8
0
100
AcDbBlockBegin
  2
*D13
 70
     1
 71
     0
 10
0.0
 20
0.0
 30
0.0
  3
*D13
  1

  0
POINT
  5
1709
330
1712
100
AcDbEntity
  8
Defpoints
  6
ByBlock
 62
     0
100
AcDbPoint
 10
1514.005980709469
 20
2071.907460122919
 30
0.0
  0
POINT
  5
170A
330
1712
100
AcDbEntity
  8
Defpoints
  6
ByBlock
 62
     0
100
AcDbPoint
 10
1214.337980709469
 20
2065.96556012292
 30
0.0
  0
LINE
  5
170B
330
1712
100
AcDbEntity
  8
0
  6
ByBlock
 62
     0
370
    -2
100
AcDbLine
 10
1514.005980709469
 20
2081.907460122919
 30
0.0
 11
1514.005980709469
 21
2225.90801823009
 31
0.0
  0
LINE
  5
170C
330
1712
100
AcDbEntity
  8
0
  6
ByBlock
 62
     0
370
    -2
100
AcDbLine
 10
1214.337980709469
 20
2075.96556012292
 30
0.0
 11
1214.337980709469
 21
2225.90801823009
 31
0.0
  0
LINE
  5
170D
330
1712
100
AcDbEntity
  8
0
  6
ByBlock
 62
     0
370
    -2
100
AcDbLine
 10
1479.005980709469
 20
2215.90801823009
 30
0.0
 11
1249.337980709469
 21
2215.90801823009
 31
0.0
  0
SOLID
  5
170E
330
1712
100
AcDbEntity
  8
0
  6
ByBlock
 62
     0
100
AcDbTrace
 10
1514.005980709469
 20
2215.90801823009
 30
0.0
 11
1479.005980709469
 21
2221.741351563425
 31
0.0
 12
1479.005980709469
 22
2210.074684896756
 32
0.0
 13
1479.005980709469
 23
2210.074684896756
 33
0.0
  0
SOLID
  5
170F
330
1712
100
AcDbEntity
  8
0
  6
ByBlock
 62
     0
100
AcDbTrace
 10
1214.337980709469
 20
2215.90801823009
 30
0.0
 11
1249.337980709469
 21
2221.741351563425
 31
0.0
 12
1249.337980709469
 22
2210.074684896756
 32
0.0
 13
1249.337980709469
 23
2210.074684896756
 33
0.0
  0
MTEXT
  5
1710
330
1712
100
AcDbEntity
  8
0
  6
ByBlock
 62
     0
100
AcDbMText
 10
1364.171980709469
 20
2253.40801823009
 30
0.0
 40
35.0
 41
0.0
 46
0.0
 71
     5
 72
     1
  1
300
 73
     1
 44
1.0
  0
ENDBLK
  5
1754
330
1712
100
AcDbEntity
  8
KONTUR
100
AcDbBlockEnd
  0
BLOCK
  5
1755
330
171D
100
AcDbEntity
  8
0
100
AcDbBlockBegin
  2
*D14
 70
     1
 71
     0
 10
0.0
 20
0.0
 30
0.0
  3
*D14
  1

  0
POINT
  5
1714
330
171D
100
AcDbEntity
  8
Defpoints
  6
ByBlock
 62
     0
100
AcDbPoint
 10
2951.397780557658
 20
1520.661360147882
 30
0.0
  0
POINT
  5
1715
330
171D
100
AcDbEntity
  8
Defpoints
  6
ByBlock
 62
     0
100
AcDbPoint
 10
3000.971480709469
 20
2070.66116012292
 30
0.0
  0
LINE
  5
1716
330
171D
100
AcDbEntity
  8
0
  6
ByBlock
 62
     0
370
    -2
100
AcDbLine
 10
2941.397780557658
 20
1520.661360147882
 30
0.0
 11
2767.704657940036
 21
1520.661360147882
 31
0.0
  0
LINE
  5
1717
330
171D
100
AcDbEntity
  8
0
  6
ByBlock
 62
     0
370
    -2
100
AcDbLine
 10
2990.971480709469
 20
2070.66116012292
 30
0.0
 11
2767.704657940036
 21
2070.66116012292
 31
0.0
  0
LINE
  5
1718
330
171D
100
AcDbEntity
  8
0
  6
ByBlock
 62
     0
370
    -2
100
AcDbLine
 10
2777.704657940036
 20
1555.661360147882
 30
0.0
 11
2777.704657940036
 21
2035.66116012292
 31
0.0
  0
SOLID
  5
1719
330
171D
100
AcDbEntity
  8
0
  6
ByBlock
 62
     0
100
AcDbTrace
 10
2777.704657940036
 20
1520.661360147882
 30
0.0
 11
2783.53799127337
 21
1555.661360147882
 31
0.0
 12
2771.871324606701
 22
1555.661360147882
 32
0.0
 13
2771.871324606701
 23
1555.661360147882
 33
0.0
  0
SOLID
  5
171A
330
171D
100
AcDbEntity
  8
0
  6
ByBlock
 62
     0
100
AcDbTrace
 10
2777.704657940036
 20
2070.66116012292
 30
0.0
 11
2783.53799127337
 21
2035.66116012292
 31
0.0
 12
2771.871324606701
 22
2035.66116012292
 32
0.0
 13
2771.871324606701
 23
2035.66116012292
 33
0.0
  0
MTEXT
  5
171B
330
171D
100
AcDbEntity
  8
0
  6
ByBlock
 62
     0
100
AcDbMText
 10
2740.204657940036
 20
1795.661260135401
 30
0.0
 40
35.0
 41
0.0
 46
0.0
 71
     5
 72
     1
  1
550
 11
6.123031769111886E-17
 21
1.0
 31
0.0
 73
     1
 44
1.0
  0
ENDBLK
  5
1756
330
171D
100
AcDbEntity
  8
KONTUR
100
AcDbBlockEnd
  0
BLOCK
  5
1757
330
172A
100
AcDbEntity
  8
0
100
AcDbBlockBegin
  2
*D15
 70
     1
 71
     0
 10
0.0
 20
0.0
 30
0.0
  3
*D15
  1

  0
POINT
  5
171F
330
172A
100
AcDbEntity
  8
Defpoints
  6
ByBlock
 62
     0
100
AcDbPoint
 10
577.1004207094693
 20
2120.661960122919
 30
0.0
  0
POINT
  5
1720
330
172A
100
AcDbEntity
  8
Defpoints
  6
ByBlock
 62
     0
100
AcDbPoint
 10
387.2268307094693
 20
2076.046160122919
 30
0.0
  0
LINE
  5
1721
330
172A
100
AcDbEntity
  8
0
  6
ByBlock
 62
     0
370
    -2
100
AcDbLine
 10
577.1004207094693
 20
2130.661960122919
 30
0.0
 11
577.1004207094693
 21
2188.671933731613
 31
0.0
  0
LINE
  5
1722
330
172A
100
AcDbEntity
  8
0
  6
ByBlock
 62
     0
370
    -2
100
AcDbLine
 10
387.2268307094693
 20
2086.046160122919
 30
0.0
 11
387.2268307094693
 21
2188.671933731613
 31
0.0
  0
LINE
  5
1723
330
172A
100
AcDbEntity
  8
0
  6
ByBlock
 62
     0
370
    -2
100
AcDbLine
 10
612.1004207094693
 20
2178.671933731613
 30
0.0
 11
647.1004207094693
 21
2178.671933731613
 31
0.0
  0
SOLID
  5
1724
330
172A
100
AcDbEntity
  8
0
  6
ByBlock
 62
     0
100
AcDbTrace
 10
577.1004207094693
 20
2178.671933731613
 30
0.0
 11
612.1004207094693
 21
2184.505267064947
 31
0.0
 12
612.1004207094693
 22
2172.838600398278
 32
0.0
 13
612.1004207094693
 23
2172.838600398278
 33
0.0
  0
LINE
  5
1725
330
172A
100
AcDbEntity
  8
0
  6
ByBlock
 62
     0
370
    -2
100
AcDbLine
 10
352.2268307094693
 20
2178.671933731613
 30
0.0
 11
317.2268307094693
 21
2178.671933731613
 31
0.0
  0
SOLID
  5
1726
330
172A
100
AcDbEntity
  8
0
  6
ByBlock
 62
     0
100
AcDbTrace
 10
387.2268307094693
 20
2178.671933731613
 30
0.0
 11
352.2268307094693
 21
2184.505267064947
 31
0.0
 12
352.2268307094693
 22
2172.838600398278
 32
0.0
 13
352.2268307094693
 23
2172.838600398278
 33
0.0
  0
LINE
  5
1727
330
172A
100
AcDbEntity
  8
0
  6
ByBlock
 62
     0
370
    -2
100
AcDbLine
 10
577.1004207094693
 20
2178.671933731613
 30
0.0
 11
387.2268307094693
 21
2178.671933731613
 31
0.0
  0
MTEXT
  5
1728
330
172A
100
AcDbEntity
  8
0
  6
ByBlock
 62
     0
100
AcDbMText
 10
482.1636257094693
 20
2216.171933731613
 30
0.0
 40
35.0
 41
0.0
 46
0.0
 71
     5
 72
     1
  1
190
 73
     1
 44
1.0
  0
ENDBLK
  5
1758
330
172A
100
AcDbEntity
  8
KONTUR
100
AcDbBlockEnd
  0
BLOCK
  5
1759
330
1735
100
AcDbEntity
  8
0
100
AcDbBlockBegin
  2
*D16
 70
     1
 71
     0
 10
0.0
 20
0.0
 30
0.0
  3
*D16
  1

  0
POINT
  5
172C
330
1735
100
AcDbEntity
  8
Defpoints
  6
ByBlock
 62
     0
100
AcDbPoint
 10
577.1004207094693
 20
2120.661960122919
 30
0.0
  0
POINT
  5
172D
330
1735
100
AcDbEntity
  8
Defpoints
  6
ByBlock
 62
     0
100
AcDbPoint
 10
567.1004807094691
 20
1520.661960122919
 30
0.0
  0
LINE
  5
172E
330
1735
100
AcDbEntity
  8
0
  6
ByBlock
 62
     0
370
    -2
100
AcDbLine
 10
587.1004207094693
 20
2120.661960122919
 30
0.0
 11
666.8233882164659
 21
2120.661960122919
 31
0.0
  0
LINE
  5
172F
330
1735
100
AcDbEntity
  8
0
  6
ByBlock
 62
     0
370
    -2
100
AcDbLine
 10
577.1004807094691
 20
1520.661960122919
 30
0.0
 11
666.8233882164659
 21
1520.661960122919
 31
0.0
  0
LINE
  5
1730
330
1735
100
AcDbEntity
  8
0
  6
ByBlock
 62
     0
370
    -2
100
AcDbLine
 10
656.8233882164659
 20
2085.661960122919
 30
0.0
 11
656.8233882164659
 21
1555.661960122919
 31
0.0
  0
SOLID
  5
1731
330
1735
100
AcDbEntity
  8
0
  6
ByBlock
 62
     0
100
AcDbTrace
 10
656.8233882164659
 20
2120.661960122919
 30
0.0
 11
650.9900548831314
 21
2085.661960122919
 31
0.0
 12
662.6567215498004
 22
2085.661960122919
 32
0.0
 13
662.6567215498004
 23
2085.661960122919
 33
0.0
  0
SOLID
  5
1732
330
1735
100
AcDbEntity
  8
0
  6
ByBlock
 62
     0
100
AcDbTrace
 10
656.8233882164659
 20
1520.661960122919
 30
0.0
 11
650.9900548831314
 21
1555.661960122919
 31
0.0
 12
662.6567215498004
 22
1555.661960122919
 32
0.0
 13
662.6567215498004
 23
1555.661960122919
 33
0.0
  0
MTEXT
  5
1733
330
1735
100
AcDbEntity
  8
0
  6
ByBlock
 62
     0
100
AcDbMText
 10
619.3233882164659
 20
1820.661960122919
 30
0.0
 40
35.0
 41
0.0
 46
0.0
 71
     5
 72
     1
  1
600
 11
6.123031769111886E-17
 21
1.0
 31
0.0
 73
     1
 44
1.0
  0
ENDBLK
  5
175A
330
1735
100
AcDbEntity
  8
KONTUR
100
AcDbBlockEnd
  0
ENDSEC
  0
SECTION
  2
ENTITIES
  0
LINE
  5
105
330
1F
100
AcDbEntity
  8
KONTUR
100
AcDbLine
 10
1502.922380709469
 20
2099.62716012292
 30
0.0
 11
1502.922380709469
 21
2115.661960122919
 31
0.0
  0
LINE
  5
106
330
1F
100
AcDbEntity
  8
KONTUR
100
AcDbLine
 10
1502.922380709469
 20
2115.661960122919
 30
0.0
 11
1502.922380709469
 21
2120.661960122919
 31
0.0
  0
LINE
  5
107
330
1F
100
AcDbEntity
  8
KONTUR
100
AcDbLine
 10
1225.422380709469
 20
2120.661960122919
 30
0.0
 11
1225.422380709469
 21
2115.661960122919
 31
0.0
  0
LINE
  5
108
330
1F
100
AcDbEntity
  8
KONTUR
100
AcDbLine
 10
1225.422380709469
 20
2115.661960122919
 30
0.0
 11
1225.422380709469
 21
2099.463160122919
 31
0.0
  0
LINE
  5
109
330
1F
100
AcDbEntity
  8
KONTUR
100
AcDbLine
 10
1485.039280709469
 20
1520.661960122919
 30
0.0
 11
1491.120080709469
 21
1520.66206012292
 31
0.0
  0
LINE
  5
10A
330
1F
100
AcDbEntity
  8
KONTUR
100
AcDbLine
 10
1500.705380709469
 20
1520.66206012292
 30
0.0
 11
1503.036180709469
 21
1520.66206012292
 31
0.0
  0
LINE
  5
10B
330
1F
100
AcDbEntity
  8
KONTUR
100
AcDbLine
 10
1501.672380709469
 20
2120.661960122919
 30
0.0
 11
1502.922380709469
 21
2120.661960122919
 31
0.0
  0
LINE
  5
10C
330
1F
100
AcDbEntity
  8
KONTUR
100
AcDbLine
 10
1226.672380709469
 20
2120.661960122919
 30
0.0
 11
1226.672380709469
 21
2117.25146012292
 31
0.0
  0
LINE
  5
10D
330
1F
100
AcDbEntity
  8
KONTUR
100
AcDbLine
 10
1501.672380709469
 20
2117.25146012292
 30
0.0
 11
1501.672380709469
 21
2120.661960122919
 31
0.0
  0
LINE
  5
10E
330
1F
100
AcDbEntity
  8
KONTUR
100
AcDbLine
 10
1226.672380709469
 20
2120.661960122919
 30
0.0
 11
1225.422380709469
 21
2120.661960122919
 31
0.0
  0
LINE
  5
10F
330
1F
100
AcDbEntity
  8
KONTUR
100
AcDbLine
 10
1499.672380709469
 20
2120.661960122919
 30
0.0
 11
1228.672380709469
 21
2120.661960122919
 31
0.0
  0
LINE
  5
110
330
1F
100
AcDbEntity
  8
KONTUR
100
AcDbLine
 10
1228.672380709469
 20
2120.661960122919
 30
0.0
 11
1228.672380709469
 21
2120.661960122919
 31
0.0
  0
LINE
  5
111
330
1F
100
AcDbEntity
  8
KONTUR
100
AcDbLine
 10
1226.672380709469
 20
2120.661960122919
 30
0.0
 11
1228.672380709469
 21
2120.661960122919
 31
0.0
  0
LINE
  5
112
330
1F
100
AcDbEntity
  8
KONTUR
100
AcDbLine
 10
1499.672380709469
 20
2120.661960122919
 30
0.0
 11
1501.672380709469
 21
2120.661960122919
 31
0.0
  0
LINE
  5
113
330
1F
100
AcDbEntity
  8
KONTUR
100
AcDbLine
 10
1228.672380709469
 20
2120.661960122919
 30
0.0
 11
1228.672380709469
 21
2117.25146012292
 31
0.0
  0
LINE
  5
114
330
1F
100
AcDbEntity
  8
KONTUR
100
AcDbLine
 10
1499.672380709469
 20
2117.25146012292
 30
0.0
 11
1499.672380709469
 21
2120.661960122919
 31
0.0
  0
LINE
  5
115
330
1F
100
AcDbEntity
  8
KONTUR
100
AcDbLine
 10
1228.672380709469
 20
2117.25146012292
 30
0.0
 11
1228.672380709469
 21
2115.01886012292
 31
0.0
  0
LINE
  5
116
330
1F
100
AcDbEntity
  8
KONTUR
100
AcDbLine
 10
1226.672380709469
 20
2115.01886012292
 30
0.0
 11
1226.672380709469
 21
2117.25146012292
 31
0.0
  0
LINE
  5
117
330
1F
100
AcDbEntity
  8
KONTUR
100
AcDbLine
 10
1499.672380709469
 20
2115.01886012292
 30
0.0
 11
1499.672380709469
 21
2117.25146012292
 31
0.0
  0
LINE
  5
118
330
1F
100
AcDbEntity
  8
KONTUR
100
AcDbLine
 10
1501.672380709469
 20
2117.25146012292
 30
0.0
 11
1501.672380709469
 21
2115.01886012292
 31
0.0
  0
LINE
  5
119
330
1F
100
AcDbEntity
  8
KONTUR
100
AcDbLine
 10
1228.672380709469
 20
2115.01886012292
 30
0.0
 11
1228.672380709469
 21
2114.07086012292
 31
0.0
  0
LINE
  5
11A
330
1F
100
AcDbEntity
  8
KONTUR
100
AcDbLine
 10
1228.672380709469
 20
2101.277460122919
 30
0.0
 11
1228.672380709469
 21
2091.16896012292
 31
0.0
  0
LINE
  5
11B
330
1F
100
AcDbEntity
  8
KONTUR
100
AcDbLine
 10
1499.672380709469
 20
2091.16766012292
 30
0.0
 11
1499.672380709469
 21
2101.277460122919
 31
0.0
  0
LINE
  5
11C
330
1F
100
AcDbEntity
  8
KONTUR
100
AcDbLine
 10
1499.672380709469
 20
2114.07086012292
 30
0.0
 11
1499.672380709469
 21
2115.01886012292
 31
0.0
  0
LINE
  5
11D
330
1F
100
AcDbEntity
  8
KONTUR
100
AcDbLine
 10
1501.672380709469
 20
2115.01886012292
 30
0.0
 11
1501.672380709469
 21
2095.965860122919
 31
0.0
  0
LINE
  5
11E
330
1F
100
AcDbEntity
  8
KONTUR
100
AcDbLine
 10
1226.672380709469
 20
2095.83396012292
 30
0.0
 11
1226.672380709469
 21
2115.01886012292
 31
0.0
  0
LINE
  5
11F
330
1F
100
AcDbEntity
  8
KONTUR
100
AcDbLine
 10
1506.672280709469
 20
2120.661960122919
 30
0.0
 11
1506.672280709469
 21
2120.661960122919
 31
0.0
  0
LINE
  5
120
330
1F
100
AcDbEntity
  8
KONTUR
100
AcDbLine
 10
1506.672280709469
 20
2120.661960122919
 30
0.0
 11
1512.009480709469
 21
2120.661960122919
 31
0.0
  0
LINE
  5
121
330
1F
100
AcDbEntity
  8
KONTUR
100
AcDbLine
 10
1506.672280709469
 20
2120.661960122919
 30
0.0
 11
1506.672280709469
 21
2120.661960122919
 31
0.0
  0
ARC
  5
122
330
1F
100
AcDbEntity
  8
KONTUR
100
AcDbCircle
 10
1506.672380709469
 20
2118.161960122919
 30
0.0
 40
2.499988
100
AcDbArc
 50
90.0015650000002
 51
180.0000000000004
  0
LINE
  5
123
330
1F
100
AcDbEntity
  8
KONTUR
100
AcDbLine
 10
1504.172380709469
 20
2112.161960122919
 30
0.0
 11
1504.172380709469
 21
2118.161960122919
 31
0.0
  0
LINE
  5
124
330
1F
100
AcDbEntity
  8
KONTUR
100
AcDbLine
 10
1505.172380709469
 20
2112.161960122919
 30
0.0
 11
1504.172380709469
 21
2112.161960122919
 31
0.0
  0
ARC
  5
125
330
1F
100
AcDbEntity
  8
KONTUR
100
AcDbCircle
 10
1505.172380709469
 20
2111.411960122919
 30
0.0
 40
0.75
100
AcDbArc
 50
270.0000000000006
 51
90.00002000000102
  0
ARC
  5
126
330
1F
100
AcDbEntity
  8
KONTUR
100
AcDbCircle
 10
1223.172380709469
 20
2111.411960122919
 30
0.0
 40
0.75
100
AcDbArc
 50
90.0000000000002
 51
270.0000000000006
  0
LINE
  5
127
330
1F
100
AcDbEntity
  8
KONTUR
100
AcDbLine
 10
1223.172380709469
 20
2112.161960122919
 30
0.0
 11
1224.172380709469
 21
2112.161960122919
 31
0.0
  0
LINE
  5
128
330
1F
100
AcDbEntity
  8
KONTUR
100
AcDbLine
 10
1224.172380709469
 20
2112.161960122919
 30
0.0
 11
1224.172380709469
 21
2118.161960122919
 31
0.0
  0
LINE
  5
129
330
1F
100
AcDbEntity
  8
KONTUR
100
AcDbLine
 10
1221.672380709469
 20
2120.661960122919
 30
0.0
 11
1216.115480709469
 21
2120.63786012292
 31
0.0
  0
ARC
  5
12A
330
1F
100
AcDbEntity
  8
KONTUR
100
AcDbCircle
 10
1221.672380709469
 20
2118.161960122919
 30
0.0
 40
2.4999998
100
AcDbArc
 50
0.0000035806
 51
89.9984350000002
  0
LWPOLYLINE
  5
12B
330
1F
100
AcDbEntity
  8
KONTUR
100
AcDbPolyline
 90
       47
 70
     0
 43
0.0
 10
1483.264680709469
 20
2083.69276012292
 10
1478.378180709469
 20
2083.09986012292
 42
-0.0011040649
 10
1473.478380709469
 20
2082.52676012292
 42
-0.001084531
 10
1468.564780709469
 20
2081.97416012292
 42
-0.0010938621
 10
1463.637880709469
 20
2081.44196012292
 42
-0.0011358492
 10
1458.697380709469
 20
2080.93186012292
 42
-0.0011634459
 10
1453.745880709469
 20
2080.44376012292
 42
-0.0011867408
 10
1448.784680709469
 20
2079.97936012292
 42
-0.0012067679
 10
1443.814080709469
 20
2079.53806012292
 42
-0.0012283451
 10
1438.833380709469
 20
2079.12136012292
 42
-0.0012465483
 10
1433.842980709469
 20
2078.72876012292
 42
-0.0012676963
 10
1428.842480709469
 20
2078.36166012292
 42
-0.0012864256
 10
1423.831780709469
 20
2078.01956012292
 42
-0.001308467
 10
1418.810380709469
 20
2077.70396012292
 42
-0.0013242859
 10
1413.780780709469
 20
2077.41436012292
 42
-0.001341424
 10
1408.744980709469
 20
2077.15236012292
 42
-0.0013527152
 10
1403.704180709469
 20
2076.91716012292
 42
-0.0013606022
 10
1398.658380709469
 20
2076.70986012292
 42
-0.0013682238
 10
1393.608280709469
 20
2076.52986012292
 42
-0.0013781082
 10
1388.553980709469
 20
2076.37836012292
 42
-0.0013862579
 10
1383.495380709469
 20
2076.25446012292
 42
-0.0013949583
 10
1378.432380709469
 20
2076.15956012292
 42
-0.0014046392
 10
1373.367580709469
 20
2076.09276012292
 42
-0.0014204141
 10
1368.303480709469
 20
2076.05566012292
 42
-0.001424895
 10
1363.241380709469
 20
2076.046860122919
 42
-0.0014178772
 10
1358.182180709469
 20
2076.06736012292
 42
-0.0014114198
 10
1353.125880709469
 20
2076.11596012292
 42
-0.0014027027
 10
1348.072580709469
 20
2076.19356012292
 42
-0.0013955399
 10
1343.022480709469
 20
2076.29876012292
 42
-0.001387745
 10
1337.975880709469
 20
2076.43256012292
 42
-0.001380705
 10
1332.932880709469
 20
2076.59366012292
 42
-0.0013721424
 10
1327.893780709469
 20
2076.78296012292
 42
-0.0013661122
 10
1322.858380709469
 20
2076.999160122919
 42
-0.0013602532
 10
1317.826980709469
 20
2077.243260122919
 42
-0.0013509076
 10
1312.800780709469
 20
2077.51376012292
 42
-0.001336343
 10
1307.780480709469
 20
2077.81156012292
 42
-0.0013393882
 10
1302.761380709469
 20
2078.13606012292
 42
-0.001355554
 10
1297.745980709469
 20
2078.48806012292
 42
-0.0013035153
 10
1292.773880709469
 20
2078.861560122919
 42
-0.001199949
 10
1287.868880709469
 20
2079.254560122919
 42
-0.0012804472
 10
1282.928280709469
 20
2079.67746012292
 42
-0.0014535729
 10
1277.916780709469
 20
2080.13446012292
 42
-0.001118323
 10
1273.232880709469
 20
2080.576060122919
 42
-0.0004645548
 10
1269.016880709469
 20
2080.98576012292
 42
-0.0014581954
 10
1263.690980709469
 20
2081.54976012292
 42
-0.0023808722
 10
1255.602980709469
 20
2082.465460122919
 42
-0.001183476
 10
1245.080180709469
 20
2083.69276012292
 42
-0.0006461433
  0
LWPOLYLINE
  5
15C
330
1F
100
AcDbEntity
  8
KONTUR
100
AcDbPolyline
 90
       23
 70
     0
 43
0.0
 10
1502.038280709469
 20
2093.300860122919
 10
1501.846480709469
 20
2092.79616012292
 42
-0.02443193
 10
1501.599280709469
 20
2092.29176012292
 42
-0.022578607
 10
1501.294280709469
 20
2091.78776012292
 42
-0.020553272
 10
1500.934280709469
 20
2091.28526012292
 42
-0.018812153
 10
1500.517780709469
 20
2090.78596012292
 42
-0.017131091
 10
1500.047380709469
 20
2090.29096012292
 42
-0.015670281
 10
1499.521580709469
 20
2089.801560122919
 42
-0.014324047
 10
1498.942780709469
 20
2089.31866012292
 42
-0.013239837
 10
1498.309280709469
 20
2088.84396012292
 42
-0.012155853
 10
1497.624380709469
 20
2088.37816012292
 42
-0.01123451
 10
1496.886680709469
 20
2087.923160122919
 42
-0.010545502
 10
1496.096480709469
 20
2087.47916012292
 42
-0.01010927
 10
1495.251680709469
 20
2087.04766012292
 42
-0.0091789203
 10
1494.363980709469
 20
2086.631760122919
 42
-0.0081761233
 10
1493.437080709469
 20
2086.235160122919
 42
-0.0086974066
 10
1492.447780709469
 20
2085.85456012292
 42
-0.0099862681
 10
1491.386980709469
 20
2085.49116012292
 42
-0.0071005882
 10
1490.366080709469
 20
2085.16136012292
 42
-0.0020671124
 10
1489.422280709469
 20
2084.87316012292
 42
-0.0098990901
 10
1488.132680709469
 20
2084.56286012292
 42
-0.016328714
 10
1486.050080709469
 20
2084.16536012292
 42
-0.0074512739
 10
1483.264680709469
 20
2083.69276012292
 42
-0.0037637973
  0
LWPOLYLINE
  5
175
330
1F
100
AcDbEntity
  8
KONTUR
100
AcDbPolyline
 90
       39
 70
     0
 43
0.0
 10
1500.800080709469
 20
2093.29576012292
 10
1500.656580709469
 20
2092.89586012292
 42
-0.010824914
 10
1500.509680709469
 20
2092.54086012292
 42
-0.013722179
 10
1500.360580709469
 20
2092.23666012292
 42
-0.016442373
 10
1500.200480709469
 20
2091.95346012292
 42
-0.012484693
 10
1500.019480709469
 20
2091.662860122919
 42
-0.0093657484
 10
1499.819280709469
 20
2091.367660122919
 42
-0.010470654
 10
1499.601580709469
 20
2091.07526012292
 42
-0.010715768
 10
1499.366980709469
 20
2090.78526012292
 42
-0.0097131183
 10
1499.114280709469
 20
2090.496260122919
 42
-0.009020729
 10
1498.844280709469
 20
2090.20856012292
 42
-0.0087695533
 10
1498.556680709469
 20
2089.92286012292
 42
-0.0084210706
 10
1498.252080709469
 20
2089.639360122919
 42
-0.008019068
 10
1497.929980709469
 20
2089.35826012292
 42
-0.0076462132
 10
1497.591180709469
 20
2089.07976012292
 42
-0.007351879
 10
1497.234980709469
 20
2088.80426012292
 42
-0.0070483043
 10
1496.862280709469
 20
2088.53186012292
 42
-0.0067825946
 10
1496.472480709469
 20
2088.26286012292
 42
-0.0065157627
 10
1496.066380709469
 20
2087.99756012292
 42
-0.0062920926
 10
1495.643280709469
 20
2087.73616012292
 42
-0.0060634757
 10
1495.204180709469
 20
2087.478960122919
 42
-0.0058723018
 10
1494.748280709469
 20
2087.226260122919
 42
-0.0056732416
 10
1494.276480709469
 20
2086.978060122919
 42
-0.005506763
 10
1493.788080709469
 20
2086.73496012292
 42
-0.0053380977
 10
1493.283980709469
 20
2086.49686012292
 42
-0.0052044062
 10
1492.763580709469
 20
2086.26436012292
 42
-0.0050377246
 10
1492.228280709469
 20
2086.03766012292
 42
-0.0048903108
 10
1491.677980709469
 20
2085.81746012292
 42
-0.0048353096
 10
1491.112780709469
 20
2085.60366012292
 42
-0.004878949
 10
1490.532180709469
 20
2085.39696012292
 42
-0.0046261696
 10
1489.941680709469
 20
2085.198360122919
 42
-0.0042103343
 10
1489.342780709469
 20
2085.008560122919
 42
-0.0047125181
 10
1488.718480709469
 20
2084.824960122919
 42
-0.0057369478
 10
1488.060580709469
 20
2084.64696012292
 42
-0.00422413
 10
1487.431080709469
 20
2084.48376012292
 42
-0.001341516
 10
1486.851280709469
 20
2084.33966012292
 42
-0.005854276
 10
1486.081580709469
 20
2084.17726012292
 42
-0.0098459718
 10
1484.869180709469
 20
2083.95836012292
 42
-0.0046757059
 10
1483.265080709469
 20
2083.690260122919
 42
-0.0024118622
  0
LWPOLYLINE
  5
19E
330
1F
100
AcDbEntity
  8
KONTUR
100
AcDbPolyline
 90
       23
 70
     0
 43
0.0
 10
1514.003380709469
 20
2120.48426012292
 10
1513.618180709469
 20
2120.043160122919
 42
0.013516054
 10
1513.221880709469
 20
2119.54196012292
 42
0.011342099
 10
1512.813980709469
 20
2118.97826012292
 42
0.0095738313
 10
1512.395080709469
 20
2118.35446012292
 42
0.0082503304
 10
1511.965080709469
 20
2117.66836012292
 42
0.0071296173
 10
1511.524580709469
 20
2116.92256012292
 42
0.0062514268
 10
1511.073180709469
 20
2116.11486012292
 42
0.005504574
 10
1510.611580709469
 20
2115.24746012292
 42
0.0049195647
 10
1510.139580709469
 20
2114.31806012292
 42
0.0043828554
 10
1509.657780709469
 20
2113.32986012292
 42
0.0039363402
 10
1509.166180709469
 20
2112.280860122919
 42
0.0036015067
 10
1508.664780709469
 20
2111.17146012292
 42
0.0033763092
 10
1508.153380709469
 20
2109.99886012292
 42
0.0030080479
 10
1507.635780709469
 20
2108.775660122919
 42
0.0026086554
 10
1507.113080709469
 20
2107.50296012292
 42
0.0027029827
 10
1506.573180709469
 20
2106.14446012292
 42
0.0030192323
 10
1506.011580709469
 20
2104.68446012292
 42
0.002097256
 10
1505.479680709469
 20
2103.27956012292
 42
0.0006309203
 10
1504.994880709469
 20
2101.98066012292
 42
0.0028259652
 10
1504.357680709469
 20
2100.18276012292
 42
0.0043873651
 10
1503.358080709469
 20
2097.24656012292
 42
0.0019274462
 10
1502.038280709469
 20
2093.300860122919
 42
0.0009654688
  0
LWPOLYLINE
  5
1B7
330
1F
100
AcDbEntity
  8
KONTUR
100
AcDbPolyline
 90
       23
 70
     0
 43
0.0
 10
1512.757080709469
 20
2120.48416012292
 10
1512.371980709469
 20
2120.04346012292
 42
0.013440827
 10
1511.975880709469
 20
2119.54306012292
 42
0.011282858
 10
1511.568180709469
 20
2118.98046012292
 42
0.0095384968
 10
1511.149580709469
 20
2118.35816012292
 42
0.008244734
 10
1510.719980709469
 20
2117.67396012292
 42
0.0071423348
 10
1510.279980709469
 20
2116.93046012292
 42
0.0062768917
 10
1509.829280709469
 20
2116.12516012292
 42
0.005539045
 10
1509.368680709469
 20
2115.26056012292
 42
0.004962537
 10
1508.897780709469
 20
2114.334160122919
 42
0.004431853
 10
1508.417480709469
 20
2113.34926012292
 42
0.0039922713
 10
1507.927780709469
 20
2112.30366012292
 42
0.003656066
 10
1507.428180709469
 20
2111.197360122919
 42
0.0034204043
 10
1506.918480709469
 20
2110.02726012292
 42
0.0030370519
 10
1506.402380709469
 20
2108.80566012292
 42
0.0026216186
 10
1505.880980709469
 20
2107.533760122919
 42
0.0027057333
 10
1505.341880709469
 20
2106.17486012292
 42
0.0030134153
 10
1504.780680709469
 20
2104.71336012292
 42
0.0020768804
 10
1504.248380709469
 20
2103.30586012292
 42
0.0005828926
 10
1503.762580709469
 20
2102.00336012292
 42
0.002792905
 10
1503.123780709469
 20
2100.19976012292
 42
0.0044257102
 10
1502.122280709469
 20
2097.254060122919
 42
0.0019501882
 10
1500.800080709469
 20
2093.29576012292
 42
0.0009717909
  0
LINE
  5
1D0
330
1F
100
AcDbEntity
  8
KONTUR
100
AcDbLine
 10
1512.757080709469
 20
2120.48416012292
 30
0.0
 11
1514.003380709469
 21
2120.48426012292
 31
0.0
  0
LWPOLYLINE
  5
1D1
330
1F
100
AcDbEntity
  8
KONTUR
100
AcDbPolyline
 90
       31
 70
     0
 43
0.0
 10
1512.009480709469
 20
2120.661960122919
 10
1512.034480709469
 20
2120.66156012292
 42
-0.0048374204
 10
1512.070580709469
 20
2120.660560122919
 42
-0.0023231383
 10
1512.118380709469
 20
2120.65896012292
 42
-0.0013213906
 10
1512.176480709469
 20
2120.65666012292
 42
-0.0009190892
 10
1512.244080709469
 20
2120.65376012292
 42
-0.0007072811
 10
1512.319780709469
 20
2120.65036012292
 42
-0.000593774
 10
1512.403280709469
 20
2120.64646012292
 42
-0.0005231272
 10
1512.493180709469
 20
2120.64196012292
 42
-0.0004941018
 10
1512.588780709469
 20
2120.63706012292
 42
-0.0004757643
 10
1512.688880709469
 20
2120.631760122919
 42
-0.0004794459
 10
1512.792880709469
 20
2120.62606012292
 42
-0.0004907957
 10
1512.899680709469
 20
2120.61996012292
 42
-0.0005200123
 10
1513.008780709469
 20
2120.61346012292
 42
-0.0005504352
 10
1513.118080709469
 20
2120.60676012292
 42
-0.0006135974
 10
1513.225580709469
 20
2120.59976012292
 42
-0.0007243604
 10
1513.328780709469
 20
2120.59286012292
 42
-0.0009351032
 10
1513.425180709469
 20
2120.585860122919
 42
-0.001191642
 10
1513.514880709469
 20
2120.57896012292
 42
-0.0014614878
 10
1513.597980709469
 20
2120.57196012292
 42
-0.0018267898
 10
1513.674380709469
 20
2120.56496012292
 42
-0.0023715399
 10
1513.743480709469
 20
2120.55776012292
 42
-0.0030117049
 10
1513.805280709469
 20
2120.55056012292
 42
-0.003767367
 10
1513.859280709469
 20
2120.543260122919
 42
-0.0054345686
 10
1513.905580709469
 20
2120.53566012292
 42
-0.0087535363
 10
1513.943480709469
 20
2120.52786012292
 42
-0.011610856
 10
1513.972580709469
 20
2120.52036012292
 42
-0.013110351
 10
1513.992180709469
 20
2120.513560122919
 42
-0.033243349
 10
1514.003480709469
 20
2120.50606012292
 42
-0.10759474
 10
1514.007080709469
 20
2120.49616012292
 42
-0.18393001
 10
1514.003380709469
 20
2120.48426012292
 42
-0.13856357
  0
LWPOLYLINE
  5
1F2
330
1F
100
AcDbEntity
  8
KONTUR
100
AcDbPolyline
 90
       63
 70
     0
 43
0.0
 10
1512.009480709469
 20
2120.661960122919
 10
1512.015580709469
 20
2120.66176012292
 42
-0.013706647
 10
1512.024880709469
 20
2120.661060122919
 42
-0.0057732946
 10
1512.037480709469
 20
2120.65986012292
 42
-0.003141318
 10
1512.053180709469
 20
2120.65826012292
 42
-0.0022145698
 10
1512.071780709469
 20
2120.65626012292
 42
-0.001709984
 10
1512.092880709469
 20
2120.653860122919
 42
-0.0014402826
 10
1512.116580709469
 20
2120.65096012292
 42
-0.0012670014
 10
1512.142380709469
 20
2120.64776012292
 42
-0.0011977933
 10
1512.170280709469
 20
2120.64406012292
 42
-0.0011449049
 10
1512.199980709469
 20
2120.64006012292
 42
-0.0011437058
 10
1512.231380709469
 20
2120.63566012292
 42
-0.0011444307
 10
1512.264180709469
 20
2120.630860122919
 42
-0.0011839363
 10
1512.298280709469
 20
2120.62576012292
 42
-0.0012220466
 10
1512.333280709469
 20
2120.62036012292
 42
-0.001304743
 10
1512.369080709469
 20
2120.61456012292
 42
-0.0013644324
 10
1512.405680709469
 20
2120.60856012292
 42
-0.0014137493
 10
1512.442880709469
 20
2120.602060122919
 42
-0.0015857908
 10
1512.479580709469
 20
2120.59546012292
 42
-0.0020729211
 10
1512.514880709469
 20
2120.58876012292
 42
-0.0025870721
 10
1512.547980709469
 20
2120.58216012292
 42
-0.0031626439
 10
1512.578480709469
 20
2120.57556012292
 42
-0.003828699
 10
1512.606680709469
 20
2120.56896012292
 42
-0.0044434926
 10
1512.632380709469
 20
2120.56236012292
 42
-0.0052110876
 10
1512.655780709469
 20
2120.55586012292
 42
-0.0061633858
 10
1512.676780709469
 20
2120.54946012292
 42
-0.0077673824
 10
1512.695380709469
 20
2120.54296012292
 42
-0.010186551
 10
1512.711780709469
 20
2120.53636012292
 42
-0.012072998
 10
1512.725780709469
 20
2120.52996012292
 42
-0.012818543
 10
1512.737380709469
 20
2120.52366012292
 42
-0.021544768
 10
1512.746880709469
 20
2120.516960122919
 42
-0.040448896
 10
1512.754280709469
 20
2120.50946012292
 42
-0.036283063
 10
1512.758880709469
 20
2120.50386012292
 42
-0.016479494
 10
1512.759980709469
 20
2120.50236012292
 42
-0.044724694
 10
1512.759580709469
 20
2120.50266012292
 42
-0.017851418
 10
1512.759680709469
 20
2120.50236012292
 42
0.38520882
 10
1512.760180709469
 20
2120.50146012292
 42
-0.0030663568
 10
1512.760480709469
 20
2120.50086012292
 42
-0.029311237
 10
1512.760680709469
 20
2120.50036012292
 42
-0.012311778
 10
1512.760880709469
 20
2120.49976012292
 42
-0.0000664391
 10
1512.761080709469
 20
2120.499160122919
 42
-0.008569209
 10
1512.761280709469
 20
2120.49856012292
 42
-0.012354076
 10
1512.761380709469
 20
2120.49796012292
 42
-0.010161469
 10
1512.761480709469
 20
2120.497360122919
 42
-0.0092750503
 10
1512.761580709469
 20
2120.49676012292
 42
-0.010242371
 10
1512.761680709469
 20
2120.49616012292
 42
-0.010719311
 10
1512.761780709469
 20
2120.49546012292
 42
-0.010613544
 10
1512.761780709469
 20
2120.49486012292
 42
-0.010619566
 10
1512.761780709469
 20
2120.49426012292
 42
-0.010780172
 10
1512.761680709469
 20
2120.49366012292
 42
-0.010756003
 10
1512.761680709469
 20
2120.49306012292
 42
-0.010579502
 10
1512.761580709469
 20
2120.49246012292
 42
-0.010688549
 10
1512.761480709469
 20
2120.49186012292
 42
-0.011081214
 10
1512.761280709469
 20
2120.49126012292
 42
-0.010257171
 10
1512.761180709469
 20
2120.49056012292
 42
-0.0084406627
 10
1512.760980709469
 20
2120.489960122919
 42
-0.010571113
 10
1512.760680709469
 20
2120.48936012292
 42
-0.015643621
 10
1512.760380709469
 20
2120.48876012292
 42
-0.0078605083
 10
1512.760180709469
 20
2120.48816012292
 42
0.012013296
 10
1512.759980709469
 20
2120.48756012292
 42
-0.017571595
 10
1512.759480709469
 20
2120.48686012292
 42
-0.053314851
 10
1512.758580709469
 20
2120.485660122919
 42
-0.020279697
 10
1512.757080709469
 20
2120.48416012292
 42
-0.0083925529
  0
LWPOLYLINE
  5
233
330
1F
100
AcDbEntity
  8
KONTUR
100
AcDbPolyline
 90
       15
 70
     0
 43
0.0
 10
1503.036180709469
 20
1520.66206012292
 10
1503.728280709469
 20
1520.661960122919
 42
0.000000306
 10
1504.417080709469
 20
1520.661960122919
 42
0.0000003063
 10
1505.102080709469
 20
1520.661960122919
 42
0.000000312
 10
1505.784580709469
 20
1520.661960122919
 42
0.0000003214
 10
1506.464580709469
 20
1520.661960122919
 42
0.0000003156
 10
1507.138780709469
 20
1520.661960122919
 42
0.0000002973
 10
1507.805680709469
 20
1520.661960122919
 42
0.0000003313
 10
1508.479580709469
 20
1520.661960122919
 42
0.0000003993
 10
1509.165280709469
 20
1520.661960122919
 42
0.0000003068
 10
1509.807080709469
 20
1520.661960122919
 42
0.000000106
 10
1510.385580709469
 20
1520.661960122919
 42
0.0000004377
 10
1511.121180709469
 20
1520.661960122919
 42
0.0000007681
 10
1512.244280709469
 20
1520.661960122919
 42
0.0000003822
 10
1513.709380709469
 20
1520.66206012292
 42
0.0000002042
  0
LWPOLYLINE
  5
244
330
1F
100
AcDbEntity
  8
KONTUR
100
AcDbPolyline
 90
       27
 70
     0
 43
0.0
 10
1484.626980709469
 20
1520.66186012292
 10
1485.602080709469
 20
1520.66186012292
 42
-0.0000013568
 10
1486.563380709469
 20
1520.66186012292
 42
-0.0000015387
 10
1487.510680709469
 20
1520.661960122919
 42
-0.0000014454
 10
1488.442880709469
 20
1520.661960122919
 42
-0.0000010268
 10
1489.357680709469
 20
1520.661960122919
 42
-0.0000006984
 10
1490.254380709469
 20
1520.661960122919
 42
-0.0000003644
 10
1491.130980709469
 20
1520.661960122919
 42
-0.0000001426
 10
1491.987080709469
 20
1520.661960122919
 42
0.0000000212
 10
1492.820380709469
 20
1520.661960122919
 42
0.0000000847
 10
1493.630680709469
 20
1520.661960122919
 42
0.000000052
 10
1494.415780709469
 20
1520.661960122919
 42
0.0000000427
 10
1495.175380709469
 20
1520.661960122919
 42
0.000000056
 10
1495.907380709469
 20
1520.661960122919
 42
0.000000063
 10
1496.611480709469
 20
1520.661960122919
 42
0.0000000633
 10
1497.285380709469
 20
1520.661960122919
 42
0.0000000709
 10
1497.929880709469
 20
1520.661960122919
 42
0.000000087
 10
1498.542880709469
 20
1520.661960122919
 42
0.0000000832
 10
1499.123780709469
 20
1520.661960122919
 42
0.0000000511
 10
1499.669880709469
 20
1520.661960122919
 42
0.0000001129
 10
1500.187180709469
 20
1520.661960122919
 42
0.0000003036
 10
1500.675580709469
 20
1520.661960122919
 42
0.0000001184
 10
1501.114280709469
 20
1520.661960122919
 42
-0.0000006508
 10
1501.494080709469
 20
1520.661960122919
 42
0.0000009654
 10
1501.900280709469
 20
1520.661960122919
 42
0.0000048626
 10
1502.419680709469
 20
1520.661960122919
 42
0.000003655
 10
1503.036180709469
 20
1520.66206012292
 42
0.0000021996
  0
LWPOLYLINE
  5
261
330
1F
100
AcDbEntity
  8
KONTUR
100
AcDbPolyline
 90
       15
 70
     0
 43
0.0
 10
1243.717680709469
 20
1520.66186012292
 10
1258.587780709469
 20
1520.66186012292
 42
-0.0000000459
 10
1273.522880709469
 20
1520.66186012292
 42
-0.0000000452
 10
1288.524580709469
 20
1520.661960122919
 42
-0.000000045
 10
1303.598780709469
 20
1520.661960122919
 42
-0.0000000453
 10
1318.740480709469
 20
1520.661960122919
 42
-0.0000000438
 10
1333.854080709469
 20
1520.661960122919
 42
-0.0000000406
 10
1348.901580709469
 20
1520.661960122919
 42
-0.0000000446
 10
1364.197480709469
 20
1520.661960122919
 42
-0.000000053
 10
1379.842980709469
 20
1520.661960122919
 42
-0.0000000402
 10
1394.537880709469
 20
1520.661960122919
 10
1407.825880709469
 20
1520.661960122919
 42
-0.000000057
 10
1424.783680709469
 20
1520.661960122919
 42
-0.0000000996
 10
1450.736680709469
 20
1520.66186012292
 42
-0.0000000493
 10
1484.626980709469
 20
1520.66186012292
 42
-0.0000000262
  0
LWPOLYLINE
  5
272
330
1F
100
AcDbEntity
  8
KONTUR
100
AcDbPolyline
 90
       27
 70
     0
 43
0.0
 10
1225.308580709469
 20
1520.66206012292
 10
1225.537580709469
 20
1520.661960122919
 42
0.000005934
 10
1225.802780709469
 20
1520.661960122919
 42
0.000004703
 10
1226.105780709469
 20
1520.661960122919
 42
0.0000033569
 10
1226.444480709469
 20
1520.661960122919
 42
0.0000019877
 10
1226.819980709469
 20
1520.661960122919
 42
0.0000011302
 10
1227.230480709469
 20
1520.661960122919
 42
0.0000005111
 10
1227.676980709469
 20
1520.661960122919
 42
0.0000001781
 10
1228.157480709469
 20
1520.661960122919
 10
1228.672880709469
 20
1520.661960122919
 42
-0.0000000612
 10
1229.220980709469
 20
1520.661960122919
 42
-0.0000000241
 10
1229.802280709469
 20
1520.661960122919
 10
1230.414880709469
 20
1520.661960122919
 42
-0.0000000192
 10
1231.059280709469
 20
1520.661960122919
 10
1231.733180709469
 20
1520.661960122919
 10
1232.436880709469
 20
1520.661960122919
 42
-0.0000000149
 10
1233.169280709469
 20
1520.661960122919
 42
-0.0000000258
 10
1233.930980709469
 20
1520.661960122919
 42
-0.0000000091
 10
1234.714080709469
 20
1520.661960122919
 42
0.0000000346
 10
1235.516580709469
 20
1520.661960122919
 42
-0.0000000229
 10
1236.357680709469
 20
1520.661960122919
 42
-0.0000001771
 10
1237.244180709469
 20
1520.661960122919
 10
1238.090380709469
 20
1520.661960122919
 42
0.000000621
 10
1238.866780709469
 20
1520.661960122919
 42
-0.0000007208
 10
1239.901880709469
 20
1520.661960122919
 42
-0.0000026216
 10
1241.542080709469
 20
1520.66186012292
 42
-0.0000012987
 10
1243.717680709469
 20
1520.66186012292
 42
-0.0000005926
  0
LWPOLYLINE
  5
28F
330
1F
100
AcDbEntity
  8
KONTUR
100
AcDbPolyline
 90
       15
 70
     0
 43
0.0
 10
1214.635380709469
 20
1520.66206012292
 10
1215.277480709469
 20
1520.661960122919
 42
0.0000003554
 10
1215.922780709469
 20
1520.661960122919
 42
0.000000349
 10
1216.571180709469
 20
1520.661960122919
 42
0.0000003482
 10
1217.223580709469
 20
1520.661960122919
 42
0.0000003519
 10
1217.880380709469
 20
1520.661960122919
 42
0.0000003382
 10
1218.537680709469
 20
1520.661960122919
 42
0.0000003129
 10
1219.194280709469
 20
1520.661960122919
 42
0.0000003419
 10
1219.865180709469
 20
1520.661960122919
 42
0.000000403
 10
1220.555680709469
 20
1520.661960122919
 42
0.0000003023
 10
1221.205980709469
 20
1520.661960122919
 42
0.0000001032
 10
1221.795480709469
 20
1520.661960122919
 42
0.0000004217
 10
1222.560180709469
 20
1520.661960122919
 42
0.0000007117
 10
1223.747580709469
 20
1520.661960122919
 42
0.0000003421
 10
1225.308580709469
 20
1520.66206012292
 42
0.00000018
  0
LINE
  5
2A0
330
1F
100
AcDbEntity
  8
KONTUR
100
AcDbLine
 10
1505.172380709469
 20
2110.661960122919
 30
0.0
 11
1502.922380709469
 21
2110.661960122919
 31
0.0
  0
LWPOLYLINE
  5
2A1
330
1F
100
AcDbEntity
  8
KONTUR
100
AcDbPolyline
 90
       23
 70
     0
 43
0.0
 10
1227.547180709469
 20
2093.29426012292
 10
1226.958180709469
 20
2095.10226012292
 42
0.001568033
 10
1226.375180709469
 20
2096.85406012292
 42
0.001675917
 10
1225.798380709469
 20
2098.54736012292
 42
0.0017729692
 10
1225.227680709469
 20
2100.18416012292
 42
0.0018460888
 10
1224.663780709469
 20
2101.76186012292
 42
0.0019436512
 10
1224.106680709469
 20
2103.28266012292
 42
0.0020494461
 10
1223.557080709469
 20
2104.74396012292
 42
0.0021781086
 10
1223.014680709469
 20
2106.14806012292
 42
0.0023125383
 10
1222.480180709469
 20
2107.492360122919
 42
0.0024670957
 10
1221.953780709469
 20
2108.778860122919
 42
0.002620316
 10
1221.435980709469
 20
2110.00486012292
 42
0.0028464528
 10
1220.926280709469
 20
2111.17326012292
 42
0.0031290104
 10
1220.425080709469
 20
2112.28166012292
 42
0.0033191844
 10
1219.934380709469
 20
2113.329660122919
 42
0.0033715086
 10
1219.455780709469
 20
2114.31376012292
 42
0.0040585889
 10
1218.980480709469
 20
2115.24656012292
 42
0.0053799974
 10
1218.506280709469
 20
2116.12886012292
 42
0.0046616352
 10
1218.066780709469
 20
2116.92216012292
 42
0.001755027
 10
1217.674380709469
 20
2117.60986012292
 42
0.0074716897
 10
1217.195480709469
 20
2118.354860122919
 42
0.016723134
 10
1216.490780709469
 20
2119.323360122919
 42
0.010639094
 10
1215.587480709469
 20
2120.48426012292
 42
0.0064297159
  0
LWPOLYLINE
  5
2BA
330
1F
100
AcDbEntity
  8
KONTUR
100
AcDbPolyline
 90
       39
 70
     0
 43
0.0
 10
1244.862680709469
 20
2083.72006012292
 10
1244.255280709469
 20
2083.81016012292
 42
-0.0046337737
 10
1243.616380709469
 20
2083.91626012292
 42
-0.0041406941
 10
1242.940780709469
 20
2084.039660122919
 42
-0.0037938249
 10
1242.256580709469
 20
2084.17556012292
 42
-0.004172294
 10
1241.591780709469
 20
2084.32026012292
 42
-0.00455511
 10
1240.943680709469
 20
2084.47326012292
 42
-0.0043792421
 10
1240.306080709469
 20
2084.635760122919
 42
-0.0042944157
 10
1239.679280709469
 20
2084.80706012292
 42
-0.004414487
 10
1239.065980709469
 20
2084.98676012292
 42
-0.0045176498
 10
1238.465680709469
 20
2085.17436012292
 42
-0.0045363816
 10
1237.878580709469
 20
2085.370060122919
 42
-0.0045931787
 10
1237.304580709469
 20
2085.57296012292
 42
-0.0046657106
 10
1236.744480709469
 20
2085.78326012292
 42
-0.004757446
 10
1236.197980709469
 20
2086.00036012292
 42
-0.004833711
 10
1235.665880709469
 20
2086.22406012292
 42
-0.0049381042
 10
1235.147880709469
 20
2086.45406012292
 42
-0.0050385551
 10
1234.644780709469
 20
2086.690060122919
 42
-0.0051670916
 10
1234.156280709469
 20
2086.931660122919
 42
-0.0052901741
 10
1233.683080709469
 20
2087.17876012292
 42
-0.0054449957
 10
1233.224980709469
 20
2087.43086012292
 42
-0.0055976706
 10
1232.782780709469
 20
2087.68786012292
 42
-0.0057845202
 10
1232.356080709469
 20
2087.94916012292
 42
-0.0059700542
 10
1231.945680709469
 20
2088.214760122919
 42
-0.0061974872
 10
1231.551380709469
 20
2088.48416012292
 42
-0.006433729
 10
1231.174080709469
 20
2088.75716012292
 42
-0.0066817562
 10
1230.813380709469
 20
2089.03306012292
 42
-0.0068961134
 10
1230.470080709469
 20
2089.31176012292
 42
-0.0073048486
 10
1230.143480709469
 20
2089.59356012292
 42
-0.0078629962
 10
1229.834280709469
 20
2089.87856012292
 42
-0.0079367621
 10
1229.543180709469
 20
2090.16366012292
 42
-0.0075266012
 10
1229.271380709469
 20
2090.44796012292
 42
-0.0090987842
 10
1229.013580709469
 20
2090.74146012292
 42
-0.012125846
 10
1228.766980709469
 20
2091.050660122919
 42
-0.0096252203
 10
1228.539680709469
 20
2091.35086012292
 42
-0.0031500647
 10
1228.335280709469
 20
2091.63436012292
 42
-0.014012162
 10
1228.118480709469
 20
2092.002760122919
 42
-0.027845178
 10
1227.853580709469
 20
2092.56326012292
 42
-0.01557737
 10
1227.547180709469
 20
2093.29426012292
 42
-0.008396496
  0
LINE
  5
2E3
330
1F
100
AcDbEntity
  8
KONTUR
100
AcDbLine
 10
1223.172380709469
 20
2110.661960122919
 30
0.0
 11
1225.422380709469
 21
2110.661960122919
 31
0.0
  0
LWPOLYLINE
  5
2E4
330
1F
100
AcDbEntity
  8
KONTUR
100
AcDbPolyline
 90
       15
 70
     0
 43
0.0
 10
1512.010980709469
 20
2119.58936012292
 10
1512.010980709469
 20
2119.656460122919
 42
0.000017234
 10
1512.010980709469
 20
2119.72346012292
 42
0.000012965
 10
1512.010980709469
 20
2119.79046012292
 42
0.0000171361
 10
1512.010980709469
 20
2119.857560122919
 42
0.0000307027
 10
1512.010980709469
 20
2119.92466012292
 42
0.0000373134
 10
1512.010880709469
 20
2119.99156012292
 42
0.0000394403
 10
1512.010880709469
 20
2120.058060122919
 42
0.0000550342
 10
1512.010780709469
 20
2120.12566012292
 42
0.000083086
 10
1512.010680709469
 20
2120.19486012292
 42
0.000063603
 10
1512.010580709469
 20
2120.25976012292
 42
0.0000079604
 10
1512.010580709469
 20
2120.31846012292
 42
0.0001162977
 10
1512.010380709469
 20
2120.39386012292
 42
0.0002361362
 10
1512.009980709469
 20
2120.509960122919
 42
0.0001176906
 10
1512.009480709469
 20
2120.661960122919
 42
0.0000604484
  0
LWPOLYLINE
  5
2F5
330
1F
100
AcDbEntity
  8
KONTUR
100
AcDbPolyline
 90
       39
 70
     0
 43
0.0
 10
1215.587480709469
 20
2120.48426012292
 10
1215.585380709469
 20
2120.486560122919
 42
-0.12770729
 10
1215.584080709469
 20
2120.49036012292
 42
-0.077397629
 10
1215.583580709469
 20
2120.49566012292
 42
-0.051720214
 10
1215.584580709469
 20
2120.501660122919
 42
-0.075794417
 10
1215.587680709469
 20
2120.50756012292
 42
-0.076703603
 10
1215.592780709469
 20
2120.51316012292
 42
-0.044938078
 10
1215.599580709469
 20
2120.518960122919
 42
-0.028566352
 10
1215.608080709469
 20
2120.52476012292
 42
-0.023020667
 10
1215.618380709469
 20
2120.53046012292
 42
-0.017865442
 10
1215.630080709469
 20
2120.53626012292
 42
-0.013487892
 10
1215.643480709469
 20
2120.54196012292
 42
-0.010622135
 10
1215.658180709469
 20
2120.54756012292
 42
-0.008799758
 10
1215.674380709469
 20
2120.55316012292
 42
-0.007372659
 10
1215.691880709469
 20
2120.55866012292
 42
-0.0062800669
 10
1215.710580709469
 20
2120.56416012292
 42
-0.0054238272
 10
1215.730580709469
 20
2120.56946012292
 42
-0.0047597021
 10
1215.751580709469
 20
2120.57466012292
 42
-0.0042688392
 10
1215.773680709469
 20
2120.57976012292
 42
-0.0039553887
 10
1215.796780709469
 20
2120.58476012292
 42
-0.0034970223
 10
1215.820780709469
 20
2120.58966012292
 42
-0.0028489722
 10
1215.845980709469
 20
2120.59446012292
 42
-0.002203868
 10
1215.872180709469
 20
2120.59926012292
 42
-0.0014770389
 10
1215.899580709469
 20
2120.60416012292
 42
-0.0012104651
 10
1215.928080709469
 20
2120.60906012292
 42
-0.0013302827
 10
1215.957580709469
 20
2120.61396012292
 42
-0.0013565436
 10
1215.987880709469
 20
2120.61896012292
 42
-0.0013271192
 10
1216.018880709469
 20
2120.62376012292
 42
-0.001308283
 10
1216.050580709469
 20
2120.62856012292
 42
-0.001324717
 10
1216.082780709469
 20
2120.63326012292
 42
-0.0013844094
 10
1216.115480709469
 20
2120.63786012292
 42
-0.0014787614
 10
1216.148880709469
 20
2120.64226012292
 42
-0.001447377
 10
1216.181780709469
 20
2120.64646012292
 42
-0.0014404382
 10
1216.213580709469
 20
2120.65036012292
 42
-0.0017173077
 10
1216.246380709469
 20
2120.65406012292
 42
-0.001878193
 10
1216.277180709469
 20
2120.65736012292
 42
-0.002320466
 10
1216.278780709469
 20
2120.65716012292
 42
-33.015354
 10
1216.222880709469
 20
2120.65046012292
 42
-0.001765741
 10
1216.115480709469
 20
2120.63786012292
 42
-0.000281349
  0
LWPOLYLINE
  5
31E
330
1F
100
AcDbEntity
  8
KONTUR
100
AcDbPolyline
 90
       15
 70
     0
 43
0.0
 10
1216.115480709469
 20
2120.63786012292
 10
1216.153780709469
 20
2120.57496012292
 42
-0.013731842
 10
1216.187580709469
 20
2120.51166012292
 42
-0.01482036
 10
1216.216680709469
 20
2120.44776012292
 42
-0.015098466
 10
1216.241680709469
 20
2120.38346012292
 42
-0.01415639
 10
1216.262780709469
 20
2120.31856012292
 42
-0.013082922
 10
1216.280480709469
 20
2120.25356012292
 42
-0.0117821
 10
1216.294880709469
 20
2120.18856012292
 42
-0.01151504
 10
1216.306480709469
 20
2120.12226012292
 42
-0.011301792
 10
1216.315480709469
 20
2120.053960122919
 42
-0.0085324656
 10
1216.322280709469
 20
2119.98976012292
 42
-0.0049484837
 10
1216.327080709469
 20
2119.93156012292
 42
-0.0081688272
 10
1216.330380709469
 20
2119.85646012292
 42
-0.0087957651
 10
1216.332580709469
 20
2119.740560122919
 42
-0.0039628876
 10
1216.333780709469
 20
2119.58846012292
 42
-0.0023715956
  0
LWPOLYLINE
  5
32F
330
1F
100
AcDbEntity
  8
KONTUR
100
AcDbPolyline
 90
       31
 70
     0
 43
0.0
 10
1214.341380709469
 20
2120.48426012292
 10
1214.337780709469
 20
2120.488360122919
 42
-0.074819675
 10
1214.335980709469
 20
2120.49276012292
 42
-0.083778426
 10
1214.335780709469
 20
2120.49746012292
 42
-0.10361877
 10
1214.338080709469
 20
2120.50236012292
 42
-0.11923304
 10
1214.343780709469
 20
2120.50746012292
 42
-0.075582074
 10
1214.353380709469
 20
2120.51286012292
 42
-0.043901687
 10
1214.367780709469
 20
2120.51856012292
 42
-0.026118242
 10
1214.387580709469
 20
2120.524360122919
 42
-0.017521017
 10
1214.413580709469
 20
2120.53046012292
 42
-0.011815539
 10
1214.446280709469
 20
2120.53676012292
 42
-0.0086254857
 10
1214.486580709469
 20
2120.543260122919
 42
-0.0064839333
 10
1214.535180709469
 20
2120.54986012292
 42
-0.0051985467
 10
1214.593080709469
 20
2120.55676012292
 42
-0.003830335
 10
1214.658880709469
 20
2120.56366012292
 42
-0.0029005067
 10
1214.731480709469
 20
2120.57046012292
 42
-0.0023011968
 10
1214.810180709469
 20
2120.57726012292
 42
-0.001821772
 10
1214.894880709469
 20
2120.584060122919
 42
-0.0014815463
 10
1214.984980709469
 20
2120.59066012292
 42
-0.0012286497
 10
1215.080480709469
 20
2120.59736012292
 42
-0.0010323636
 10
1215.180880709469
 20
2120.603960122919
 42
-0.0008714436
 10
1215.286080709469
 20
2120.61046012292
 42
-0.0007260284
 10
1215.395580709469
 20
2120.61706012292
 42
-0.0005842307
 10
1215.508980709469
 20
2120.62356012292
 42
-0.000527058
 10
1215.626780709469
 20
2120.63006012292
 42
-0.0005294386
 10
1215.747680709469
 20
2120.63656012292
 42
-0.0003622087
 10
1215.862580709469
 20
2120.64266012292
 42
-0.0000455553
 10
1215.964480709469
 20
2120.647960122919
 42
-0.0006708639
 10
1216.069280709469
 20
2120.65276012292
 42
-0.0021178679
 10
1216.193880709469
 20
2120.657460122919
 42
-0.0017836253
 10
1216.335280709469
 20
2120.661960122919
 42
-0.0012194853
  0
LINE
  5
350
330
1F
100
AcDbEntity
  8
KONTUR
100
AcDbLine
 10
1215.587480709469
 20
2120.48426012292
 30
0.0
 11
1214.341380709469
 21
2120.48426012292
 31
0.0
  0
LWPOLYLINE
  5
351
330
1F
100
AcDbEntity
  8
KONTUR
100
AcDbPolyline
 90
       23
 70
     0
 43
0.0
 10
1226.306480709469
 20
2093.300860122919
 10
1225.717280709469
 20
2095.10786012292
 42
0.0015864218
 10
1225.133880709469
 20
2096.85886012292
 42
0.0016966546
 10
1224.556280709469
 20
2098.551760122919
 42
0.0017922878
 10
1223.984580709469
 20
2100.188460122919
 42
0.0018593302
 10
1223.419680709469
 20
2101.76646012292
 42
0.001951797
 10
1222.861380709469
 20
2103.287860122919
 42
0.0020522779
 10
1222.310480709469
 20
2104.74996012292
 42
0.002176479
 10
1221.766780709469
 20
2106.15506012292
 42
0.0023061967
 10
1221.230980709469
 20
2107.50056012292
 42
0.002449797
 10
1220.703480709469
 20
2108.78816012292
 42
0.0025845233
 10
1220.185080709469
 20
2110.01476012292
 42
0.0028060057
 10
1219.675180709469
 20
2111.18326012292
 42
0.0030970694
 10
1219.174080709469
 20
2112.29126012292
 42
0.0032952218
 10
1218.683880709469
 20
2113.33856012292
 42
0.003356427
 10
1218.205980709469
 20
2114.32176012292
 42
0.0040526484
 10
1217.731380709469
 20
2115.25326012292
 42
0.00538617
 10
1217.257980709469
 20
2116.13426012292
 42
0.0046772996
 10
1216.819280709469
 20
2116.92616012292
 42
0.001781586
 10
1216.427480709469
 20
2117.612460122919
 42
0.0075143358
 10
1215.949080709469
 20
2118.35636012292
 42
0.016734928
 10
1215.244580709469
 20
2119.32396012292
 42
0.01062585
 10
1214.341380709469
 20
2120.48426012292
 42
0.006421712
  0
LWPOLYLINE
  5
36A
330
1F
100
AcDbEntity
  8
KONTUR
100
AcDbPolyline
 90
       23
 70
     0
 43
0.0
 10
1245.080180709469
 20
2083.69276012292
 10
1243.817280709469
 20
2083.86686012292
 42
-0.0064140493
 10
1242.584980709469
 20
2084.06956012292
 42
-0.006782714
 10
1241.384280709469
 20
2084.30206012292
 42
-0.0069803491
 10
1240.215780709469
 20
2084.56196012292
 42
-0.006985692
 10
1239.082780709469
 20
2084.84846012292
 42
-0.0071148476
 10
1237.985580709469
 20
2085.15936012292
 42
-0.0072844019
 10
1236.927080709469
 20
2085.49416012292
 42
-0.0075179947
 10
1235.907580709469
 20
2085.85076012292
 42
-0.0077512576
 10
1234.930380709469
 20
2086.22856012292
 42
-0.0080736661
 10
1233.995080709469
 20
2086.625460122919
 42
-0.0084064733
 10
1233.105180709469
 20
2087.04086012292
 42
-0.0088741552
 10
1232.261680709469
 20
2087.47236012292
 42
-0.009456969
 10
1231.469580709469
 20
2087.91816012292
 42
-0.0098320431
 10
1230.729180709469
 20
2088.373260122919
 42
-0.0097959892
 10
1230.044080709469
 20
2088.83576012292
 42
-0.011478442
 10
1229.407480709469
 20
2089.31516012292
 42
-0.014734846
 10
1228.820480709469
 20
2089.81446012292
 42
-0.012509244
 10
1228.300380709469
 20
2090.28846012292
 42
-0.0048675153
 10
1227.856480709469
 20
2090.72116012292
 42
-0.019107225
 10
1227.411880709469
 20
2091.28356012292
 42
-0.039495149
 10
1226.890780709469
 20
2092.15546012292
 42
-0.022852488
 10
1226.306480709469
 20
2093.300860122919
 42
-0.01299366
  0
LWPOLYLINE
  5
383
330
1F
100
AcDbEntity
  8
KONTUR
100
AcDbPolyline
 90
       43
 70
     0
 43
0.0
 10
1214.335180709469
 20
2120.49586012292
 10
1214.335580709469
 20
2106.86336012292
 42
0.0000034822
 10
1214.336180709469
 20
2093.230760122919
 42
0.000005308
 10
1214.337080709469
 20
2079.59816012292
 42
0.0000035273
 10
1214.337980709469
 20
2065.96556012292
 42
-0.0000023138
 10
1214.338680709469
 20
2052.33296012292
 42
-0.0000030631
 10
1214.339380709469
 20
2038.700360122919
 42
0.000001088
 10
1214.340180709469
 20
2025.06766012292
 42
0.000003399
 10
1214.341180709469
 20
2011.435060122919
 42
0.0000044598
 10
1214.342480709469
 20
1997.802460122919
 42
0.00000479
 10
1214.343980709469
 20
1984.16986012292
 42
0.0000044741
 10
1214.345780709469
 20
1970.53726012292
 42
0.0000042437
 10
1214.347780709469
 20
1956.90466012292
 42
0.0000040396
 10
1214.349980709469
 20
1943.27206012292
 42
0.0000038458
 10
1214.352380709469
 20
1929.639460122919
 42
0.0000036127
 10
1214.354980709469
 20
1916.00686012292
 42
0.0000034104
 10
1214.357780709469
 20
1902.37426012292
 42
0.0000031878
 10
1214.360680709469
 20
1888.74166012292
 42
0.0000029838
 10
1214.363880709469
 20
1875.10906012292
 42
0.0000027464
 10
1214.367080709469
 20
1861.476460122919
 42
0.0000025586
 10
1214.370480709469
 20
1847.84386012292
 42
0.000002372
 10
1214.373980709469
 20
1834.21126012292
 42
0.0000021184
 10
1214.377680709469
 20
1820.57866012292
 42
0.0000017332
 10
1214.381380709469
 20
1806.94606012292
 42
0.000001824
 10
1214.385180709469
 20
1793.31346012292
 42
0.0000024138
 10
1214.389180709469
 20
1779.68076012292
 42
0.0000034101
 10
1214.393380709469
 20
1766.04826012292
 42
0.0000050677
 10
1214.397980709469
 20
1752.41606012292
 42
0.0000064657
 10
1214.402880709469
 20
1738.78306012292
 42
0.000007959
 10
1214.408280709469
 20
1725.14866012292
 42
0.0000092292
 10
1214.414280709469
 20
1711.51786012292
 42
0.0000106134
 10
1214.420780709469
 20
1697.89226012292
 42
0.0000121211
 10
1214.428080709469
 20
1684.25266012292
 42
0.0000140717
 10
1214.436180709469
 20
1670.59236012292
 42
0.000014775
 10
1214.445080709469
 20
1656.98736012292
 42
0.0000147138
 10
1214.454780709469
 20
1643.46376012292
 42
0.0000182598
 10
1214.465780709469
 20
1629.72216012292
 42
0.0000247207
 10
1214.478480709469
 20
1615.65966012292
 42
0.0000188461
 10
1214.490880709469
 20
1602.45696012292
 42
0.0000040938
 10
1214.502680709469
 20
1590.520960122919
 42
0.0000311566
 10
1214.520980709469
 20
1575.19176012292
 42
0.0000597832
 10
1214.553480709469
 20
1551.58136012292
 42
0.0000296136
 10
1214.598580709469
 20
1520.66136012292
 42
0.0000153644
  0
LINE
  5
3B0
330
1F
100
AcDbEntity
  8
KONTUR
100
AcDbLine
 10
1214.598580709469
 20
1520.66136012292
 30
0.0
 11
1214.635380709469
 21
1520.66206012292
 31
0.0
  0
LINE
  5
3B1
330
1F
100
AcDbEntity
  8
KONTUR
100
AcDbLine
 10
1513.709380709469
 20
1520.66206012292
 30
0.0
 11
1513.746180709469
 21
1520.66146012292
 31
0.0
  0
LWPOLYLINE
  5
3B2
330
1F
100
AcDbEntity
  8
KONTUR
100
AcDbPolyline
 90
       27
 70
     0
 43
0.0
 10
1513.746080709469
 20
1520.66136012292
 10
1513.782380709469
 20
1542.08406012292
 42
0.0000642876
 10
1513.812880709469
 20
1563.50676012292
 42
0.0000724268
 10
1513.837080709469
 20
1584.92936012292
 42
0.000064489
 10
1513.856980709469
 20
1606.35206012292
 42
0.000038448
 10
1513.874280709469
 20
1627.77476012292
 42
0.0000239384
 10
1513.889780709469
 20
1649.19736012292
 42
0.000017257
 10
1513.903980709469
 20
1670.61996012292
 42
0.0000144399
 10
1513.916980709469
 20
1692.04266012292
 42
0.0000147672
 10
1513.928680709469
 20
1713.46556012292
 42
0.0000143831
 10
1513.939180709469
 20
1734.88796012292
 42
0.0000131909
 10
1513.948580709469
 20
1756.30996012292
 42
0.0000123106
 10
1513.956880709469
 20
1777.73336012292
 42
0.0000115138
 10
1513.964380709469
 20
1799.15876012292
 42
0.0000107436
 10
1513.970880709469
 20
1820.57866012292
 42
0.000009817
 10
1513.976580709469
 20
1841.99036012292
 42
0.0000090648
 10
1513.981580709469
 20
1863.42396012292
 42
0.0000082487
 10
1513.985880709469
 20
1884.890060122919
 42
0.0000073664
 10
1513.989580709469
 20
1906.26926012292
 42
0.0000063379
 10
1513.992780709469
 20
1927.520760122919
 42
0.0000058058
 10
1513.995480709469
 20
1949.11466012292
 42
0.0000051812
 10
1513.997880709469
 20
1971.21286012292
 42
0.0000038858
 10
1513.999880709469
 20
1991.95996012292
 42
0.0000027339
 10
1514.001480709469
 20
2010.71646012292
 42
0.0000027879
 10
1514.003280709469
 20
2034.80526012292
 42
0.0000011651
 10
1514.005980709469
 20
2071.907460122919
 42
0.0000003451
 10
1514.009480709469
 20
2120.49586012292
 42
0.0000003767
  0
LINE
  5
3CF
330
1F
100
AcDbEntity
  8
KONTUR
100
AcDbLine
 10
1488.429680709469
 20
2117.35776012292
 30
0.0
 11
1239.915080709469
 21
2117.35776012292
 31
0.0
  0
LWPOLYLINE
  5
3D0
330
1F
100
AcDbEntity
  8
KONTUR
100
AcDbPolyline
 90
       11
 70
     0
 43
0.0
 10
1237.793680709469
 20
2117.10106012292
 10
1237.934780709469
 20
2117.13966012292
 42
-0.0085294398
 10
1238.084280709469
 20
2117.17566012292
 42
-0.0070300657
 10
1238.242080709469
 20
2117.20906012292
 42
-0.0069626232
 10
1238.411080709469
 20
2117.23976012292
 42
-0.007741288
 10
1238.592080709469
 20
2117.267160122919
 42
-0.0055877134
 10
1238.766980709469
 20
2117.29106012292
 42
-0.0020976278
 10
1238.929180709469
 20
2117.31106012292
 42
-0.0071396836
 10
1239.142980709469
 20
2117.328260122919
 42
-0.011329993
 10
1239.476080709469
 20
2117.34396012292
 42
-0.0054175606
 10
1239.915080709469
 20
2117.35776012292
 42
-0.0028367101
  0
LINE
  5
3DD
330
1F
100
AcDbEntity
  8
KONTUR
100
AcDbLine
 10
1237.793680709469
 20
2117.10106012292
 30
0.0
 11
1229.551080709469
 21
2114.69106012292
 31
0.0
  0
LINE
  5
3DE
330
1F
100
AcDbEntity
  8
KONTUR
100
AcDbLine
 10
1498.793580709469
 20
2114.69106012292
 30
0.0
 11
1490.550980709469
 21
2117.10106012292
 31
0.0
  0
LWPOLYLINE
  5
3DF
330
1F
100
AcDbEntity
  8
KONTUR
100
AcDbPolyline
 90
       11
 70
     0
 43
0.0
 10
1488.429680709469
 20
2117.35776012292
 10
1488.622780709469
 20
2117.35596012292
 42
-0.0048904401
 10
1488.815680709469
 20
2117.35056012292
 42
-0.0044638722
 10
1489.008080709469
 20
2117.34156012292
 42
-0.0048817109
 10
1489.201780709469
 20
2117.328260122919
 42
-0.0060584213
 10
1489.396180709469
 20
2117.31036012292
 42
-0.0049097369
 10
1489.577780709469
 20
2117.29106012292
 42
-0.0019620374
 10
1489.740780709469
 20
2117.271660122919
 42
-0.0070791721
 10
1489.933580709469
 20
2117.23976012292
 42
-0.01355706
 10
1490.206980709469
 20
2117.18186012292
 42
-0.007700508
 10
1490.550980709469
 20
2117.10106012292
 42
-0.0043776592
  0
LWPOLYLINE
  5
3EC
330
1F
100
AcDbEntity
  8
KONTUR
100
AcDbPolyline
 90
       11
 70
     0
 43
0.0
 10
1498.793580709469
 20
2114.69106012292
 10
1498.925680709469
 20
2114.64986012292
 42
-0.0095352087
 10
1499.048980709469
 20
2114.60616012292
 42
-0.0097167517
 10
1499.163180709469
 20
2114.55996012292
 42
-0.011924477
 10
1499.268080709469
 20
2114.51056012292
 42
-0.01698848
 10
1499.362180709469
 20
2114.45766012292
 42
-0.016093707
 10
1499.443980709469
 20
2114.40646012292
 42
-0.007025934
 10
1499.512280709469
 20
2114.35906012292
 42
-0.027620279
 10
1499.571280709469
 20
2114.29656012292
 42
-0.069773087
 10
1499.624780709469
 20
2114.19916012292
 42
-0.048611658
 10
1499.672280709469
 20
2114.07086012292
 42
-0.029176532
  0
LWPOLYLINE
  5
3F9
330
1F
100
AcDbEntity
  8
KONTUR
100
AcDbPolyline
 90
       11
 70
     0
 43
0.0
 10
1228.672380709469
 20
2114.07086012292
 10
1228.678780709469
 20
2114.127260122919
 42
-0.056497249
 10
1228.697280709469
 20
2114.18366012292
 42
-0.04717921
 10
1228.728080709469
 20
2114.239960122919
 42
-0.044083389
 10
1228.773480709469
 20
2114.29656012292
 42
-0.043449706
 10
1228.834880709469
 20
2114.35346012292
 42
-0.026709852
 10
1228.900780709469
 20
2114.40646012292
 42
-0.0091412039
 10
1228.967180709469
 20
2114.454160122919
 42
-0.028563888
 10
1229.076580709469
 20
2114.51056012292
 42
-0.034728558
 10
1229.274380709469
 20
2114.590460122919
 42
-0.013289413
 10
1229.551080709469
 20
2114.69106012292
 42
-0.0063167081
  0
LINE
  5
406
330
1F
100
AcDbEntity
  8
KONTUR
100
AcDbLine
 10
1239.915080709469
 20
2116.77306012292
 30
0.0
 11
1488.429680709469
 21
2116.77306012292
 31
0.0
  0
LWPOLYLINE
  5
407
330
1F
100
AcDbEntity
  8
KONTUR
100
AcDbPolyline
 90
       11
 70
     0
 43
0.0
 10
1239.915080709469
 20
2116.77306012292
 10
1239.850680709469
 20
2116.77246012292
 42
0.0048904799
 10
1239.786380709469
 20
2116.77066012292
 42
0.004463852
 10
1239.722280709469
 20
2116.76766012292
 42
0.0048816263
 10
1239.657680709469
 20
2116.76326012292
 42
0.0060582268
 10
1239.592880709469
 20
2116.757260122919
 42
0.0049094991
 10
1239.532280709469
 20
2116.75086012292
 42
0.0019619246
 10
1239.477980709469
 20
2116.74436012292
 42
0.0070787028
 10
1239.413680709469
 20
2116.73376012292
 42
0.013555758
 10
1239.322480709469
 20
2116.71446012292
 42
0.0076995449
 10
1239.207880709469
 20
2116.68746012292
 42
0.0043770481
  0
LINE
  5
414
330
1F
100
AcDbEntity
  8
KONTUR
100
AcDbLine
 10
1489.136880709469
 20
2116.68746012292
 30
0.0
 11
1497.379480709469
 21
2114.27756012292
 31
0.0
  0
LWPOLYLINE
  5
415
330
1F
100
AcDbEntity
  8
KONTUR
100
AcDbPolyline
 90
       11
 70
     0
 43
0.0
 10
1489.136880709469
 20
2116.68746012292
 10
1489.089880709469
 20
2116.70036012292
 42
0.0085280569
 10
1489.039980709469
 20
2116.71236012292
 42
0.007029058
 10
1488.987380709469
 20
2116.723560122919
 42
0.006961748
 10
1488.931080709469
 20
2116.73376012292
 42
0.0077404609
 10
1488.870680709469
 20
2116.742860122919
 42
0.0055872227
 10
1488.812380709469
 20
2116.75086012292
 42
0.0020974642
 10
1488.758280709469
 20
2116.75756012292
 42
0.0071391914
 10
1488.687080709469
 20
2116.76326012292
 42
0.011329524
 10
1488.575980709469
 20
2116.76846012292
 42
0.0054174642
 10
1488.429680709469
 20
2116.77306012292
 42
0.00283669
  0
LINE
  5
422
330
1F
100
AcDbEntity
  8
KONTUR
100
AcDbLine
 10
1499.672380709469
 20
2101.277460122919
 30
0.0
 11
1499.672380709469
 21
2114.07086012292
 31
0.0
  0
LINE
  5
423
330
1F
100
AcDbEntity
  8
KONTUR
100
AcDbLine
 10
1497.672380709469
 20
2114.07086012292
 30
0.0
 11
1497.672380709469
 21
2101.277460122919
 31
0.0
  0
LWPOLYLINE
  5
424
330
1F
100
AcDbEntity
  8
KONTUR
100
AcDbPolyline
 90
       11
 70
     0
 43
0.0
 10
1497.672280709469
 20
2114.07086012292
 10
1497.670180709469
 20
2114.08966012292
 42
0.056498983
 10
1497.663980709469
 20
2114.108460122919
 42
0.04719183
 10
1497.653780709469
 20
2114.12716012292
 42
0.044102906
 10
1497.638680709469
 20
2114.14606012292
 42
0.043473854
 10
1497.618180709469
 20
2114.165060122919
 42
0.026725876
 10
1497.596180709469
 20
2114.18276012292
 42
0.009146709
 10
1497.574080709469
 20
2114.19866012292
 42
0.028580908
 10
1497.537580709469
 20
2114.21746012292
 42
0.034747538
 10
1497.471680709469
 20
2114.24406012292
 42
0.013295901
 10
1497.379480709469
 20
2114.27756012292
 42
0.006319621
  0
LINE
  5
431
330
1F
100
AcDbEntity
  8
KONTUR
100
AcDbLine
 10
1497.672380709469
 20
2101.277460122919
 30
0.0
 11
1497.672380709469
 21
2095.03406012292
 31
0.0
  0
LINE
  5
432
330
1F
100
AcDbEntity
  8
KONTUR
100
AcDbLine
 10
1497.672380709469
 20
2095.03406012292
 30
0.0
 11
1497.672380709469
 21
2089.14496012292
 31
0.0
  0
LWPOLYLINE
  5
433
330
1F
100
AcDbEntity
  8
KONTUR
100
AcDbPolyline
 90
       11
 70
     0
 43
0.0
 10
1230.672480709469
 20
2114.07086012292
 10
1230.674580709469
 20
2114.08966012292
 42
-0.056498985
 10
1230.680680709469
 20
2114.108460122919
 42
-0.047191833
 10
1230.690980709469
 20
2114.12716012292
 42
-0.044102909
 10
1230.706080709469
 20
2114.14606012292
 42
-0.043473856
 10
1230.726580709469
 20
2114.165060122919
 42
-0.026725877
 10
1230.748480709469
 20
2114.18276012292
 42
-0.0091467093
 10
1230.770680709469
 20
2114.19866012292
 42
-0.028580909
 10
1230.807080709469
 20
2114.21746012292
 42
-0.034747539
 10
1230.872980709469
 20
2114.24406012292
 42
-0.013295901
 10
1230.965280709469
 20
2114.27756012292
 42
-0.0063196211
  0
LWPOLYLINE
  5
440
330
1F
100
AcDbEntity
  8
KONTUR
100
AcDbPolyline
 90
       11
 70
     0
 43
0.0
 10
1230.965280709469
 20
2099.93296012292
 10
1230.921180709469
 20
2099.91926012292
 42
0.0095405301
 10
1230.880180709469
 20
2099.90466012292
 42
0.0097224757
 10
1230.842080709469
 20
2099.889260122919
 42
0.011931872
 10
1230.807080709469
 20
2099.87286012292
 42
0.016999591
 10
1230.775780709469
 20
2099.85516012292
 42
0.016104732
 10
1230.748480709469
 20
2099.838160122919
 42
0.007030833
 10
1230.725780709469
 20
2099.82236012292
 42
0.02763972
 10
1230.706080709469
 20
2099.80146012292
 42
0.069819115
 10
1230.688280709469
 20
2099.76906012292
 42
0.048633759
 10
1230.672480709469
 20
2099.726260122919
 42
0.029184604
  0
LWPOLYLINE
  5
44D
330
1F
100
AcDbEntity
  8
KONTUR
100
AcDbPolyline
 90
       11
 70
     0
 43
0.0
 10
1497.672280709469
 20
2099.726260122919
 10
1497.670180709469
 20
2099.745060122919
 42
0.0564939
 10
1497.663980709469
 20
2099.76386012292
 42
0.047189813
 10
1497.653780709469
 20
2099.782660122919
 42
0.044103155
 10
1497.638680709469
 20
2099.80146012292
 42
0.04347608
 10
1497.618180709469
 20
2099.820460122919
 42
0.026728169
 10
1497.596180709469
 20
2099.838160122919
 42
0.0091476159
 10
1497.574080709469
 20
2099.85406012292
 42
0.028584011
 10
1497.537580709469
 20
2099.87286012292
 42
0.034751934
 10
1497.471680709469
 20
2099.89946012292
 42
0.013297668
 10
1497.379480709469
 20
2099.93296012292
 42
0.0063204686
  0
LWPOLYLINE
  5
45A
330
1F
100
AcDbEntity
  8
KONTUR
100
AcDbPolyline
 90
       11
 70
     0
 43
0.0
 10
1489.136880709469
 20
2102.34296012292
 10
1489.089880709469
 20
2102.355760122919
 42
0.008530145
 10
1489.039980709469
 20
2102.36776012292
 42
0.007030822
 10
1488.987380709469
 20
2102.37896012292
 42
0.0069635283
 10
1488.931080709469
 20
2102.38916012292
 42
0.0077424721
 10
1488.870680709469
 20
2102.39836012292
 42
0.0055886924
 10
1488.812380709469
 20
2102.40626012292
 42
0.0020980189
 10
1488.758280709469
 20
2102.41296012292
 42
0.0071410859
 10
1488.687080709469
 20
2102.41866012292
 42
0.011332551
 10
1488.575980709469
 20
2102.42386012292
 42
0.0054189126
 10
1488.429680709469
 20
2102.428560122919
 42
0.0028374474
  0
LINE
  5
467
330
1F
100
AcDbEntity
  8
KONTUR
100
AcDbLine
 10
1489.136880709469
 20
2102.34296012292
 30
0.0
 11
1497.379480709469
 21
2099.93296012292
 31
0.0
  0
LINE
  5
468
330
1F
100
AcDbEntity
  8
KONTUR
100
AcDbLine
 10
1230.965280709469
 20
2099.93296012292
 30
0.0
 11
1239.207880709469
 21
2102.34296012292
 31
0.0
  0
LINE
  5
469
330
1F
100
AcDbEntity
  8
KONTUR
100
AcDbLine
 10
1239.207880709469
 20
2116.68746012292
 30
0.0
 11
1230.965280709469
 21
2114.27756012292
 31
0.0
  0
LWPOLYLINE
  5
46A
330
1F
100
AcDbEntity
  8
KONTUR
100
AcDbPolyline
 90
       11
 70
     0
 43
0.0
 10
1239.915080709469
 20
2102.428560122919
 10
1239.850680709469
 20
2102.42786012292
 42
0.004891781
 10
1239.786380709469
 20
2102.42606012292
 42
0.0044650432
 10
1239.722280709469
 20
2102.42306012292
 42
0.0048829313
 10
1239.657680709469
 20
2102.41866012292
 42
0.0060598468
 10
1239.592880709469
 20
2102.41266012292
 42
0.0049108094
 10
1239.532280709469
 20
2102.40626012292
 42
0.001962447
 10
1239.477980709469
 20
2102.39986012292
 42
0.0070805829
 10
1239.413680709469
 20
2102.38916012292
 42
0.013559307
 10
1239.322480709469
 20
2102.36986012292
 42
0.007701515
 10
1239.207880709469
 20
2102.34296012292
 42
0.0043781512
  0
LINE
  5
477
330
1F
100
AcDbEntity
  8
KONTUR
100
AcDbLine
 10
1239.915080709469
 20
2102.428560122919
 30
0.0
 11
1488.429680709469
 21
2102.428560122919
 31
0.0
  0
LINE
  5
478
330
1F
100
AcDbEntity
  8
KONTUR
100
AcDbLine
 10
1230.672380709469
 20
2095.03406012292
 30
0.0
 11
1230.672380709469
 21
2089.14556012292
 31
0.0
  0
LINE
  5
479
330
1F
100
AcDbEntity
  8
KONTUR
100
AcDbLine
 10
1230.672380709469
 20
2101.277460122919
 30
0.0
 11
1230.672380709469
 21
2095.03406012292
 31
0.0
  0
LINE
  5
47A
330
1F
100
AcDbEntity
  8
KONTUR
100
AcDbLine
 10
1228.672380709469
 20
2114.07086012292
 30
0.0
 11
1228.672380709469
 21
2101.277460122919
 31
0.0
  0
LINE
  5
47B
330
1F
100
AcDbEntity
  8
KONTUR
100
AcDbLine
 10
1230.672480709469
 20
2114.07086012292
 30
0.0
 11
1230.672380709469
 21
2101.277460122919
 31
0.0
  0
LINE
  5
47C
330
1F
100
AcDbEntity
  8
KONTUR
100
AcDbLine
 10
1497.672380709469
 20
2095.661960122919
 30
0.0
 11
1495.172380709469
 21
2095.661960122919
 31
0.0
  0
LINE
  5
47D
330
1F
100
AcDbEntity
  8
KONTUR
100
AcDbLine
 10
1495.172380709469
 20
2095.661960122919
 30
0.0
 11
1495.172380709469
 21
2087.460860122919
 31
0.0
  0
LINE
  5
47E
330
1F
100
AcDbEntity
  8
KONTUR
100
AcDbLine
 10
1230.672380709469
 20
2095.661960122919
 30
0.0
 11
1233.172380709469
 21
2095.661960122919
 31
0.0
  0
LINE
  5
47F
330
1F
100
AcDbEntity
  8
KONTUR
100
AcDbLine
 10
1233.172380709469
 20
2095.661960122919
 30
0.0
 11
1233.172380709469
 21
2087.46076012292
 31
0.0
  0
LINE
  5
480
330
1F
100
AcDbEntity
  8
KONTUR
100
AcDbLine
 10
577.1004207094693
 20
2108.161960122919
 30
0.0
 11
577.1004207094693
 21
2120.661960122919
 31
0.0
  0
LINE
  5
481
330
1F
100
AcDbEntity
  8
KONTUR
100
AcDbLine
 10
462.677180709469
 20
1520.66206012292
 30
0.0
 11
465.3222607094691
 21
1520.66206012292
 31
0.0
  0
LINE
  5
482
330
1F
100
AcDbEntity
  8
KONTUR
100
AcDbLine
 10
475.620120709469
 20
1520.66206012292
 30
0.0
 11
476.1838607094691
 21
1520.66206012292
 31
0.0
  0
LINE
  5
483
330
1F
100
AcDbEntity
  8
KONTUR
100
AcDbLine
 10
570.1004207094691
 20
2120.661960122919
 30
0.0
 11
574.8504207094691
 21
2120.661960122919
 31
0.0
  0
ARC
  5
484
330
1F
100
AcDbEntity
  8
KONTUR
100
AcDbCircle
 10
570.1004207094691
 20
2115.661960122919
 30
0.0
 40
5.0000001
100
AcDbArc
 50
90.0000000000002
 51
127.0653700000003
  0
CIRCLE
  5
485
330
1F
100
AcDbEntity
  8
KONTUR
100
AcDbCircle
 10
570.8504207094693
 20
2115.661960122919
 30
0.0
 40
2.05
  0
LINE
  5
486
330
1F
100
AcDbEntity
  8
KONTUR
100
AcDbLine
 10
577.1004207094693
 20
2120.661960122919
 30
0.0
 11
574.8504207094691
 21
2120.661960122919
 31
0.0
  0
CIRCLE
  5
487
330
1F
100
AcDbEntity
  8
KONTUR
100
AcDbCircle
 10
572.1004807094691
 20
1525.911960122919
 30
0.0
 40
2.05
  0
LINE
  5
489
330
1F
100
AcDbEntity
  8
KONTUR
100
AcDbLine
 10
574.6004807094691
 20
2110.661960122919
 30
0.0
 11
568.1004807094691
 21
2110.661960122919
 31
0.0
  0
ARC
  5
48A
330
1F
100
AcDbEntity
  8
KONTUR
100
AcDbCircle
 10
574.6004807094691
 20
2108.161960122919
 30
0.0
 40
2.4999358
100
AcDbArc
 50
0.000005566
 51
90.00000700000021
  0
LINE
  5
48B
330
1F
100
AcDbEntity
  8
KONTUR
100
AcDbLine
 10
577.1004807094691
 20
1525.661960122919
 30
0.0
 11
577.1004207094693
 21
2108.161960122919
 31
0.0
  0
ARC
  5
48C
330
1F
100
AcDbEntity
  8
KONTUR
100
AcDbCircle
 10
572.1004807094691
 20
1525.661960122919
 30
0.0
 40
5.0
100
AcDbArc
 50
270.0000000000006
 51
0.0000000000007994
  0
LINE
  5
48D
330
1F
100
AcDbEntity
  8
KONTUR
100
AcDbLine
 10
568.1004807094691
 20
1520.661960122919
 30
0.0
 11
572.1004807094691
 21
1520.661960122919
 31
0.0
  0
LINE
  5
490
330
1F
100
AcDbEntity
  8
KONTUR
100
AcDbLine
 10
567.100540709469
 20
2120.661960122919
 30
0.0
 11
567.1004807094691
 21
1520.661960122919
 31
0.0
  0
LWPOLYLINE
  5
491
330
1F
100
AcDbEntity
  8
KONTUR
100
AcDbPolyline
 90
       39
 70
     0
 43
0.0
 10
402.0182107094691
 20
2083.69276012292
 10
401.294580709469
 20
2083.337760122919
 42
0.0004785332
 10
400.588410709469
 20
2082.98956012292
 42
0.0005182794
 10
399.9004307094691
 20
2082.64856012292
 42
0.0005282808
 10
399.229920709469
 20
2082.31446012292
 42
0.0004988386
 10
398.577630709469
 20
2081.98776012292
 42
0.0004838592
 10
397.9428207094689
 20
2081.66836012292
 42
0.0004716613
 10
397.3262007094692
 20
2081.356660122919
 42
0.0004594666
 10
396.7271407094692
 20
2081.052460122919
 42
0.00043487
 10
396.1464807094691
 20
2080.756360122919
 42
0.0004217772
 10
395.583560709469
 20
2080.468160122919
 42
0.0004088476
 10
395.0392007094691
 20
2080.188260122919
 42
0.0004026263
 10
394.512670709469
 20
2079.916460122919
 42
0.000392685
 10
394.0046907094692
 20
2079.65326012292
 42
0.0003866911
 10
393.5145507094691
 20
2079.39836012292
 42
0.0003737986
 10
393.0430007094691
 20
2079.152260122919
 42
0.0003656876
 10
392.5893007094691
 20
2078.914660122919
 42
0.0003507443
 10
392.1542107094691
 20
2078.68596012292
 42
0.0003402774
 10
391.737000709469
 20
2078.46596012292
 42
0.0003218126
 10
391.3384207094692
 20
2078.25516012292
 42
0.0003081426
 10
390.957740709469
 20
2078.05326012292
 42
0.000285943
 10
390.595700709469
 20
2077.86076012292
 42
0.0002662876
 10
390.251590709469
 20
2077.67726012292
 42
0.00023401
 10
389.9261907094691
 20
2077.50346012292
 42
0.0002171448
 10
389.618860709469
 20
2077.33886012292
 42
0.0002055389
 10
389.330410709469
 20
2077.18416012292
 42
0.0002022906
 10
389.0601107094691
 20
2077.03886012292
 42
0.0001989251
 10
388.8087007094692
 20
2076.90346012292
 42
0.0001983403
 10
388.5754307094691
 20
2076.77766012292
 42
0.0001900578
 10
388.361030709469
 20
2076.66176012292
 42
0.0001876763
 10
388.1648907094692
 20
2076.55556012292
 42
0.0001805057
 10
387.9877907094691
 20
2076.45956012292
 42
0.0001710394
 10
387.8285707094691
 20
2076.373060122919
 42
0.0001383786
 10
387.687840709469
 20
2076.29646012292
 42
0.0001414013
 10
387.566540709469
 20
2076.23046012292
 42
0.0001991363
 10
387.4660007094691
 20
2076.17556012292
 42
0.0000669617
 10
387.378870709469
 20
2076.12816012292
 42
-0.00050983
 10
387.2989407094689
 20
2076.08486012292
 42
-0.0007992026
 10
387.2268507094692
 20
2076.046160122919
 42
-0.0008115319
  0
LWPOLYLINE
  5
4BA
330
1F
100
AcDbEntity
  8
KONTUR
100
AcDbPolyline
 90
       15
 70
     0
 43
0.0
 10
387.2268507094692
 20
2076.046160122919
 10
387.226840709469
 20
2076.046160122919
 42
-0.0006019763
 10
387.226840709469
 20
2076.046160122919
 42
-0.0007655864
 10
387.2268307094693
 20
2076.046160122919
 42
-0.0010094964
 10
387.2268307094693
 20
2076.04626012292
 42
-0.0013058018
 10
387.2268307094693
 20
2076.04626012292
 42
-0.0016815193
 10
387.2268207094691
 20
2076.04626012292
 42
-0.002100992
 10
387.2268207094691
 20
2076.04626012292
 42
-0.003068102
 10
387.2268207094691
 20
2076.04626012292
 42
-0.004874369
 10
387.2268207094691
 20
2076.04626012292
 42
-0.0059672297
 10
387.2268207094691
 20
2076.04626012292
 42
-0.0045308712
 10
387.2268207094691
 20
2076.04626012292
 42
-0.013251988
 10
387.2268207094691
 20
2076.04626012292
 42
-0.037658432
 10
387.2268207094691
 20
2076.04626012292
 42
-0.040579247
 10
387.2268207094691
 20
2076.04626012292
 42
-0.040824484
  0
LWPOLYLINE
  5
4CB
330
1F
100
AcDbEntity
  8
KONTUR
100
AcDbPolyline
 90
       15
 70
     0
 43
0.0
 10
388.2099207094692
 20
2076.57976012292
 10
388.2454407094689
 20
2076.59956012292
 42
-0.0006075192
 10
388.2817307094691
 20
2076.61976012292
 42
-0.0005743211
 10
388.3188107094689
 20
2076.640360122919
 42
-0.0005591754
 10
388.356800709469
 20
2076.661260122919
 42
-0.0005555751
 10
388.395860709469
 20
2076.68266012292
 42
-0.0005176407
 10
388.4357207094691
 20
2076.70436012292
 42
-0.0004630841
 10
388.476410709469
 20
2076.72646012292
 42
-0.000489339
 10
388.5191407094691
 20
2076.74956012292
 42
-0.0005510431
 10
388.5644307094691
 20
2076.77396012292
 42
-0.0003907567
 10
388.6076607094691
 20
2076.79706012292
 42
-0.0001301772
 10
388.6473407094689
 20
2076.81836012292
 42
-0.0005154052
 10
388.701900709469
 20
2076.84736012292
 42
-0.0007753689
 10
388.790780709469
 20
2076.89426012292
 42
-0.0003384281
 10
388.9100507094691
 20
2076.95716012292
 42
-0.0001713543
  0
LWPOLYLINE
  5
4DC
330
1F
100
AcDbEntity
  8
KONTUR
100
AcDbPolyline
 90
       15
 70
     0
 43
0.0
 10
395.486280709469
 20
2080.41816012292
 10
395.661380709469
 20
2080.50806012292
 42
-0.0001284013
 10
395.8380207094691
 20
2080.598560122919
 42
-0.0001254843
 10
396.0162207094689
 20
2080.68986012292
 42
-0.0001239924
 10
396.1961807094691
 20
2080.78186012292
 42
-0.000123508
 10
396.3780707094689
 20
2080.87476012292
 42
-0.000117409
 10
396.5607107094692
 20
2080.96796012292
 42
-0.0001075929
 10
396.7437907094692
 20
2081.06126012292
 42
-0.0001160968
 10
396.9315607094692
 20
2081.15676012292
 42
-0.0001347908
 10
397.1255907094688
 20
2081.25546012292
 42
-0.0001003751
 10
397.3086707094691
 20
2081.34846012292
 42
-0.0000349829
 10
397.4749607094692
 20
2081.432860122919
 42
-0.0001373224
 10
397.691990709469
 20
2081.54276012292
 42
-0.0002270737
 10
398.0307307094691
 20
2081.71416012292
 42
-0.0001080067
 10
398.477020709469
 20
2081.93966012292
 42
-0.0000566638
  0
LWPOLYLINE
  5
4ED
330
1F
100
AcDbEntity
  8
KONTUR
100
AcDbPolyline
 90
       23
 70
     0
 43
0.0
 10
423.314570709469
 20
2093.30076012292
 10
422.1027807094691
 20
2092.79606012292
 42
0.000850613
 10
420.9036507094692
 20
2092.29176012292
 42
0.0008899148
 10
419.7173407094691
 20
2091.78766012292
 42
0.0008841706
 10
418.5457007094691
 20
2091.28526012292
 42
0.0008312217
 10
417.3922307094691
 20
2090.78596012292
 42
0.00080211
 10
416.258330709469
 20
2090.29096012292
 42
0.000780513
 10
415.146870709469
 20
2089.801560122919
 42
0.0007669446
 10
414.059090709469
 20
2089.31866012292
 42
0.0007484472
 10
412.998210709469
 20
2088.84386012292
 42
0.0007384267
 10
411.9655607094691
 20
2088.37816012292
 42
0.0007229796
 10
410.9646307094689
 20
2087.923160122919
 42
0.0007303181
 10
409.9953307094692
 20
2087.47916012292
 42
0.0007473197
 10
409.0610207094691
 20
2087.04766012292
 42
0.0007271629
 10
408.1668107094691
 20
2086.631760122919
 42
0.0006509574
 10
407.3197607094691
 20
2086.235160122919
 42
0.0006327568
 10
406.5123707094691
 20
2085.85456012292
 42
0.0006260754
 10
405.746020709469
 20
2085.49116012292
 42
0.000538682
 10
405.0540007094691
 20
2085.16136012292
 42
0.0003797343
 10
404.4518507094691
 20
2084.87316012292
 42
0.0005581411
 10
403.807990709469
 20
2084.56286012292
 42
0.0007339691
 10
402.9884907094691
 20
2084.16536012292
 42
0.000478362
 10
402.0182107094691
 20
2083.69276012292
 42
0.000350862
  0
LWPOLYLINE
  5
506
330
1F
100
AcDbEntity
  8
KONTUR
100
AcDbPolyline
 90
       23
 70
     0
 43
0.0
 10
534.943190709469
 20
2120.484360122919
 10
530.1430007094691
 20
2120.043260122919
 42
0.0031902408
 10
525.3511307094691
 20
2119.54206012292
 42
0.0031948032
 10
520.567830709469
 20
2118.97826012292
 42
0.0031957894
 10
515.7933207094691
 20
2118.35446012292
 42
0.0031941242
 10
511.028660709469
 20
2117.66836012292
 42
0.0031927464
 10
506.2741007094691
 20
2116.922660122919
 42
0.003190613
 10
501.530570709469
 20
2116.11486012292
 42
0.0031923759
 10
496.797790709469
 20
2115.24746012292
 42
0.0031971996
 10
492.0766307094691
 20
2114.31806012292
 42
0.003189091
 10
487.3687407094691
 20
2113.32986012292
 42
0.0031699313
 10
482.6759807094691
 20
2112.280860122919
 42
0.003195573
 10
477.993510709469
 20
2111.17146012292
 42
0.0032588012
 10
473.321760709469
 20
2109.99886012292
 42
0.0031674292
 10
468.685370709469
 20
2108.775660122919
 42
0.0029566573
 10
464.0939307094691
 20
2107.50296012292
 42
0.0032597507
 10
459.4495307094691
 20
2106.14446012292
 42
0.003882153
 10
454.7198607094691
 20
2104.68446012292
 42
0.0029493997
 10
450.2902507094692
 20
2103.27956012292
 42
0.001017467
 10
446.2948807094691
 20
2101.98066012292
 42
0.0041526838
 10
441.211820709469
 20
2100.18276012292
 42
0.0071460732
 10
433.446250709469
 20
2097.246460122919
 42
0.003495737
 10
423.314570709469
 20
2093.30076012292
 42
0.0018526011
  0
LINE
  5
569
330
1F
100
AcDbEntity
  8
KONTUR
100
AcDbLine
 10
482.1959507094691
 20
1520.66206012292
 30
0.0
 11
567.1004807094691
 21
1520.661960122919
 31
0.0
  0
LWPOLYLINE
  5
56A
330
1F
100
AcDbEntity
  8
KONTUR
100
AcDbPolyline
 90
       27
 70
     0
 43
0.0
 10
462.5981007094691
 20
1520.66186012292
 10
462.872920709469
 20
1520.66186012292
 42
-0.0000078602
 10
463.186210709469
 20
1520.66186012292
 42
-0.0000064437
 10
463.539700709469
 20
1520.661960122919
 42
-0.0000047091
 10
463.9309807094691
 20
1520.661960122919
 42
-0.00000284
 10
464.3606407094691
 20
1520.661960122919
 42
-0.0000016496
 10
464.8264907094691
 20
1520.661960122919
 42
-0.0000007702
 10
465.3293107094692
 20
1520.661960122919
 42
-0.0000002857
 10
465.8667407094691
 20
1520.661960122919
 10
466.4391707094691
 20
1520.661960122919
 42
0.000000079
 10
467.044060709469
 20
1520.661960122919
 42
0.0000000251
 10
467.6815707094689
 20
1520.661960122919
 10
468.3493507094689
 20
1520.661960122919
 10
469.0475507094691
 20
1520.661960122919
 42
0.0000000199
 10
469.7734607094691
 20
1520.661960122919
 10
470.5269407094689
 20
1520.661960122919
 10
471.306930709469
 20
1520.661960122919
 42
0.000000021
 10
472.1135507094691
 20
1520.661960122919
 10
472.939000709469
 20
1520.661960122919
 10
473.7809307094691
 20
1520.661960122919
 42
0.0000000183
 10
474.6585907094691
 20
1520.661960122919
 42
0.0000001106
 10
475.578830709469
 20
1520.661960122919
 10
476.454640709469
 20
1520.661960122919
 42
-0.0000003712
 10
477.256140709469
 20
1520.661960122919
 42
0.0000004311
 10
478.3164107094691
 20
1520.661960122919
 42
0.0000015938
 10
479.9864507094691
 20
1520.661960122919
 42
0.0000007989
 10
482.1959507094691
 20
1520.66206012292
 42
0.000000367
  0
LINE
  5
587
330
1F
100
AcDbEntity
  8
KONTUR
100
AcDbLine
 10
462.5981007094691
 20
1520.66186012292
 30
0.0
 11
459.0023307094691
 21
1520.661960122919
 31
0.0
  0
LINE
  5
588
330
1F
100
AcDbEntity
  8
KONTUR
100
AcDbLine
 10
447.2567007094691
 20
1520.661960122919
 30
0.0
 11
447.2567007094691
 21
1520.661960122919
 31
0.0
  0
LINE
  5
589
330
1F
100
AcDbEntity
  8
KONTUR
100
AcDbLine
 10
447.2567007094691
 20
1520.661960122919
 30
0.0
 11
462.5981007094691
 21
1520.66186012292
 31
0.0
  0
LWPOLYLINE
  5
58A
330
1F
100
AcDbEntity
  8
KONTUR
100
AcDbPolyline
 90
       19
 70
     0
 43
0.0
 10
482.1959507094691
 20
1520.66206012292
 10
481.8497207094691
 20
1520.661960122919
 42
-0.00000038
 10
481.504640709469
 20
1520.661960122919
 42
-0.0000003927
 10
481.1607607094691
 20
1520.661960122919
 42
-0.0000003856
 10
480.818050709469
 20
1520.661960122919
 42
-0.0000003559
 10
480.476620709469
 20
1520.661960122919
 42
-0.0000003301
 10
480.1366007094691
 20
1520.661960122919
 42
-0.0000003011
 10
479.7981307094691
 20
1520.661960122919
 42
-0.000000293
 10
479.460750709469
 20
1520.661960122919
 42
-0.0000003018
 10
479.124430709469
 20
1520.661960122919
 42
-0.0000002384
 10
478.7909307094691
 20
1520.661960122919
 42
-0.0000000883
 10
478.4609707094691
 20
1520.661960122919
 42
-0.0000002349
 10
478.127590709469
 20
1520.661960122919
 42
-0.0000006952
 10
477.788520709469
 20
1520.661960122919
 42
-0.0000000422
 10
477.471150709469
 20
1520.661960122919
 42
0.0000020567
 10
477.1850707094692
 20
1520.661960122919
 42
-0.000000723
 10
476.822080709469
 20
1520.661960122919
 42
-0.0000066004
 10
476.2688207094691
 20
1520.661960122919
 42
-0.0000036303
 10
475.547780709469
 20
1520.66206012292
 42
-0.0000016557
  0
LWPOLYLINE
  5
59F
330
1F
100
AcDbEntity
  8
KONTUR
100
AcDbPolyline
 90
       19
 70
     0
 43
0.0
 10
468.5206407094691
 20
1520.65976012292
 10
468.0920707094691
 20
1520.66046012292
 42
0.0000643453
 10
467.6777107094691
 20
1520.66096012292
 42
0.000074318
 10
467.2781807094691
 20
1520.66136012292
 42
0.0000744301
 10
466.8926707094689
 20
1520.66156012292
 42
0.0000609512
 10
466.521500709469
 20
1520.66176012292
 42
0.0000512669
 10
466.163980709469
 20
1520.66186012292
 42
0.0000419254
 10
465.820520709469
 20
1520.661960122919
 42
0.0000314747
 10
465.490110709469
 20
1520.661960122919
 42
0.0000156976
 10
465.1730207094689
 20
1520.661960122919
 42
0.000006073
 10
464.8696507094691
 20
1520.661960122919
 42
0.0000008863
 10
464.5809407094691
 20
1520.661960122919
 42
-0.0000008612
 10
464.3028107094691
 20
1520.661960122919
 42
0.000001107
 10
464.0347107094691
 20
1520.661960122919
 42
0.0000014248
 10
463.7909107094691
 20
1520.661960122919
 42
-0.0000000164
 10
463.5772107094691
 20
1520.661960122919
 42
0.000002397
 10
463.3352907094689
 20
1520.661960122919
 42
0.0000069858
 10
463.0051507094691
 20
1520.66186012292
 42
0.0000044876
 10
462.598250709469
 20
1520.66186012292
 42
0.0000025849
  0
LWPOLYLINE
  5
5F7
330
1F
100
AcDbEntity
  8
KONTUR
100
AcDbPolyline
 90
       15
 70
     0
 43
0.0
 10
436.7097007094691
 20
2098.549760122919
 10
436.966490709469
 20
2098.64476012292
 42
-0.0003470134
 10
437.2233607094691
 20
2098.73936012292
 42
-0.0003053832
 10
437.480250709469
 20
2098.83356012292
 42
-0.0003461198
 10
437.737550709469
 20
2098.927460122919
 42
-0.0004775633
 10
437.9954507094691
 20
2099.02096012292
 42
-0.0005343932
 10
438.252510709469
 20
2099.11346012292
 42
-0.0005422134
 10
438.508270709469
 20
2099.20486012292
 42
-0.0007066068
 10
438.7684707094691
 20
2099.296860122919
 42
-0.0010066416
 10
439.0351507094689
 20
2099.38996012292
 42
-0.0007690324
 10
439.2856807094691
 20
2099.47696012292
 42
-0.0001335363
 10
439.512310709469
 20
2099.555160122919
 42
-0.0013345112
 10
439.804350709469
 20
2099.65306012292
 42
-0.0026336897
 10
440.2554907094691
 20
2099.80016012292
 42
-0.001307932
 10
440.8470907094689
 20
2099.99076012292
 42
-0.000674873
  0
LWPOLYLINE
  5
608
330
1F
100
AcDbEntity
  8
KONTUR
100
AcDbPolyline
 90
       15
 70
     0
 43
0.0
 10
450.482900709469
 20
2103.34346012292
 10
451.1207307094691
 20
2103.55076012292
 42
-0.0004931652
 10
451.758850709469
 20
2103.75686012292
 42
-0.0004755443
 10
452.397140709469
 20
2103.96156012292
 42
-0.0004928631
 10
453.036520709469
 20
2104.16516012292
 42
-0.0005467794
 10
453.6773707094691
 20
2104.36766012292
 42
-0.000556036
 10
454.316080709469
 20
2104.567960122919
 42
-0.000534358
 10
454.951460709469
 20
2104.76556012292
 42
-0.0006278103
 10
455.5976907094691
 20
2104.964560122919
 42
-0.0008061859
 10
456.2596907094691
 20
2105.16616012292
 42
-0.0006136626
 10
456.881510709469
 20
2105.35456012292
 42
-0.0001647338
 10
457.443950709469
 20
2105.52396012292
 42
-0.0009534754
 10
458.1677107094691
 20
2105.73716012292
 42
-0.0017594844
 10
459.284380709469
 20
2106.059660122919
 42
-0.0008674382
 10
460.7478907094691
 20
2106.47846012292
 42
-0.0004532599
  0
LWPOLYLINE
  5
619
330
1F
100
AcDbEntity
  8
KONTUR
100
AcDbPolyline
 90
       23
 70
     0
 43
0.0
 10
464.079820709469
 20
2107.49516012292
 10
464.3784207094692
 20
2107.58026012292
 42
-0.0002461184
 10
464.6771007094691
 20
2107.66496012292
 42
-0.0002553966
 10
464.975890709469
 20
2107.74946012292
 42
-0.0002463183
 10
465.274760709469
 20
2107.833660122919
 42
-0.0002165739
 10
465.5737107094691
 20
2107.91766012292
 42
-0.0002186471
 10
465.872740709469
 20
2108.00136012292
 42
-0.0002530949
 10
466.1718407094691
 20
2108.08466012292
 42
-0.0002913409
 10
466.471070709469
 20
2108.16766012292
 42
-0.0003430296
 10
466.7704507094691
 20
2108.25016012292
 42
-0.0003844069
 10
467.0698707094691
 20
2108.33216012292
 42
-0.000426555
 10
467.3693407094692
 20
2108.41356012292
 42
-0.0004746754
 10
467.6692707094691
 20
2108.49456012292
 42
-0.0005385017
 10
467.9698407094691
 20
2108.57486012292
 42
-0.000558178
 10
468.2693707094692
 20
2108.65426012292
 42
-0.0005501417
 10
468.5673107094691
 20
2108.732460122919
 42
-0.000671036
 10
468.870300709469
 20
2108.81096012292
 42
-0.0008932884
 10
469.180670709469
 20
2108.89026012292
 42
-0.0006805837
 10
469.4721907094691
 20
2108.96426012292
 42
-0.0001585088
 10
469.7358507094691
 20
2109.030660122919
 42
-0.0011044501
 10
470.0751407094691
 20
2109.11356012292
 42
-0.0020948557
 10
470.598630709469
 20
2109.23796012292
 42
-0.0010359573
 10
471.2847207094691
 20
2109.39876012292
 42
-0.000538488
  0
LWPOLYLINE
  5
632
330
1F
100
AcDbEntity
  8
KONTUR
100
AcDbPolyline
 90
       15
 70
     0
 43
0.0
 10
478.773510709469
 20
2111.36506012292
 10
479.4534507094689
 20
2111.527860122919
 42
-0.0004734923
 10
480.1335507094692
 20
2111.689360122919
 42
-0.0004593492
 10
480.813670709469
 20
2111.84956012292
 42
-0.0004733626
 10
481.4947907094692
 20
2112.00856012292
 42
-0.0005164577
 10
482.1772707094691
 20
2112.166360122919
 42
-0.0005207021
 10
482.8573107094691
 20
2112.32206012292
 42
-0.000497772
 10
483.533610709469
 20
2112.47546012292
 42
-0.000578379
 10
484.221200709469
 20
2112.629560122919
 42
-0.000733507
 10
484.925310709469
 20
2112.78526012292
 42
-0.000558147
 10
485.5865707094691
 20
2112.93046012292
 42
-0.0001566693
 10
486.1845707094691
 20
2113.06106012292
 42
-0.000854241
 10
486.9534907094691
 20
2113.224460122919
 42
-0.0015606293
 10
488.139050709469
 20
2113.47056012292
 42
-0.0007686369
 10
489.6923907094691
 20
2113.78946012292
 42
-0.0004024684
  0
LWPOLYLINE
  5
643
330
1F
100
AcDbEntity
  8
KONTUR
100
AcDbPolyline
 90
       15
 70
     0
 43
0.0
 10
492.087170709469
 20
2114.32076012292
 10
492.731880709469
 20
2114.45136012292
 42
-0.0005031936
 10
493.3767207094691
 20
2114.58066012292
 42
-0.0004840773
 10
494.021560709469
 20
2114.708660122919
 42
-0.000502918
 10
494.667330709469
 20
2114.83536012292
 42
-0.0005616967
 10
495.314380709469
 20
2114.96076012292
 42
-0.0005731821
 10
495.959100709469
 20
2115.08426012292
 42
-0.0005520063
 10
496.6002707094691
 20
2115.20546012292
 42
-0.0006513494
 10
497.252150709469
 20
2115.32666012292
 42
-0.0008404137
 10
497.919680709469
 20
2115.44856012292
 42
-0.0006398676
 10
498.5465907094691
 20
2115.56206012292
 42
-0.0001688761
 10
499.1135107094691
 20
2115.663760122919
 42
-0.0009997992
 10
499.8425207094691
 20
2115.789660122919
 42
-0.0018519491
 10
500.9665507094691
 20
2115.97736012292
 42
-0.0009134804
 10
502.439290709469
 20
2116.21936012292
 42
-0.0004769973
  0
LWPOLYLINE
  5
654
330
1F
100
AcDbEntity
  8
KONTUR
100
AcDbPolyline
 90
       15
 70
     0
 43
0.0
 10
506.9275107094692
 20
2117.03216012292
 10
507.683530709469
 20
2117.15316012292
 42
-0.0005127164
 10
508.4396707094691
 20
2117.272560122919
 42
-0.0005020017
 10
509.1957807094691
 20
2117.390360122919
 42
-0.0005126021
 10
509.952920709469
 20
2117.50666012292
 42
-0.0005443787
 10
510.711500709469
 20
2117.621460122919
 42
-0.0005409432
 10
511.4672707094691
 20
2117.73426012292
 42
-0.0005124197
 10
512.218810709469
 20
2117.84476012292
 42
-0.000583972
 10
512.982770709469
 20
2117.955060122919
 42
-0.0007241108
 10
513.764930709469
 20
2118.06576012292
 42
-0.0005504739
 10
514.499440709469
 20
2118.168660122919
 42
-0.0001667234
 10
515.163610709469
 20
2118.260860122919
 42
-0.0008190168
 10
516.0173007094689
 20
2118.37476012292
 42
-0.0014668532
 10
517.333090709469
 20
2118.54446012292
 42
-0.000720661
 10
519.0567707094691
 20
2118.76316012292
 42
-0.0003787817
  0
LWPOLYLINE
  5
665
330
1F
100
AcDbEntity
  8
KONTUR
100
AcDbPolyline
 90
       15
 70
     0
 43
0.0
 10
520.570440709469
 20
2118.97906012292
 10
521.466510709469
 20
2119.08926012292
 42
-0.0006004381
 10
522.362720709469
 20
2119.197460122919
 42
-0.0005956101
 10
523.258890709469
 20
2119.30326012292
 42
-0.0006004071
 10
524.1562907094691
 20
2119.40716012292
 42
-0.0006127658
 10
525.055370709469
 20
2119.508860122919
 42
-0.000595353
 10
525.9511207094691
 20
2119.60826012292
 42
-0.0005558013
 10
526.8418007094692
 20
2119.70486012292
 42
-0.000613362
 10
527.7471807094689
 20
2119.80076012292
 42
-0.000731061
 10
528.6740607094689
 20
2119.89616012292
 42
-0.0005548517
 10
529.544450709469
 20
2119.98456012292
 42
-0.0001904568
 10
530.3314707094692
 20
2120.063460122919
 42
-0.0007825233
 10
531.342890709469
 20
2120.15976012292
 42
-0.001346227
 10
532.901520709469
 20
2120.30196012292
 42
-0.0006580673
 10
534.943190709469
 20
2120.484360122919
 42
-0.0003486769
  0
LWPOLYLINE
  5
676
330
1F
100
AcDbEntity
  8
KONTUR
100
AcDbPolyline
 90
       15
 70
     0
 43
0.0
 10
402.0182107094691
 20
2083.69276012292
 10
402.111130709469
 20
2083.73826012292
 42
-0.0000758577
 10
402.209090709469
 20
2083.78616012292
 42
-0.0000587989
 10
402.3122707094691
 20
2083.83656012292
 42
-0.0000618382
 10
402.420750709469
 20
2083.889460122919
 42
-0.000082908
 10
402.5348707094691
 20
2083.94516012292
 42
-0.000086798
 10
402.6535007094691
 20
2084.00296012292
 42
-0.0000825704
 10
402.776560709469
 20
2084.06286012292
 42
-0.0001032781
 10
402.9076407094691
 20
2084.12656012292
 42
-0.0001402236
 10
403.0483107094691
 20
2084.19486012292
 42
-0.0000975347
 10
403.183510709469
 20
2084.26046012292
 42
-0.00001085
 10
403.3084007094691
 20
2084.32106012292
 42
-0.0001663243
 10
403.4814007094689
 20
2084.404760122919
 42
-0.0002949362
 10
403.7642507094691
 20
2084.54126012292
 42
-0.0001304711
 10
404.144510709469
 20
2084.72466012292
 42
-0.0000631599
  0
LWPOLYLINE
  5
687
330
1F
100
AcDbEntity
  8
KONTUR
100
AcDbPolyline
 90
       15
 70
     0
 43
0.0
 10
409.9523707094689
 20
2087.45986012292
 10
410.2317107094692
 20
2087.58826012292
 42
-0.0002289059
 10
410.5139107094691
 20
2087.71766012292
 42
-0.0002195622
 10
410.799040709469
 20
2087.84816012292
 42
-0.0002198096
 10
411.087430709469
 20
2087.97976012292
 42
-0.0002294523
 10
411.3793607094691
 20
2088.11266012292
 42
-0.000223762
 10
411.672900709469
 20
2088.24606012292
 42
-0.0002083681
 10
411.9675707094692
 20
2088.37966012292
 42
-0.00023376
 10
412.2703107094691
 20
2088.516460122919
 42
-0.0002849438
 10
412.5836907094691
 20
2088.65776012292
 42
-0.000211961
 10
412.8796407094691
 20
2088.790960122919
 42
-0.0000624399
 10
413.148670709469
 20
2088.91186012292
 42
-0.0003108147
 10
413.500880709469
 20
2089.06936012292
 42
-0.000540026
 10
414.0520107094691
 20
2089.31466012292
 42
-0.00025748
 10
414.778970709469
 20
2089.63776012292
 42
-0.0001332892
  0
LWPOLYLINE
  5
698
330
1F
100
AcDbEntity
  8
KONTUR
100
AcDbPolyline
 90
       15
 70
     0
 43
0.0
 10
416.2546207094689
 20
2090.28996012292
 10
416.361670709469
 20
2090.336860122919
 42
-0.0000929136
 10
416.468930709469
 20
2090.38386012292
 42
-0.0000864648
 10
416.5763907094691
 20
2090.43086012292
 42
-0.0000920489
 10
416.6842107094691
 20
2090.47786012292
 42
-0.0001104809
 10
416.7925007094691
 20
2090.52516012292
 42
-0.0001163506
 10
416.900640709469
 20
2090.57226012292
 42
-0.0001139511
 10
417.0084507094691
 20
2090.619160122919
 42
-0.0001396436
 10
417.1183907094691
 20
2090.666860122919
 42
-0.0001873029
 10
417.231370709469
 20
2090.715860122919
 42
-0.0001417711
 10
417.337650709469
 20
2090.76186012292
 42
-0.0000312363
 10
417.4339107094689
 20
2090.803560122919
 42
-0.00023156
 10
417.5585807094691
 20
2090.85726012292
 42
-0.0004364796
 10
417.7520207094691
 20
2090.94026012292
 42
-0.0002131876
 10
418.006190709469
 20
2091.04926012292
 42
-0.0001099666
  0
LWPOLYLINE
  5
6A9
330
1F
100
AcDbEntity
  8
KONTUR
100
AcDbPolyline
 90
       15
 70
     0
 43
0.0
 10
420.6037007094691
 20
2092.15986012292
 10
420.7704907094691
 20
2092.23136012292
 42
-0.0002582611
 10
420.9376507094692
 20
2092.30286012292
 42
-0.0002594197
 10
421.1051807094691
 20
2092.37426012292
 42
-0.0002562804
 10
421.2732907094691
 20
2092.44576012292
 42
-0.0002471196
 10
421.442040709469
 20
2092.51726012292
 42
-0.0002316287
 10
421.610460709469
 20
2092.58856012292
 42
-0.0002108963
 10
421.778220709469
 20
2092.65936012292
 42
-0.0002204319
 10
421.949040709469
 20
2092.73126012292
 42
-0.0002443643
 10
422.124220709469
 20
2092.80476012292
 42
-0.0001843348
 10
422.288880709469
 20
2092.87386012292
 42
-0.0000769602
 10
422.4379007094691
 20
2092.93626012292
 42
-0.000232698
 10
422.6298407094691
 20
2093.016260122919
 42
-0.0003631033
 10
422.9261407094691
 20
2093.13946012292
 42
-0.0001747043
 10
423.314570709469
 20
2093.30076012292
 42
-0.0000943056
  0
LWPOLYLINE
  5
6BB
330
1F
100
AcDbEntity
  8
KONTUR
100
AcDbPolyline
 90
       27
 70
     0
 43
0.0
 10
387.2268507094692
 20
2076.046160122919
 10
386.7058207094691
 20
2056.03616012292
 42
0.002464067
 10
386.3790707094691
 20
2036.02396012292
 42
0.002464099
 10
386.254650709469
 20
2016.00936012292
 42
0.0024646433
 10
386.3246207094691
 20
1995.99436012292
 42
0.0024667258
 10
386.597170709469
 20
1975.98116012292
 42
0.0024670959
 10
387.0641307094692
 20
1955.971760122919
 42
0.0024656647
 10
387.7334407094692
 20
1935.96796012292
 42
0.0024648721
 10
388.5969307094691
 20
1915.97136012292
 42
0.002464531
 10
389.662540709469
 20
1895.98426012292
 42
0.002463614
 10
390.921990709469
 20
1876.00866012292
 42
0.002462089
 10
392.3831507094689
 20
1856.046960122919
 42
0.002463824
 10
394.0382807094689
 20
1836.09896012292
 42
0.002468472
 10
395.8954407094692
 20
1816.16656012292
 42
0.0024627429
 10
397.944790709469
 20
1796.25786012292
 42
0.002448398
 10
400.1936407094692
 20
1776.37806012292
 42
0.002470513
 10
402.640480709469
 20
1756.50066012292
 42
0.0025219719
 10
405.2954907094689
 20
1736.61916012292
 42
0.0024512366
 10
408.124300709469
 20
1716.84296012292
 42
0.0022894937
 10
411.1255707094691
 20
1697.21266012292
 42
0.002525379
 10
414.393790709469
 20
1677.30256012292
 42
0.0030074258
 10
417.9718407094691
 20
1656.96946012292
 42
0.002284217
 10
421.4451007094691
 20
1637.90026012292
 42
0.0007894102
 10
424.6811107094691
 20
1620.67986012292
 42
0.0032199638
 10
429.274340709469
 20
1598.656260122919
 42
0.005530938
 10
436.9136407094691
 20
1564.85486012292
 42
0.0027033001
 10
447.2569007094691
 20
1520.66096012292
 42
0.0014328703
  0
LINE
  5
6D8
330
1F
100
AcDbEntity
  8
KONTUR
100
AcDbLine
 10
568.1004807094691
 20
1520.661960122919
 30
0.0
 11
567.1004807094691
 21
1520.661960122919
 31
0.0
  0
LINE
  5
6D9
330
1F
100
AcDbEntity
  8
KONTUR
100
AcDbLine
 10
567.1004807094691
 20
2110.661960122919
 30
0.0
 11
568.1004807094691
 21
2110.661960122919
 31
0.0
  0
LINE
  5
6DA
330
1F
100
AcDbEntity
  8
KONTUR
100
AcDbLine
 10
571.7864307094692
 20
2113.85876012292
 30
0.0
 11
570.7166507094689
 21
2117.35786012292
 31
0.0
  0
LINE
  5
6DB
330
1F
100
AcDbEntity
  8
KONTUR
100
AcDbLine
 10
569.215710709469
 20
2116.89896012292
 30
0.0
 11
569.876370709469
 21
2117.10096012292
 31
0.0
  0
LINE
  5
6DC
330
1F
100
AcDbEntity
  8
KONTUR
100
AcDbLine
 10
570.7166507094689
 20
2117.35786012292
 30
0.0
 11
569.876370709469
 21
2117.10096012292
 31
0.0
  0
LINE
  5
6DD
330
1F
100
AcDbEntity
  8
KONTUR
100
AcDbLine
 10
1500.672380709469
 20
1191.709213430408
 30
0.0
 11
1227.672380709469
 21
1191.709213430408
 31
0.0
  0
ARC
  5
6DE
330
1F
100
AcDbEntity
  8
KONTUR
100
AcDbCircle
 10
1500.672380709469
 20
1189.459213430408
 30
0.0
 40
2.25
100
AcDbArc
 50
0.0
 51
89.9999960000002
  0
LINE
  5
6DF
330
1F
100
AcDbEntity
  8
KONTUR
100
AcDbLine
 10
1502.922380709469
 20
1179.709213430408
 30
0.0
 11
1502.922380709469
 21
1184.709213430408
 31
0.0
  0
LINE
  5
6E0
330
1F
100
AcDbEntity
  8
KONTUR
100
AcDbLine
 10
1502.922380709469
 20
1184.709213430408
 30
0.0
 11
1502.922380709469
 21
1189.459213430408
 31
0.0
  0
LINE
  5
6E1
330
1F
100
AcDbEntity
  8
KONTUR
100
AcDbLine
 10
1225.422380709469
 20
1189.459213430408
 30
0.0
 11
1225.422380709469
 21
1179.709213430408
 31
0.0
  0
ARC
  5
6E3
330
1F
100
AcDbEntity
  8
KONTUR
100
AcDbCircle
 10
1227.672380709469
 20
1189.459213430408
 30
0.0
 40
2.25
100
AcDbArc
 50
90.0000040000002
 51
180.0000000000004
  0
LINE
  5
6E4
330
1F
100
AcDbEntity
  8
KONTUR
100
AcDbLine
 10
1501.672380709469
 20
1179.709213430408
 30
0.0
 11
1502.922380709469
 21
1179.709213430408
 31
0.0
  0
ARC
  5
6E5
330
1F
100
AcDbEntity
  8
KONTUR
100
AcDbCircle
 10
1227.672380709469
 20
1189.459213430408
 30
0.0
 40
1.0
100
AcDbArc
 50
90.0000000000002
 51
180.0000000000004
  0
LINE
  5
6E6
330
1F
100
AcDbEntity
  8
KONTUR
100
AcDbLine
 10
1226.672380709469
 20
1191.709213430408
 30
0.0
 11
1226.672380709469
 21
1191.474813430409
 31
0.0
  0
LINE
  5
6E7
330
1F
100
AcDbEntity
  8
KONTUR
100
AcDbLine
 10
1226.672380709469
 20
1189.459213430408
 30
0.0
 11
1226.672380709469
 21
1185.440813430409
 31
0.0
  0
LINE
  5
6E8
330
1F
100
AcDbEntity
  8
KONTUR
100
AcDbLine
 10
1501.672380709469
 20
1185.440813430409
 30
0.0
 11
1501.672380709469
 21
1189.459213430408
 31
0.0
  0
LINE
  5
6E9
330
1F
100
AcDbEntity
  8
KONTUR
100
AcDbLine
 10
1501.672380709469
 20
1191.474813430409
 30
0.0
 11
1501.672380709469
 21
1191.709213430408
 31
0.0
  0
ARC
  5
6EA
330
1F
100
AcDbEntity
  8
KONTUR
100
AcDbCircle
 10
1500.672380709469
 20
1189.459213430408
 30
0.0
 40
1.0000001
100
AcDbArc
 50
0.0000067872
 51
89.99999100000021
  0
LINE
  5
6EB
330
1F
100
AcDbEntity
  8
KONTUR
100
AcDbLine
 10
1500.672380709469
 20
1190.459213430408
 30
0.0
 11
1227.672380709469
 21
1190.459213430408
 31
0.0
  0
LINE
  5
6EC
330
1F
100
AcDbEntity
  8
KONTUR
100
AcDbLine
 10
1501.672380709469
 20
1191.709213430408
 30
0.0
 11
1502.922380709469
 21
1191.709213430408
 31
0.0
  0
LINE
  5
6EE
330
1F
100
AcDbEntity
  8
KONTUR
100
AcDbLine
 10
1508.651680709469
 20
1179.709213430408
 30
0.0
 11
1502.922380709469
 21
1179.709213430408
 31
0.0
  0
ARC
  5
6EF
330
1F
100
AcDbEntity
  8
KONTUR
100
AcDbCircle
 10
1508.651680709469
 20
1178.209213430408
 30
0.0
 40
1.5
100
AcDbArc
 50
348.9432600000008
 51
90.00000000000104
  0
LWPOLYLINE
  5
6F0
330
1F
100
AcDbEntity
  8
KONTUR
100
AcDbPolyline
 90
       15
 70
     0
 43
0.0
 10
1501.672380709469
 20
1106.107096294662
 10
1502.525780709469
 20
1110.210213430408
 42
0.0001942733
 10
1503.045980709469
 20
1112.721213430409
 42
0.0001927568
 10
1503.563980709469
 20
1115.231713430408
 42
0.0001943174
 10
1504.080580709469
 20
1117.745113430408
 42
0.0001982793
 10
1504.595980709469
 20
1120.262713430408
 42
0.0001926363
 10
1505.107380709469
 20
1122.770513430408
 42
0.000179841
 10
1505.613880709469
 20
1125.263813430408
 42
0.0001984356
 10
1506.126380709469
 20
1127.797613430409
 42
0.000236461
 10
1506.648480709469
 20
1130.391113430408
 42
0.0001794977
 10
1507.137480709469
 20
1132.826213430408
 42
0.0000616977
 10
1507.578680709469
 20
1135.028013430408
 42
0.0002530547
 10
1508.140780709469
 20
1137.856513430409
 42
0.0004352852
 10
1509.000880709469
 20
1142.214113430408
 42
0.0000346535899331
 10
1510.12383732551
 20
1177.921541920095
 42
0.0000654758326238
  0
LWPOLYLINE
  5
701
330
1F
100
AcDbEntity
  8
KONTUR
100
AcDbPolyline
 90
       19
 70
     0
 43
0.0
 10
1483.812480709469
 20
1080.352913430409
 10
1484.954280709469
 20
1080.684913430408
 42
0.013815593
 10
1486.073680709469
 20
1081.078013430409
 42
0.013968169
 10
1487.170280709469
 20
1081.535113430409
 42
0.013865288
 10
1488.241880709469
 20
1082.051613430408
 42
0.013653357
 10
1489.283580709469
 20
1082.627213430409
 42
0.013506074
 10
1490.293680709469
 20
1083.257313430408
 42
0.013364026
 10
1491.268080709469
 20
1083.942013430409
 42
0.013432728
 10
1492.205780709469
 20
1084.678913430409
 42
0.013689326
 10
1493.102480709469
 20
1085.468313430409
 42
0.013384198
 10
1493.954880709469
 20
1086.300013430408
 42
0.012675032
 10
1494.757680709469
 20
1087.171613430408
 42
0.013867364
 10
1495.518780709469
 20
1088.103813430409
 42
0.016197932
 10
1496.237180709469
 20
1089.103813430409
 42
0.01229971
 10
1496.883380709469
 20
1090.067813430408
 42
0.0043952422
 10
1497.443480709469
 20
1090.960013430409
 42
0.016793923
 10
1498.037680709469
 20
1092.167913430408
 42
0.028854633
 10
1498.788180709469
 20
1094.101513430408
 42
0.014099562
 10
1499.672380709469
 20
1096.678313430408
 42
0.0074163597
  0
LWPOLYLINE
  5
716
330
1F
100
AcDbEntity
  8
KONTUR
100
AcDbPolyline
 90
       15
 70
     0
 43
0.0
 10
1244.532280709469
 20
1080.353213430408
 10
1259.301780709469
 20
1076.785513430409
 42
0.0078499458
 10
1274.135980709469
 20
1073.684113430409
 42
0.0078465936
 10
1289.036180709469
 20
1071.067713430408
 42
0.0079153363
 10
1304.008480709469
 20
1068.921613430408
 42
0.0080492789
 10
1319.047680709469
 20
1067.266813430409
 42
0.007817418
 10
1334.059080709469
 20
1066.065213430409
 42
0.007297676
 10
1349.004880709469
 20
1065.329813430408
 42
0.0080421259
 10
1364.197380709469
 20
1065.114313430408
 42
0.0095838863
 10
1379.736980709469
 20
1065.463113430409
 42
0.0072788311
 10
1394.332380709469
 20
1066.068213430408
 42
0.0024851192
 10
1407.530580709469
 20
1066.849413430409
 42
0.010263648
 10
1424.373780709469
 20
1068.926313430409
 42
0.017738696
 10
1450.151280709469
 20
1073.513113430409
 42
0.0086516183
 10
1483.812480709469
 20
1080.352913430409
 42
0.0045605678
  0
LWPOLYLINE
  5
727
330
1F
100
AcDbEntity
  8
KONTUR
100
AcDbPolyline
 90
       19
 70
     0
 43
0.0
 10
1228.672380709469
 20
1096.678313430408
 10
1228.994580709469
 20
1095.518513430408
 42
0.012740452
 10
1229.373780709469
 20
1094.379513430409
 42
0.012841977
 10
1229.812480709469
 20
1093.261913430409
 42
0.012827602
 10
1230.306980709469
 20
1092.167913430408
 42
0.012834536
 10
1230.857980709469
 20
1091.102713430409
 42
0.012854901
 10
1231.461380709469
 20
1090.067913430409
 42
0.012859945
 10
1232.117980709469
 20
1089.068013430408
 42
0.013080654
 10
1232.825980709469
 20
1088.103913430409
 42
0.013520101
 10
1233.586480709469
 20
1087.180213430408
 42
0.013317833
 10
1234.389880709469
 20
1086.300213430408
 42
0.012633737
 10
1235.233980709469
 20
1085.469013430409
 42
0.013889793
 10
1236.138980709469
 20
1084.679013430409
 42
0.016371576
 10
1237.112080709469
 20
1083.931513430408
 42
0.012452422
 10
1238.051080709469
 20
1083.257513430408
 42
0.0042761963
 10
1238.920880709469
 20
1082.672113430408
 42
0.017451078
 10
1240.102880709469
 20
1082.051813430408
 42
0.030705315
 10
1242.000480709469
 20
1081.271213430408
 42
0.015109696
 10
1244.532280709469
 20
1080.353213430408
 42
0.0079302987
  0
LWPOLYLINE
  5
73C
330
1F
100
AcDbEntity
  8
KONTUR
100
AcDbPolyline
 90
       15
 70
     0
 43
0.0
 10
1218.220824093428
 20
1177.921541920095
 10
1218.713780709469
 20
1145.404513430408
 42
0.0001938838
 10
1219.208480709469
 20
1142.888213430409
 42
0.0001923373
 10
1219.704980709469
 20
1140.373413430409
 42
0.0001939271
 10
1220.203980709469
 20
1137.856513430409
 42
0.0001979862
 10
1220.705680709469
 20
1135.336113430408
 42
0.0001924111
 10
1221.207180709469
 20
1132.826213430408
 42
0.0001796674
 10
1221.707680709469
 20
1130.331813430409
 42
0.0001983358
 10
1222.218380709469
 20
1127.797613430409
 42
0.0002364814
 10
1222.743280709469
 20
1125.204713430408
 42
0.0001795174
 10
1223.237280709469
 20
1122.770513430408
 42
0.000061594
 10
1223.684880709469
 20
1120.570113430409
 42
0.0002532944
 10
1224.264080709469
 20
1117.745113430408
 42
0.000435985
 10
1225.161980709469
 20
1113.395013430408
 42
0.0002729122923251
 10
1226.672380709469
 20
1106.103574335894
 42
0.000065577848403
  0
ARC
  5
74D
330
1F
100
AcDbEntity
  8
KONTUR
100
AcDbCircle
 10
1219.692980709469
 20
1178.209213430408
 30
0.0
 40
1.5
100
AcDbArc
 50
90.0000000000002
 51
191.0567400000004
  0
LINE
  5
74E
330
1F
100
AcDbEntity
  8
KONTUR
100
AcDbLine
 10
1225.422380709469
 20
1179.709213430408
 30
0.0
 11
1219.692980709469
 21
1179.709213430408
 31
0.0
  0
LINE
  5
751
330
1F
100
AcDbEntity
  8
KONTUR
100
AcDbLine
 10
1226.672380709469
 20
1191.709213430408
 30
0.0
 11
1225.422380709469
 21
1191.709213430408
 31
0.0
  0
LINE
  5
752
330
1F
100
AcDbEntity
  8
KONTUR
100
AcDbLine
 10
1225.422380709469
 20
1179.709213430408
 30
0.0
 11
1226.672380709469
 21
1179.709213430408
 31
0.0
  0
LINE
  5
753
330
1F
100
AcDbEntity
  8
KONTUR
100
AcDbLine
 10
1499.672380709469
 20
1068.623013430408
 30
0.0
 11
1496.824080709469
 21
1046.157413430408
 31
0.0
  0
LINE
  5
754
330
1F
100
AcDbEntity
  8
KONTUR
100
AcDbLine
 10
1496.824080709469
 20
1041.771913430408
 30
0.0
 11
1499.672380709469
 21
1064.237413430409
 31
0.0
  0
LWPOLYLINE
  5
755
330
1F
100
AcDbEntity
  8
KONTUR
100
AcDbPolyline
 90
       27
 70
     0
 43
0.0
 10
1496.824080709469
 20
1046.157413430408
 10
1496.711780709469
 20
1045.304813430409
 42
-0.010561583
 10
1496.563080709469
 20
1044.449613430409
 42
-0.010262448
 10
1496.376780709469
 20
1043.591313430409
 42
-0.010140968
 10
1496.153880709469
 20
1042.732713430408
 42
-0.010344345
 10
1495.892080709469
 20
1041.877013430408
 42
-0.010510541
 10
1495.592480709469
 20
1041.026513430409
 42
-0.010712757
 10
1495.253080709469
 20
1040.183713430408
 42
-0.010802399
 10
1494.875580709469
 20
1039.350713430409
 42
-0.010873218
 10
1494.458880709469
 20
1038.530613430409
 42
-0.010846129
 10
1494.005680709469
 20
1037.725513430408
 42
-0.010768447
 10
1493.515680709469
 20
1036.938413430409
 42
-0.010774242
 10
1492.991280709469
 20
1036.171113430408
 42
-0.010883368
 10
1492.432380709469
 20
1035.427113430409
 42
-0.010978503
 10
1491.841480709469
 20
1034.707913430409
 42
-0.011103977
 10
1491.218780709469
 20
1034.017113430409
 42
-0.011185427
 10
1490.566580709469
 20
1033.354813430408
 42
-0.011192663
 10
1489.885780709469
 20
1032.723313430408
 42
-0.010804043
 10
1489.184080709469
 20
1032.124213430408
 42
-0.010080376
 10
1488.464680709469
 20
1031.560713430409
 42
-0.010986115
 10
1487.712780709469
 20
1031.027413430409
 42
-0.012953569
 10
1486.923980709469
 20
1030.525013430408
 42
-0.010144541
 10
1486.171780709469
 20
1030.075013430408
 42
-0.004187596
 10
1485.482380709469
 20
1029.686913430408
 42
-0.013612494
 10
1484.580280709469
 20
1029.272013430409
 42
-0.022795724
 10
1483.174680709469
 20
1028.740713430409
 42
-0.011462168
 10
1481.323980709469
 20
1028.109613430408
 42
-0.0062243072
  0
LWPOLYLINE
  5
772
330
1F
100
AcDbEntity
  8
KONTUR
100
AcDbPolyline
 90
       27
 70
     0
 43
0.0
 10
1481.323980709469
 20
1023.724013430408
 10
1482.142080709469
 20
1023.959913430409
 42
0.010559134
 10
1482.957780709469
 20
1024.231813430408
 42
0.010243364
 10
1483.771380709469
 20
1024.541113430409
 42
0.010119693
 10
1484.580280709469
 20
1024.886513430408
 42
0.010333215
 10
1485.381080709469
 20
1025.269713430409
 42
0.010499775
 10
1486.171780709469
 20
1025.689413430408
 42
0.010697659
 10
1486.949680709469
 20
1026.147513430408
 42
0.010783232
 10
1487.712780709469
 20
1026.641813430409
 42
0.010855402
 10
1488.458180709469
 20
1027.173113430409
 42
0.010829781
 10
1489.184080709469
 20
1027.738613430408
 42
0.010761152
 10
1489.887380709469
 20
1028.338213430408
 42
0.010770653
 10
1490.566580709469
 20
1028.969213430408
 42
0.010884581
 10
1491.218380709469
 20
1029.631513430409
 42
0.010979094
 10
1491.841480709469
 20
1030.322313430408
 42
0.011105222
 10
1492.432380709469
 20
1031.041113430409
 42
0.011183743
 10
1492.991280709469
 20
1031.785513430409
 42
0.011193919
 10
1493.515880709469
 20
1032.554513430408
 42
0.010802368
 10
1494.005680709469
 20
1033.339913430409
 42
0.010078639
 10
1494.457880709469
 20
1034.138313430408
 42
0.010995397
 10
1494.875580709469
 20
1034.965113430408
 42
0.012983148
 10
1495.257180709469
 20
1035.824913430408
 42
0.010157032
 10
1495.592480709469
 20
1036.640913430409
 42
0.0041741316
 10
1495.875780709469
 20
1037.385513430409
 42
0.0136459
 10
1496.153880709469
 20
1038.347213430408
 42
0.022849234
 10
1496.472580709469
 20
1039.829513430408
 42
0.01147162
 10
1496.824080709469
 20
1041.771913430408
 42
0.006220527
  0
LWPOLYLINE
  5
78F
330
1F
100
AcDbEntity
  8
KONTUR
100
AcDbPolyline
 90
       27
 70
     0
 43
0.0
 10
1481.323980709469
 20
1028.109613430408
 10
1473.209580709469
 20
1026.030713430408
 42
-0.0046128581
 10
1465.044280709469
 20
1024.095913430408
 42
-0.0045880472
 10
1456.825480709469
 20
1022.310713430409
 42
-0.004576834
 10
1448.559480709469
 20
1020.670913430409
 42
-0.004592562
 10
1440.249780709469
 20
1019.184913430408
 42
-0.0046056968
 10
1431.901980709469
 20
1017.848163430408
 42
-0.004622485
 10
1423.518280709469
 20
1016.668433430409
 42
-0.0046311456
 10
1415.104180709469
 20
1015.640693430408
 42
-0.0046389937
 10
1406.662980709469
 20
1014.772353430408
 42
-0.0046370253
 10
1398.200080709469
 20
1014.057573430408
 42
-0.0046285138
 10
1389.719380709469
 20
1013.503213430409
 42
-0.0046309523
 10
1381.225080709469
 20
1013.103653430408
 42
-0.0046456786
 10
1372.720980709469
 20
1012.865993430408
 42
-0.0046428743
 10
1364.214580709469
 20
1012.783633430408
 42
-0.0046287072
 10
1355.711380709469
 20
1012.863193430409
 42
-0.0046674781
 10
1347.204080709469
 20
1013.100623430408
 42
-0.0047458339
 10
1338.693480709469
 20
1013.502793430408
 42
-0.004606421
 10
1330.228880709469
 20
1014.051523430408
 42
-0.004301843
 10
1321.830880709469
 20
1014.748763430408
 42
-0.0047373534
 10
1313.324480709469
 20
1015.631633430408
 42
-0.005635713
 10
1304.653680709469
 20
1016.721063430408
 42
-0.004303334
 10
1296.526380709469
 20
1017.836103430408
 42
-0.0015366962
 10
1289.190780709469
 20
1018.922013430408
 42
-0.0060078608
 10
1279.868380709469
 20
1020.655913430408
 42
-0.010287908
 10
1265.646280709469
 20
1023.761113430408
 42
-0.0050570437
 10
1247.102580709469
 20
1028.088713430408
 42
-0.0026916891
  0
LWPOLYLINE
  5
7AC
330
1F
100
AcDbEntity
  8
KONTUR
100
AcDbPolyline
 90
       27
 70
     0
 43
0.0
 10
1247.102580709469
 20
1023.703213430409
 10
1255.217280709469
 20
1021.625813430408
 42
0.0046129389
 10
1263.382880709469
 20
1019.692313430408
 42
0.004588136
 10
1271.602080709469
 20
1017.908613430408
 42
0.0045769158
 10
1279.868380709469
 20
1016.270353430409
 42
0.0045926201
 10
1288.178280709469
 20
1014.785813430408
 42
0.0046057367
 10
1296.526380709469
 20
1013.450533430409
 42
0.0046225072
 10
1304.910280709469
 20
1012.272293430408
 42
0.0046311558
 10
1313.324480709469
 20
1011.246053430409
 42
0.0046389947
 10
1321.765880709469
 20
1010.379213430409
 42
0.004637023
 10
1330.228880709469
 20
1009.665943430408
 42
0.0046285133
 10
1338.709680709469
 20
1009.113093430408
 42
0.0046309527
 10
1347.204080709469
 20
1008.715053430408
 42
0.0046456784
 10
1355.708180709469
 20
1008.478903430409
 42
0.0046428741
 10
1364.214580709469
 20
1008.398053430408
 42
0.004628707
 10
1372.717880709469
 20
1008.479133430409
 42
0.0046674782
 10
1381.225080709469
 20
1008.718083430409
 42
0.0047458344
 10
1389.735580709469
 20
1009.121763430408
 42
0.0046064211
 10
1398.200080709469
 20
1009.671993430409
 42
0.0043018413
 10
1406.597980709469
 20
1010.370733430409
 42
0.0047373541
 10
1415.104180709469
 20
1011.255123430408
 42
0.0056357211
 10
1423.774780709469
 20
1012.346093430408
 42
0.0043033337
 10
1431.901980709469
 20
1013.462593430409
 42
0.0015366678
 10
1439.237280709469
 20
1014.549813430408
 42
0.0060078966
 10
1448.559480709469
 20
1016.285383430408
 42
0.010288042
 10
1462.780980709469
 20
1019.393113430408
 42
0.0050571126
 10
1481.323980709469
 20
1023.724013430408
 42
0.0026917216
  0
LWPOLYLINE
  5
7C9
330
1F
100
AcDbEntity
  8
KONTUR
100
AcDbPolyline
 90
       27
 70
     0
 43
0.0
 10
1247.102580709469
 20
1028.088713430408
 10
1246.281680709469
 20
1028.325913430408
 42
-0.010529121
 10
1245.463280709469
 20
1028.599213430408
 42
-0.010215277
 10
1244.647080709469
 20
1028.909913430408
 42
-0.010092048
 10
1243.835480709469
 20
1029.256713430409
 42
-0.010303465
 10
1243.031980709469
 20
1029.641313430408
 42
-0.010468306
 10
1242.238680709469
 20
1030.062613430408
 42
-0.010664313
 10
1241.458080709469
 20
1030.522113430408
 42
-0.01074893
 10
1240.692280709469
 20
1031.017813430408
 42
-0.010820288
 10
1239.944280709469
 20
1031.550713430408
 42
-0.010794576
 10
1239.215680709469
 20
1032.117613430408
 42
-0.010726094
 10
1238.509680709469
 20
1032.718713430409
 42
-0.010735202
 10
1237.827680709469
 20
1033.351213430408
 42
-0.010847979
 10
1237.173180709469
 20
1034.015113430408
 42
-0.010941311
 10
1236.547280709469
 20
1034.707513430408
 42
-0.011065836
 10
1235.953580709469
 20
1035.427813430409
 42
-0.011144137
 10
1235.391680709469
 20
1036.173913430408
 42
-0.011155476
 10
1234.864180709469
 20
1036.944513430408
 42
-0.010765838
 10
1234.371480709469
 20
1037.731613430408
 42
-0.010044847
 10
1233.916280709469
 20
1038.531813430408
 42
-0.010959354
 10
1233.495580709469
 20
1039.360513430408
 42
-0.012941387
 10
1233.110780709469
 20
1040.222413430408
 42
-0.010123279
 10
1232.772480709469
 20
1041.040313430408
 42
-0.004157603
 10
1232.486480709469
 20
1041.786713430408
 42
-0.013603471
 10
1232.204980709469
 20
1042.750913430409
 42
-0.022781693
 10
1231.880980709469
 20
1044.237413430409
 42
-0.011436964
 10
1231.522580709469
 20
1046.185413430409
 42
-0.006201319
  0
LWPOLYLINE
  5
7E6
330
1F
100
AcDbEntity
  8
KONTUR
100
AcDbPolyline
 90
       27
 70
     0
 43
0.0
 10
1231.522580709469
 20
1041.799813430408
 10
1231.637980709469
 20
1040.944613430408
 42
0.01052979
 10
1231.789580709469
 20
1040.086913430408
 42
0.010232402
 10
1231.978980709469
 20
1039.226213430409
 42
0.0101115
 10
1232.204980709469
 20
1038.365313430409
 42
0.01031318
 10
1232.469880709469
 20
1037.507413430408
 42
0.01047791
 10
1232.772480709469
 20
1036.654713430409
 42
0.010678438
 10
1233.114980709469
 20
1035.809913430408
 42
0.010767267
 10
1233.495580709469
 20
1034.975013430408
 42
0.010837445
 10
1233.915280709469
 20
1034.153113430408
 42
0.01081039
 10
1234.371480709469
 20
1033.346113430408
 42
0.010733015
 10
1234.864480709469
 20
1032.557213430408
 42
0.010738529
 10
1235.391680709469
 20
1031.788313430408
 42
0.010846626
 10
1235.953580709469
 20
1031.042613430408
 42
0.010940643
 10
1236.547280709469
 20
1030.321913430409
 42
0.011064574
 10
1237.172780709469
 20
1029.629513430409
 42
0.01114583
 10
1237.827680709469
 20
1028.965613430408
 42
0.011154328
 10
1238.511380709469
 20
1028.332613430408
 42
0.010767646
 10
1239.215680709469
 20
1027.732113430408
 42
0.010046732
 10
1239.937780709469
 20
1027.167113430408
 42
0.010950475
 10
1240.692280709469
 20
1026.632313430408
 42
0.012912751
 10
1241.483880709469
 20
1026.128413430408
 42
0.010111353
 10
1242.238680709469
 20
1025.677013430408
 42
0.0041704151
 10
1242.930280709469
 20
1025.287513430408
 42
0.013571984
 10
1243.835480709469
 20
1024.871113430409
 42
0.022733965
 10
1245.245680709469
 20
1024.337413430409
 42
0.011430593
 10
1247.102580709469
 20
1023.703213430409
 42
0.006206589
  0
LINE
  5
803
330
1F
100
AcDbEntity
  8
KONTUR
100
AcDbLine
 10
1231.522580709469
 20
1046.185413430409
 30
0.0
 11
1228.672380709469
 21
1068.623013430408
 31
0.0
  0
LINE
  5
804
330
1F
100
AcDbEntity
  8
KONTUR
100
AcDbLine
 10
1228.672380709469
 20
1064.237413430409
 30
0.0
 11
1231.522580709469
 21
1041.799813430408
 31
0.0
  0
LINE
  5
806
330
1F
100
AcDbEntity
  8
KONTUR
100
AcDbLine
 10
1499.672380709469
 20
1190.459213430408
 30
0.0
 11
1499.672380709469
 21
1185.440813430409
 31
0.0
  0
LINE
  5
808
330
1F
100
AcDbEntity
  8
KONTUR
100
AcDbLine
 10
1226.672380709469
 20
1184.690813430409
 30
0.0
 11
1226.672380709469
 21
1185.440813430409
 31
0.0
  0
LINE
  5
809
330
1F
100
AcDbEntity
  8
KONTUR
100
AcDbLine
 10
1499.672380709469
 20
1185.440813430409
 30
0.0
 11
1499.672380709469
 21
1184.690813430409
 31
0.0
  0
LINE
  5
80A
330
1F
100
AcDbEntity
  8
KONTUR
100
AcDbLine
 10
1501.672380709469
 20
1185.440813430409
 30
0.0
 11
1501.672380709469
 21
1184.690813430409
 31
0.0
  0
LINE
  5
80C
330
1F
100
AcDbEntity
  8
KONTUR
100
AcDbLine
 10
1226.672380709469
 20
1179.969513430408
 30
0.0
 11
1226.672380709469
 21
1184.690813430409
 31
0.0
  0
LINE
  5
80D
330
1F
100
AcDbEntity
  8
KONTUR
100
AcDbLine
 10
1499.672380709469
 20
1179.969513430408
 30
0.0
 11
1499.672380709469
 21
1184.690813430409
 31
0.0
  0
LINE
  5
80E
330
1F
100
AcDbEntity
  8
KONTUR
100
AcDbLine
 10
1501.672380709469
 20
1184.690813430409
 30
0.0
 11
1501.672380709469
 21
1179.969513430408
 31
0.0
  0
LINE
  5
810
330
1F
100
AcDbEntity
  8
KONTUR
100
AcDbLine
 10
1226.672380709469
 20
1177.675013430408
 30
0.0
 11
1226.672380709469
 21
1179.969513430408
 31
0.0
  0
LINE
  5
811
330
1F
100
AcDbEntity
  8
KONTUR
100
AcDbLine
 10
1499.672380709469
 20
1177.675013430408
 30
0.0
 11
1499.672380709469
 21
1179.969513430408
 31
0.0
  0
LINE
  5
812
330
1F
100
AcDbEntity
  8
KONTUR
100
AcDbLine
 10
1501.672380709469
 20
1179.969513430408
 30
0.0
 11
1501.672380709469
 21
1177.675013430408
 31
0.0
  0
LINE
  5
814
330
1F
100
AcDbEntity
  8
KONTUR
100
AcDbLine
 10
1228.672380709469
 20
1190.459213430408
 30
0.0
 11
1228.672380709469
 21
1064.237413430409
 31
0.0
  0
LINE
  5
815
330
1F
100
AcDbEntity
  8
KONTUR
100
AcDbLine
 10
1499.672380709469
 20
1064.237413430409
 30
0.0
 11
1499.672380709469
 21
1190.459213430408
 31
0.0
  0
LINE
  5
816
330
1F
100
AcDbEntity
  8
KONTUR
100
AcDbLine
 10
1499.672380709469
 20
1174.574113430408
 30
0.0
 11
1499.672380709469
 21
1177.675013430408
 31
0.0
  0
LINE
  5
817
330
1F
100
AcDbEntity
  8
KONTUR
100
AcDbLine
 10
1501.672380709469
 20
1177.675013430408
 30
0.0
 11
1501.672380709469
 21
1064.237413430409
 31
0.0
  0
LINE
  5
818
330
1F
100
AcDbEntity
  8
KONTUR
100
AcDbLine
 10
1501.672380709469
 20
1064.237413430409
 30
0.0
 11
1498.812980709469
 21
1041.570213430408
 31
0.0
  0
LWPOLYLINE
  5
819
330
1F
100
AcDbEntity
  8
KONTUR
100
AcDbPolyline
 90
       11
 70
     0
 43
0.0
 10
1498.812980709469
 20
1041.570213430408
 10
1498.464580709469
 20
1039.388813430408
 42
-0.025979357
 10
1497.900380709469
 20
1037.227713430409
 42
-0.023196728
 10
1497.117780709469
 20
1035.084613430409
 42
-0.024401447
 10
1496.081380709469
 20
1032.979813430409
 42
-0.029956833
 10
1494.769680709469
 20
1030.955613430408
 42
-0.024137688
 10
1493.385380709469
 20
1029.106613430409
 42
-0.010793048
 10
1492.002580709469
 20
1027.490813430408
 42
-0.031855806
 10
1489.954880709469
 20
1025.864513430408
 42
-0.054378885
 10
1486.524680709469
 20
1023.980113430408
 42
-0.028060807
 10
1481.860280709469
 20
1021.881513430408
 42
-0.014903786
  0
LWPOLYLINE
  5
826
330
1F
100
AcDbEntity
  8
KONTUR
100
AcDbPolyline
 90
       11
 70
     0
 43
0.0
 10
1481.860280709469
 20
1021.881513430408
 10
1462.706980709469
 20
1017.239893430408
 42
-0.010994223
 10
1443.386680709469
 20
1013.395153430408
 42
-0.010016309
 10
1423.945380709469
 20
1010.364233430408
 42
-0.010907247
 10
1404.026680709469
 20
1008.224503430408
 42
-0.013116087
 10
1383.542580709469
 20
1007.063453430409
 42
-0.010082941
 10
1364.214780709469
 20
1006.485443430408
 42
-0.0036691826
 10
1346.669480709469
 20
1006.401053430408
 42
-0.014016969
 10
1324.402680709469
 20
1008.217393430409
 42
-0.024109171
 10
1290.582480709469
 20
1013.482553430409
 42
-0.011907917
 10
1246.566580709469
 20
1021.860513430408
 42
-0.006313163
  0
LWPOLYLINE
  5
833
330
1F
100
AcDbEntity
  8
KONTUR
100
AcDbPolyline
 90
       11
 70
     0
 43
0.0
 10
1246.566580709469
 20
1021.860513430408
 10
1244.454080709469
 20
1022.531913430409
 42
-0.025858253
 10
1242.393980709469
 20
1023.413513430408
 42
-0.023097018
 10
1240.384380709469
 20
1024.508013430408
 42
-0.024308568
 10
1238.450380709469
 20
1025.847413430408
 42
-0.029850194
 10
1236.636980709469
 20
1027.446713430409
 42
-0.024056584
 10
1235.008080709469
 20
1029.091413430408
 42
-0.010748046
 10
1233.609980709469
 20
1030.699713430409
 42
-0.031776484
 10
1232.298680709469
 20
1032.967413430409
 42
-0.054290965
 10
1230.933880709469
 20
1036.642113430409
 42
-0.02802573
 10
1229.537080709469
 20
1041.570413430408
 42
-0.014888712
  0
LINE
  5
840
330
1F
100
AcDbEntity
  8
KONTUR
100
AcDbLine
 10
1229.537080709469
 20
1041.570413430408
 30
0.0
 11
1226.672380709469
 21
1064.237413430409
 31
0.0
  0
LINE
  5
841
330
1F
100
AcDbEntity
  8
KONTUR
100
AcDbLine
 10
1226.672380709469
 20
1064.237413430409
 30
0.0
 11
1226.672380709469
 21
1177.675013430408
 31
0.0
  0
LINE
  5
842
330
1F
100
AcDbEntity
  8
KONTUR
100
AcDbLine
 10
1504.172380709469
 20
1181.709313430409
 30
0.0
 11
1504.172380709469
 21
1180.459313430409
 31
0.0
  0
LINE
  5
843
330
1F
100
AcDbEntity
  8
KONTUR
100
AcDbLine
 10
1504.172380709469
 20
1191.709313430409
 30
0.0
 11
1502.922380709469
 21
1191.709213430408
 31
0.0
  0
LINE
  5
844
330
1F
100
AcDbEntity
  8
KONTUR
100
AcDbLine
 10
1224.172380709469
 20
1191.709313430409
 30
0.0
 11
1225.422380709469
 21
1191.709213430408
 31
0.0
  0
ARC
  5
845
330
1F
100
AcDbEntity
  8
KONTUR
100
AcDbCircle
 10
1505.172380709469
 20
1182.709313430408
 30
0.0
 40
2.25
100
AcDbArc
 50
180.0000000000004
 51
243.6122000000006
  0
LINE
  5
846
330
1F
100
AcDbEntity
  8
KONTUR
100
AcDbLine
 10
1502.922380709469
 20
1191.709213430408
 30
0.0
 11
1502.922380709469
 21
1189.459213430408
 31
0.0
  0
LINE
  5
847
330
1F
100
AcDbEntity
  8
KONTUR
100
AcDbLine
 10
1225.422380709469
 20
1191.709213430408
 30
0.0
 11
1225.422380709469
 21
1189.459213430408
 31
0.0
  0
ARC
  5
848
330
1F
100
AcDbEntity
  8
KONTUR
100
AcDbCircle
 10
1223.172380709469
 20
1182.709313430408
 30
0.0
 40
2.25
100
AcDbArc
 50
296.3878000000007
 51
0.0000000000007994
  0
LINE
  5
849
330
1F
100
AcDbEntity
  8
KONTUR
100
AcDbLine
 10
1221.672380709469
 20
1180.459313430409
 30
0.0
 11
1216.333780709469
 21
1180.459313430409
 31
0.0
  0
LINE
  5
84A
330
1F
100
AcDbEntity
  8
KONTUR
100
AcDbLine
 10
1224.172380709469
 20
1180.459313430409
 30
0.0
 11
1221.672380709469
 21
1180.459313430409
 31
0.0
  0
LINE
  5
84B
330
1F
100
AcDbEntity
  8
KONTUR
100
AcDbLine
 10
1224.172380709469
 20
1181.709313430409
 30
0.0
 11
1224.172380709469
 21
1180.459313430409
 31
0.0
  0
LINE
  5
84C
330
1F
100
AcDbEntity
  8
KONTUR
100
AcDbLine
 10
1216.335180709469
 20
1181.709313430409
 30
0.0
 11
1221.672380709469
 21
1181.709313430409
 31
0.0
  0
LINE
  5
84D
330
1F
100
AcDbEntity
  8
KONTUR
100
AcDbLine
 10
1221.672380709469
 20
1181.709313430409
 30
0.0
 11
1224.172380709469
 21
1181.709313430409
 31
0.0
  0
ARC
  5
84E
330
1F
100
AcDbEntity
  8
KONTUR
100
AcDbCircle
 10
1223.172380709469
 20
1182.709313430408
 30
0.0
 40
1.0
100
AcDbArc
 50
270.0000000000006
 51
0.0000000000007994
  0
LINE
  5
84F
330
1F
100
AcDbEntity
  8
KONTUR
100
AcDbLine
 10
1224.172380709469
 20
1182.709313430408
 30
0.0
 11
1224.172380709469
 21
1189.209313430409
 31
0.0
  0
LINE
  5
850
330
1F
100
AcDbEntity
  8
KONTUR
100
AcDbLine
 10
1224.172380709469
 20
1189.209313430409
 30
0.0
 11
1224.172380709469
 21
1191.709313430409
 31
0.0
  0
LINE
  5
851
330
1F
100
AcDbEntity
  8
KONTUR
100
AcDbLine
 10
1504.172380709469
 20
1191.709313430409
 30
0.0
 11
1504.172380709469
 21
1189.209313430409
 31
0.0
  0
LINE
  5
852
330
1F
100
AcDbEntity
  8
KONTUR
100
AcDbLine
 10
1504.172380709469
 20
1189.209313430409
 30
0.0
 11
1504.172380709469
 21
1182.709313430408
 31
0.0
  0
ARC
  5
853
330
1F
100
AcDbEntity
  8
KONTUR
100
AcDbCircle
 10
1505.172380709469
 20
1182.709313430408
 30
0.0
 40
1.0000001
100
AcDbArc
 50
180.0000000000004
 51
270.0000000000006
  0
LINE
  5
854
330
1F
100
AcDbEntity
  8
KONTUR
100
AcDbLine
 10
1504.172380709469
 20
1180.459313430409
 30
0.0
 11
1506.672380709469
 21
1180.459313430409
 31
0.0
  0
LINE
  5
855
330
1F
100
AcDbEntity
  8
KONTUR
100
AcDbLine
 10
1506.672380709469
 20
1180.459313430409
 30
0.0
 11
1512.010980709469
 21
1180.459313430409
 31
0.0
  0
LINE
  5
856
330
1F
100
AcDbEntity
  8
KONTUR
100
AcDbLine
 10
1504.172380709469
 20
1181.709313430409
 30
0.0
 11
1506.672380709469
 21
1181.709313430409
 31
0.0
  0
LINE
  5
857
330
1F
100
AcDbEntity
  8
KONTUR
100
AcDbLine
 10
1506.672380709469
 20
1181.709313430409
 30
0.0
 11
1512.009480709469
 21
1181.709313430409
 31
0.0
  0
LWPOLYLINE
  5
858
330
1F
100
AcDbEntity
  8
KONTUR
100
AcDbPolyline
 90
       47
 70
     0
 43
0.0
 10
1483.264680709469
 20
1016.626993430409
 10
1478.378180709469
 20
1015.421003430408
 42
-0.0025785514
 10
1473.478380709469
 20
1014.264383430409
 42
-0.0025760063
 10
1468.564780709469
 20
1013.159173430408
 42
-0.002575239
 10
1463.637880709469
 20
1012.103383430408
 42
-0.0025766433
 10
1458.697380709469
 20
1011.099193430408
 42
-0.0025757373
 10
1453.745880709469
 20
1010.144943430408
 42
-0.0025759277
 10
1448.784680709469
 20
1009.243123430409
 42
-0.002578799
 10
1443.814080709469
 20
1008.391703430409
 42
-0.0025818044
 10
1438.833380709469
 20
1007.592773430409
 42
-0.0025831107
 10
1433.842980709469
 20
1006.844293430408
 42
-0.0025842728
 10
1428.842480709469
 20
1006.148423430408
 42
-0.0025850642
 10
1423.831780709469
 20
1005.503103430408
 42
-0.0025856758
 10
1418.810380709469
 20
1004.910443430409
 42
-0.002583159
 10
1413.780780709469
 20
1004.368643430409
 42
-0.0025820344
 10
1408.744980709469
 20
1003.880083430408
 42
-0.00258285
 10
1403.704180709469
 20
1003.442753430409
 42
-0.0025835536
 10
1398.658380709469
 20
1003.058843430409
 42
-0.0025838396
 10
1393.608280709469
 20
1002.726263430408
 42
-0.0025838168
 10
1388.553980709469
 20
1002.447173430408
 42
-0.002584583
 10
1383.495380709469
 20
1002.219503430409
 42
-0.002585934
 10
1378.432380709469
 20
1002.045413430409
 42
-0.0025835581
 10
1373.367580709469
 20
1001.922813430408
 42
-0.0025811997
 10
1368.303480709469
 20
1001.853883430409
 42
-0.002581462
 10
1363.241380709469
 20
1001.836463430408
 42
-0.0025817227
 10
1358.182180709469
 20
1001.872653430408
 42
-0.0025830153
 10
1353.125880709469
 20
1001.960283430408
 42
-0.0025835603
 10
1348.072580709469
 20
1002.101453430409
 42
-0.0025841954
 10
1343.022480709469
 20
1002.294003430408
 42
-0.002584707
 10
1337.975880709469
 20
1002.540033430409
 42
-0.0025843782
 10
1332.932880709469
 20
1002.837363430408
 42
-0.0025827938
 10
1327.893780709469
 20
1003.188073430409
 42
-0.0025839121
 10
1322.858380709469
 20
1003.590103430408
 42
-0.0025872928
 10
1317.826980709469
 20
1004.045573430408
 42
-0.002580431
 10
1312.800780709469
 20
1004.551963430409
 42
-0.0025640098
 10
1307.780480709469
 20
1005.111233430408
 42
-0.0025832419
 10
1302.761380709469
 20
1005.722673430409
 42
-0.0026339978
 10
1297.745980709469
 20
1006.388333430409
 42
-0.0025575743
 10
1292.773880709469
 20
1007.097563430408
 42
-0.0023965986
 10
1287.868880709469
 20
1007.847733430408
 42
-0.0026229844
 10
1282.928280709469
 20
1008.660463430409
 42
-0.0030631407
 10
1277.916780709469
 20
1009.545323430408
 42
-0.0023513907
 10
1273.232880709469
 20
1010.402833430408
 42
-0.0008910532
 10
1269.016880709469
 20
1011.200413430408
 42
-0.003219095
 10
1263.690880709469
 20
1012.316693430409
 42
-0.0054707354
 10
1255.602880709469
 20
1014.152583430408
 42
-0.0027203444
 10
1245.080080709469
 20
1016.626993430409
 42
-0.0014665739
  0
LWPOLYLINE
  5
889
330
1F
100
AcDbEntity
  8
KONTUR
100
AcDbPolyline
 90
       47
 70
     0
 43
0.0
 10
1482.965380709469
 20
1017.836923430409
 10
1478.498680709469
 20
1016.732943430408
 42
-0.0024429318
 10
1473.984980709469
 20
1015.662693430409
 42
-0.002375872
 10
1469.422280709469
 20
1014.627383430408
 42
-0.0023623396
 10
1464.812680709469
 20
1013.626893430408
 42
-0.0024111002
 10
1460.154380709469
 20
1012.664283430408
 42
-0.0024351812
 10
1455.449780709469
 20
1011.739233430408
 42
-0.0024550781
 10
1450.697280709469
 20
1010.854553430408
 42
-0.0024699171
 10
1445.899280709469
 20
1010.009853430408
 42
-0.002496784
 10
1441.054080709469
 20
1009.208123430408
 42
-0.0025138161
 10
1436.164180709469
 20
1008.448893430409
 42
-0.0025388071
 10
1431.227880709469
 20
1007.735203430409
 42
-0.0025549063
 10
1426.247580709469
 20
1007.066493430408
 42
-0.0025796637
 10
1421.221780709469
 20
1006.445913430408
 42
-0.0025960954
 10
1416.152580709469
 20
1005.872793430408
 42
-0.0026214984
 10
1411.038480709469
 20
1005.350403430408
 42
-0.0026357931
 10
1405.882080709469
 20
1004.877953430409
 42
-0.0026571146
 10
1400.682380709469
 20
1004.458813430409
 42
-0.0026762671
 10
1395.439280709469
 20
1004.092093430409
 42
-0.0027073882
 10
1390.152680709469
 20
1003.781343430408
 42
-0.002704999
 10
1384.843280709469
 20
1003.525983430408
 42
-0.0027119627
 10
1379.530280709469
 20
1003.329863430409
 42
-0.0027238234
 10
1374.216880709469
 20
1003.190723430409
 42
-0.0027167288
 10
1368.902780709469
 20
1003.110773430408
 42
-0.002714289
 10
1363.588080709469
 20
1003.087663430409
 42
-0.0027168909
 10
1358.273580709469
 20
1003.123803430408
 42
-0.0027159157
 10
1352.960280709469
 20
1003.216733430409
 42
-0.0027120184
 10
1347.648780709469
 20
1003.368793430408
 42
-0.002716212
 10
1342.336780709469
 20
1003.577853430409
 42
-0.0027243901
 10
1337.025780709469
 20
1003.846243430408
 42
-0.0027077947
 10
1331.738680709469
 20
1004.169823430409
 42
-0.0026981763
 10
1326.500380709469
 20
1004.548753430408
 42
-0.0027019394
 10
1321.312480709469
 20
1004.979283430408
 42
-0.0026710197
 10
1316.176580709469
 20
1005.461963430409
 42
-0.0026453781
 10
1311.092580709469
 20
1005.992853430409
 42
-0.0026060636
 10
1306.063580709469
 20
1006.572343430409
 42
-0.0026075623
 10
1301.081480709469
 20
1007.198513430408
 42
-0.0026227416
 10
1296.146680709469
 20
1007.872233430408
 42
-0.0025394519
 10
1291.281780709469
 20
1008.584223430409
 42
-0.002362567
 10
1286.497980709469
 20
1009.332683430408
 42
-0.0025566402
 10
1281.695980709469
 20
1010.137993430408
 42
-0.0029694589
 10
1276.844780709469
 20
1011.008383430408
 42
-0.002287833
 10
1272.326680709469
 20
1011.847783430409
 42
-0.0008749132
 10
1268.276280709469
 20
1012.624153430409
 42
-0.0030851878
 10
1263.176280709469
 20
1013.701593430409
 42
-0.005245933
 10
1255.439480709469
 20
1015.465263430408
 42
-0.002611302
 10
1245.379580709469
 20
1017.837453430408
 42
-0.001414038
  0
LWPOLYLINE
  5
8BA
330
1F
100
AcDbEntity
  8
KONTUR
100
AcDbPolyline
 90
       23
 70
     0
 43
0.0
 10
1502.038280709469
 20
1037.923313430409
 10
1501.846480709469
 20
1036.711613430408
 42
-0.011730054
 10
1501.599280709469
 20
1035.512413430408
 42
-0.011787855
 10
1501.294280709469
 20
1034.326113430408
 42
-0.011781105
 10
1500.934280709469
 20
1033.154513430408
 42
-0.011797634
 10
1500.517780709469
 20
1032.001013430408
 42
-0.011826227
 10
1500.047480709469
 20
1030.867113430409
 42
-0.011857087
 10
1499.521580709469
 20
1029.755713430408
 42
-0.011905396
 10
1498.942780709469
 20
1028.667913430409
 42
-0.011996513
 10
1498.309280709469
 20
1027.607013430409
 42
-0.012018989
 10
1497.624380709469
 20
1026.574413430408
 42
-0.012015645
 10
1496.886680709469
 20
1025.573413430408
 42
-0.012196552
 10
1496.096480709469
 20
1024.604113430408
 42
-0.012557382
 10
1495.251680709469
 20
1023.669813430408
 42
-0.01222247
 10
1494.363980709469
 20
1022.775613430409
 42
-0.011491418
 10
1493.437080709469
 20
1021.928613430408
 42
-0.012793674
 10
1492.447780709469
 20
1021.121213430408
 42
-0.015391135
 10
1491.386980709469
 20
1020.354813430409
 42
-0.011651429
 10
1490.366080709469
 20
1019.662813430409
 42
-0.0037368898
 10
1489.422280709469
 20
1019.060613430408
 42
-0.016716583
 10
1488.132680709469
 20
1018.416793430408
 42
-0.029375263
 10
1486.050080709469
 20
1017.597283430408
 42
-0.014192661
 10
1483.264680709469
 20
1016.626993430409
 42
-0.0073659948
  0
LWPOLYLINE
  5
8D3
330
1F
100
AcDbEntity
  8
KONTUR
100
AcDbPolyline
 90
       39
 70
     0
 43
0.0
 10
1500.800080709469
 20
1038.090513430408
 10
1500.655280709469
 20
1037.173013430408
 42
-0.0054938771
 10
1500.506780709469
 20
1036.362313430408
 42
-0.0072388399
 10
1500.355680709469
 20
1035.672113430408
 42
-0.009174075
 10
1500.193180709469
 20
1035.033913430409
 42
-0.0073767651
 10
1500.009480709469
 20
1034.382613430409
 42
-0.0057897368
 10
1499.806080709469
 20
1033.724013430408
 42
-0.0067643082
 10
1499.584880709469
 20
1033.075713430409
 42
-0.0073028853
 10
1499.346380709469
 20
1032.436213430408
 42
-0.0069627512
 10
1499.089480709469
 20
1031.802213430408
 42
-0.006800859
 10
1498.814880709469
 20
1031.174013430409
 42
-0.0069361037
 10
1498.522280709469
 20
1030.553713430409
 42
-0.0070051159
 10
1498.212480709469
 20
1029.941113430409
 42
-0.0069919359
 10
1497.884680709469
 20
1029.336813430409
 42
-0.006997037
 10
1497.539880709469
 20
1028.740913430408
 42
-0.0070371932
 10
1497.177380709469
 20
1028.154313430408
 42
-0.0070662258
 10
1496.797980709469
 20
1027.577113430408
 42
-0.0070965759
 10
1496.401180709469
 20
1027.010013430408
 42
-0.0071225802
 10
1495.987680709469
 20
1026.453213430409
 42
-0.0071605712
 10
1495.556880709469
 20
1025.907513430408
 42
-0.0071897686
 10
1495.109680709469
 20
1025.372813430409
 42
-0.0072288901
 10
1494.645480709469
 20
1024.850213430409
 42
-0.0072578334
 10
1494.164980709469
 20
1024.339513430409
 42
-0.0072970722
 10
1493.667680709469
 20
1023.841713430409
 42
-0.007308442
 10
1493.154280709469
 20
1023.356613430408
 42
-0.0073097008
 10
1492.624280709469
 20
1022.885113430408
 42
-0.0072839686
 10
1492.079280709469
 20
1022.427413430408
 42
-0.0072695583
 10
1491.519180709469
 20
1021.985013430408
 42
-0.0073809243
 10
1490.943880709469
 20
1021.557613430408
 42
-0.0076142109
 10
1490.352980709469
 20
1021.146513430409
 42
-0.0074251977
 10
1489.752180709469
 20
1020.753213430408
 42
-0.006957089
 10
1489.142880709469
 20
1020.379613430408
 42
-0.0078678789
 10
1488.507080709469
 20
1020.019613430408
 42
-0.0095809641
 10
1487.836280709469
 20
1019.671213430408
 42
-0.0071489922
 10
1487.194080709469
 20
1019.352513430409
 42
-0.0022380788
 10
1486.603080709469
 20
1019.071513430409
 42
-0.010104756
 10
1485.820880709469
 20
1018.758713430409
 42
-0.017889377
 10
1484.591080709469
 20
1018.342643430408
 42
-0.0087904097
 10
1482.965380709469
 20
1017.836923430409
 42
-0.0045900562
  0
LWPOLYLINE
  5
8FC
330
1F
100
AcDbEntity
  8
KONTUR
100
AcDbPolyline
 90
       23
 70
     0
 43
0.0
 10
1514.003380709469
 20
1179.551913430408
 10
1513.618180709469
 20
1144.751713430408
 42
-0.000617432
 10
1513.221880709469
 20
1139.959913430409
 42
-0.0006225123
 10
1512.813980709469
 20
1135.176613430408
 42
-0.0006214106
 10
1512.395080709469
 20
1130.402113430408
 42
-0.000613417
 10
1511.965080709469
 20
1125.637513430408
 42
-0.0006082002
 10
1511.524580709469
 20
1120.882913430408
 42
-0.0006036581
 10
1511.073180709469
 20
1116.139413430409
 42
-0.0006002768
 10
1510.611580709469
 20
1111.406613430408
 42
-0.0005961876
 10
1510.139580709469
 20
1106.685413430409
 42
-0.0005915498
 10
1509.657780709469
 20
1101.977513430409
 42
-0.0005849748
 10
1509.166180709469
 20
1097.284813430409
 42
-0.0005841868
 10
1508.664780709469
 20
1092.602313430408
 42
-0.0005856093
 10
1508.153380709469
 20
1087.930613430408
 42
-0.0005633309
 10
1507.635780709469
 20
1083.294213430408
 42
-0.0005202262
 10
1507.113080709469
 20
1078.702713430408
 42
-0.000558757
 10
1506.573180709469
 20
1074.058313430408
 42
-0.0006437343
 10
1506.011580709469
 20
1069.328713430409
 42
-0.0004924563
 10
1505.479680709469
 20
1064.899013430409
 42
-0.0001924024
 10
1504.994880709469
 20
1060.903713430409
 42
-0.000657635
 10
1504.357680709469
 20
1055.820613430409
 42
-0.0010924173
 10
1503.358180709469
 20
1048.055013430409
 42
-0.0005389927
 10
1502.038280709469
 20
1037.923313430409
 42
-0.0002297236160376
  0
LWPOLYLINE
  5
915
330
1F
100
AcDbEntity
  8
KONTUR
100
AcDbPolyline
 90
       23
 70
     0
 43
0.0
 10
1512.757080709469
 20
1179.648213430408
 10
1512.371980709469
 20
1144.851713430408
 42
-0.0006219669
 10
1511.975880709469
 20
1140.065113430408
 42
-0.0006285459
 10
1511.568180709469
 20
1135.288913430408
 42
-0.0006268728
 10
1511.149580709469
 20
1130.522913430409
 42
-0.0006158326
 10
1510.719880709469
 20
1125.768213430409
 42
-0.0006083742
 10
1510.279880709469
 20
1121.024713430409
 42
-0.0006017278
 10
1509.829280709469
 20
1116.293313430408
 42
-0.0005964237
 10
1509.368680709469
 20
1111.573613430408
 42
-0.0005900084
 10
1508.897780709469
 20
1106.866213430408
 42
-0.000582912
 10
1508.417480709469
 20
1102.172713430409
 42
-0.000573045
 10
1507.927780709469
 20
1097.494513430408
 42
-0.0005718118
 10
1507.428180709469
 20
1092.825313430408
 42
-0.0005751251
 10
1506.918480709469
 20
1088.163713430409
 42
-0.0005553339
 10
1506.402380709469
 20
1083.534313430408
 42
-0.0005167474
 10
1505.880980709469
 20
1078.946813430408
 42
-0.000558739
 10
1505.341880709469
 20
1074.303113430408
 42
-0.0006467851
 10
1504.780680709469
 20
1069.570413430408
 42
-0.000499317
 10
1504.248380709469
 20
1065.134713430408
 42
-0.0002087966
 10
1503.762580709469
 20
1061.130113430409
 42
-0.0006707824
 10
1503.123780709469
 20
1056.033313430409
 42
-0.0010796871
 10
1502.122280709469
 20
1048.247913430409
 42
-0.0005307176
 10
1500.800080709469
 20
1038.090513430408
 42
-0.0002275930220996
  0
LWPOLYLINE
  5
92F
330
1F
100
AcDbEntity
  8
KONTUR
100
AcDbPolyline
 90
       31
 70
     0
 43
0.0
 10
1512.009480709469
 20
1181.709313430409
 10
1512.034480709469
 20
1181.709513430409
 42
-0.015620268
 10
1512.070580709469
 20
1181.708613430409
 42
-0.0053547748
 10
1512.118380709469
 20
1181.706513430408
 42
-0.004816993
 10
1512.176480709469
 20
1181.702513430409
 42
-0.0078824997
 10
1512.244080709469
 20
1181.695413430408
 42
-0.008850048
 10
1512.319880709469
 20
1181.684713430408
 42
-0.009567079
 10
1512.403280709469
 20
1181.669513430409
 42
-0.010107479
 10
1512.493180709469
 20
1181.649113430408
 42
-0.011231491
 10
1512.588780709469
 20
1181.622713430409
 42
-0.011901982
 10
1512.688880709469
 20
1181.589613430408
 42
-0.012906604
 10
1512.792880709469
 20
1181.548913430408
 42
-0.013694055
 10
1512.899680709469
 20
1181.499913430408
 42
-0.01482365
 10
1513.008780709469
 20
1181.441613430409
 42
-0.015349785
 10
1513.118080709469
 20
1181.373913430408
 42
-0.016358001
 10
1513.225580709469
 20
1181.296913430408
 42
-0.016394937
 10
1513.328780709469
 20
1181.212513430408
 42
-0.016334515
 10
1513.425180709469
 20
1181.122113430408
 42
-0.016660435
 10
1513.514880709469
 20
1181.026113430409
 42
-0.016363305
 10
1513.597980709469
 20
1180.924513430409
 42
-0.016262319
 10
1513.674380709469
 20
1180.817713430408
 42
-0.01652217
 10
1513.743480709469
 20
1180.705813430408
 42
-0.016324242
 10
1513.805280709469
 20
1180.590013430408
 42
-0.015757863
 10
1513.859280709469
 20
1180.470513430409
 42
-0.01660145
 10
1513.905580709469
 20
1180.345813430409
 42
-0.018228079
 10
1513.943480709469
 20
1180.215913430408
 42
-0.015694004
 10
1513.972580709469
 20
1180.091513430408
 42
-0.012176283
 10
1513.992180709469
 20
1179.980113430408
 42
-0.017130142
 10
1514.003480709469
 20
1179.862713430408
 42
-0.020293123
 10
1514.007180709469
 20
1179.718713430409
 42
-0.014000892
 10
1514.003380709469
 20
1179.551913430408
 42
-0.011004332
  0
LWPOLYLINE
  5
950
330
1F
100
AcDbEntity
  8
KONTUR
100
AcDbPolyline
 90
       63
 70
     0
 43
0.0
 10
1512.010980709469
 20
1180.459313430409
 10
1512.016880709469
 20
1180.459613430408
 42
-0.019010136
 10
1512.025880709469
 20
1180.459713430409
 42
-0.0057905512
 10
1512.038380709469
 20
1180.459713430409
 42
-0.0047550903
 10
1512.053880709469
 20
1180.459213430408
 42
-0.0073613106
 10
1512.072280709469
 20
1180.458113430409
 42
-0.0079813869
 10
1512.093380709469
 20
1180.456213430408
 42
-0.008409798
 10
1512.116880709469
 20
1180.453113430408
 42
-0.008672995
 10
1512.142680709469
 20
1180.448913430409
 42
-0.0094424533
 10
1512.170480709469
 20
1180.443213430408
 42
-0.0098303474
 10
1512.200180709469
 20
1180.435813430408
 42
-0.010505418
 10
1512.231480709469
 20
1180.426613430408
 42
-0.010922164
 10
1512.264280709469
 20
1180.415313430408
 42
-0.011635921
 10
1512.298280709469
 20
1180.401713430409
 42
-0.011981549
 10
1512.333280709469
 20
1180.385813430409
 42
-0.012562991
 10
1512.369080709469
 20
1180.367113430409
 42
-0.013004852
 10
1512.405680709469
 20
1180.345613430408
 42
-0.013536798
 10
1512.442880709469
 20
1180.320713430408
 42
-0.013652166
 10
1512.479580709469
 20
1180.293113430409
 42
-0.014865819
 10
1512.514880709469
 20
1180.263013430409
 42
-0.015502592
 10
1512.547980709469
 20
1180.231013430408
 42
-0.01545377
 10
1512.578480709469
 20
1180.197513430408
 42
-0.015516699
 10
1512.606680709469
 20
1180.162713430409
 42
-0.014990527
 10
1512.632380709469
 20
1180.126513430409
 42
-0.01449149
 10
1512.655780709469
 20
1180.089413430409
 42
-0.014001866
 10
1512.676780709469
 20
1180.051513430408
 42
-0.014096527
 10
1512.695380709469
 20
1180.012713430408
 42
-0.014437506
 10
1512.711780709469
 20
1179.973113430408
 42
-0.013320623
 10
1512.725780709469
 20
1179.933813430408
 42
-0.011296964
 10
1512.737380709469
 20
1179.895413430409
 42
-0.01425535
 10
1512.746880709469
 20
1179.854313430409
 42
-0.018188451
 10
1512.754280709469
 20
1179.809313430409
 42
-0.011325826
 10
1512.758880709469
 20
1179.775413430408
 42
-0.004605354
 10
1512.759980709469
 20
1179.766013430408
 42
-0.014202812
 10
1512.759580709469
 20
1179.767613430409
 42
-0.01906108
 10
1512.759680709469
 20
1179.765013430409
 42
0.053908922
 10
1512.760180709469
 20
1179.759713430408
 42
-0.0004998726
 10
1512.760480709469
 20
1179.755513430408
 42
-0.0060219271
 10
1512.760680709469
 20
1179.751913430408
 42
-0.0021042712
 10
1512.760880709469
 20
1179.748113430408
 42
0.0001447733
 10
1512.761080709469
 20
1179.744113430409
 42
-0.0014245073
 10
1512.761280709469
 20
1179.740113430409
 42
-0.002042594
 10
1512.761380709469
 20
1179.736213430408
 42
-0.0016235623
 10
1512.761480709469
 20
1179.732313430408
 42
-0.0014570056
 10
1512.761580709469
 20
1179.728413430409
 42
-0.0015999118
 10
1512.761680709469
 20
1179.724413430409
 42
-0.0016633037
 10
1512.761780709469
 20
1179.720513430409
 42
-0.0016405284
 10
1512.761780709469
 20
1179.716613430408
 42
-0.0016421813
 10
1512.761780709469
 20
1179.712713430409
 42
-0.0016740387
 10
1512.761680709469
 20
1179.708713430408
 42
-0.001683897
 10
1512.761680709469
 20
1179.704813430408
 42
-0.001675414
 10
1512.761580709469
 20
1179.700913430408
 42
-0.0017200052
 10
1512.761480709469
 20
1179.697013430408
 42
-0.0018182286
 10
1512.761280709469
 20
1179.693013430408
 42
-0.0017245261
 10
1512.761180709469
 20
1179.689113430408
 42
-0.0014568979
 10
1512.760980709469
 20
1179.685213430409
 42
-0.0018695334
 10
1512.760680709469
 20
1179.681313430408
 42
-0.0028573066
 10
1512.760380709469
 20
1179.677213430409
 42
-0.0015323858
 10
1512.760180709469
 20
1179.673513430409
 42
0.0021712864
 10
1512.759980709469
 20
1179.670213430408
 42
-0.003321077
 10
1512.759480709469
 20
1179.665613430408
 42
-0.011283123
 10
1512.758480709469
 20
1179.658213430409
 42
-0.0050631152
 10
1512.757080709469
 20
1179.648213430408
 42
-0.0022716819
  0
LWPOLYLINE
  5
991
330
1F
100
AcDbEntity
  8
KONTUR
100
AcDbPolyline
 90
       43
 70
     0
 43
0.0
 10
1511.775380709469
 20
1180.460113430408
 10
1511.804580709469
 20
1180.459213430408
 42
-0.012377038
 10
1511.833780709469
 20
1180.456813430409
 42
-0.012690426
 10
1511.862680709469
 20
1180.452913430408
 42
-0.012430065
 10
1511.891480709469
 20
1180.447613430409
 42
-0.011640471
 10
1511.919980709469
 20
1180.441013430408
 42
-0.010963581
 10
1511.948280709469
 20
1180.433313430408
 42
-0.010191204
 10
1511.976180709469
 20
1180.424313430408
 42
-0.0096569314
 10
1512.003880709469
 20
1180.414313430409
 42
-0.0092492492
 10
1512.031080709469
 20
1180.403313430409
 42
-0.0091046796
 10
1512.057980709469
 20
1180.391313430408
 42
-0.009185491
 10
1512.084380709469
 20
1180.378313430409
 42
-0.009233049
 10
1512.110380709469
 20
1180.364313430408
 42
-0.0092649472
 10
1512.135780709469
 20
1180.349313430409
 42
-0.0093196429
 10
1512.160580709469
 20
1180.333413430408
 42
-0.009411604
 10
1512.184780709469
 20
1180.316613430408
 42
-0.0094521532
 10
1512.208280709469
 20
1180.298913430408
 42
-0.0094534774
 10
1512.231180709469
 20
1180.280213430408
 42
-0.0094691669
 10
1512.253280709469
 20
1180.260813430409
 42
-0.009501559
 10
1512.274580709469
 20
1180.240513430409
 42
-0.009549395
 10
1512.295180709469
 20
1180.219413430409
 42
-0.009620933
 10
1512.314780709469
 20
1180.197613430408
 42
-0.0097020853
 10
1512.333580709469
 20
1180.175013430408
 42
-0.0098079632
 10
1512.351480709469
 20
1180.151713430409
 42
-0.0099205492
 10
1512.368380709469
 20
1180.127713430409
 42
-0.010061934
 10
1512.384280709469
 20
1180.103113430408
 42
-0.010071146
 10
1512.399180709469
 20
1180.077913430408
 42
-0.0099371821
 10
1512.413080709469
 20
1180.052113430409
 42
-0.009826094
 10
1512.425980709469
 20
1180.025713430408
 42
-0.0097099001
 10
1512.437780709469
 20
1179.998813430409
 42
-0.0095728979
 10
1512.448680709469
 20
1179.971513430408
 42
-0.0093994046
 10
1512.458480709469
 20
1179.943713430408
 42
-0.009375656
 10
1512.467180709469
 20
1179.915613430408
 42
-0.0094614874
 10
1512.474980709469
 20
1179.887013430408
 42
-0.0091609393
 10
1512.481680709469
 20
1179.858213430408
 42
-0.008597762
 10
1512.487280709469
 20
1179.829313430409
 42
-0.0097112527
 10
1512.491680709469
 20
1179.799813430408
 42
-0.012027762
 10
1512.494880709469
 20
1179.769513430409
 42
-0.0091740422
 10
1512.497180709469
 20
1179.740913430408
 42
-0.0027272852
 10
1512.498680709469
 20
1179.715013430408
 42
-0.01371704
 10
1512.497680709469
 20
1179.681913430408
 42
-0.025223485
 10
1512.492180709469
 20
1179.631513430409
 42
-0.012521602
 10
1512.482780709469
 20
1179.565813430409
 42
-0.006549478
  0
LWPOLYLINE
  5
9BE
330
1F
100
AcDbEntity
  8
KONTUR
100
AcDbPolyline
 90
       15
 70
     0
 43
0.0
 10
1512.482780709469
 20
1179.565813430409
 10
1511.971280709469
 20
1146.945513430408
 42
-0.000200236
 10
1511.457780709469
 20
1144.326113430408
 42
-0.0001986118
 10
1510.942380709469
 20
1141.708313430408
 42
-0.0002002942
 10
1510.424380709469
 20
1139.088313430409
 42
-0.0002046016
 10
1509.903380709469
 20
1136.464813430408
 42
-0.0001989071
 10
1509.382580709469
 20
1133.852313430408
 42
-0.0001857752
 10
1508.862880709469
 20
1131.255813430409
 42
-0.0002051759
 10
1508.332380709469
 20
1128.618113430408
 42
-0.0002447829
 10
1507.786980709469
 20
1125.919213430408
 42
-0.0001858269
 10
1507.273780709469
 20
1123.385713430408
 42
-0.000063649
 10
1506.808680709469
 20
1121.095413430408
 42
-0.0002624132
 10
1506.206680709469
 20
1118.155013430408
 42
-0.0004519697
 10
1505.273280709469
 20
1113.627513430408
 42
-0.0006464649012184
 10
1501.672380709469
 20
1096.290653207045
 42
-0.0000691200200435
  0
LWPOLYLINE
  5
9F1
330
1F
100
AcDbEntity
  8
KONTUR
100
AcDbPolyline
 90
       31
 70
     0
 43
0.0
 10
1499.672380709469
 20
1090.940313430408
 10
1499.378080709469
 20
1090.373513430408
 42
-0.0063721929
 10
1499.069680709469
 20
1089.814413430408
 42
-0.0063707151
 10
1498.746680709469
 20
1089.263413430408
 42
-0.0063726931
 10
1498.409780709469
 20
1088.720313430409
 42
-0.0063920796
 10
1498.058480709469
 20
1088.185913430409
 42
-0.006406893
 10
1497.693480709469
 20
1087.660313430408
 42
-0.006421918
 10
1497.314480709469
 20
1087.143913430409
 42
-0.0064320409
 10
1496.921980709469
 20
1086.636613430408
 42
-0.0064387542
 10
1496.515480709469
 20
1086.139013430408
 42
-0.0064696588
 10
1496.096080709469
 20
1085.651813430408
 42
-0.0065682959
 10
1495.663980709469
 20
1085.176413430409
 42
-0.0066264662
 10
1495.219980709469
 20
1084.712913430408
 42
-0.006631499
 10
1494.763680709469
 20
1084.261713430409
 42
-0.006629521
 10
1494.295580709469
 20
1083.822513430408
 42
-0.006610152
 10
1493.815280709469
 20
1083.395713430409
 42
-0.0065917113
 10
1493.323780709469
 20
1082.981213430408
 42
-0.0065907926
 10
1492.821080709469
 20
1082.580013430409
 42
-0.0065805863
 10
1492.308980709469
 20
1082.192613430409
 42
-0.006582451
 10
1491.788080709469
 20
1081.820313430409
 42
-0.0066829817
 10
1491.257880709469
 20
1081.462413430409
 42
-0.0068306766
 10
1490.717980709469
 20
1081.119313430409
 42
-0.006651556
 10
1490.172280709469
 20
1080.791713430408
 42
-0.0062299424
 10
1489.621780709469
 20
1080.480613430409
 42
-0.0068979232
 10
1489.053680709469
 20
1080.181713430409
 42
-0.0082519591
 10
1488.463080709469
 20
1079.894313430409
 42
-0.0062667911
 10
1487.903880709469
 20
1079.633513430409
 42
-0.0021236744
 10
1487.394480709469
 20
1079.405213430408
 42
-0.0088764413
 10
1486.724580709469
 20
1079.148313430409
 42
-0.015333025
 10
1485.672980709469
 20
1078.799713430408
 42
-0.007466506
 10
1484.283980709469
 20
1078.371413430409
 42
-0.0039353374
  0
LWPOLYLINE
  5
A12
330
1F
100
AcDbEntity
  8
KONTUR
100
AcDbPolyline
 90
       47
 70
     0
 43
0.0
 10
1484.283980709469
 20
1078.371413430409
 10
1479.377380709469
 20
1077.129613430408
 42
-0.002623924
 10
1474.460880709469
 20
1075.939313430409
 42
-0.00263105
 10
1469.533880709469
 20
1074.802613430409
 42
-0.0026291549
 10
1464.597180709469
 20
1073.717313430408
 42
-0.0026175027
 10
1459.650780709469
 20
1072.685313430409
 42
-0.00261398
 10
1454.695380709469
 20
1071.704713430408
 42
-0.0026171626
 10
1449.730980709469
 20
1070.777513430408
 42
-0.0026185354
 10
1444.758280709469
 20
1069.901813430408
 42
-0.0026179889
 10
1439.777480709469
 20
1069.079713430408
 42
-0.0026180837
 10
1434.789080709469
 20
1068.309113430408
 42
-0.0026185286
 10
1429.793280709469
 20
1067.592313430408
 42
-0.0026189143
 10
1424.790680709469
 20
1066.927013430408
 42
-0.0026191521
 10
1419.781280709469
 20
1066.315613430409
 42
-0.0026194304
 10
1414.765880709469
 20
1065.755913430408
 42
-0.0026197647
 10
1409.744580709469
 20
1065.250113430408
 42
-0.0026200363
 10
1404.717880709469
 20
1064.796113430408
 42
-0.0026203904
 10
1399.685980709469
 20
1064.396113430409
 42
-0.0026206261
 10
1394.649480709469
 20
1064.048113430409
 42
-0.002621012
 10
1389.608580709469
 20
1063.754113430408
 42
-0.0026212241
 10
1384.563780709469
 20
1063.512213430409
 42
-0.0026216534
 10
1379.515280709469
 20
1063.324513430408
 42
-0.00262181
 10
1374.463580709469
 20
1063.188913430409
 42
-0.0026222199
 10
1369.409080709469
 20
1063.107713430408
 42
-0.0026224074
 10
1364.352080709469
 20
1063.078613430408
 42
-0.0026229751
 10
1359.292880709469
 20
1063.104013430408
 42
-0.0026229122
 10
1354.231980709469
 20
1063.181713430409
 42
-0.0026231504
 10
1349.169880709469
 20
1063.313913430409
 42
-0.0026236219
 10
1344.106480709469
 20
1063.498613430409
 42
-0.0026245097
 10
1339.042180709469
 20
1063.737913430409
 42
-0.0026240896
 10
1333.979880709469
 20
1064.029513430408
 42
-0.0026277142
 10
1328.922880709469
 20
1064.375713430408
 42
-0.0026334944
 10
1323.871280709469
 20
1064.774313430409
 42
-0.002637859
 10
1318.825380709469
 20
1065.227313430408
 42
-0.0026313796
 10
1313.787080709469
 20
1065.732213430409
 42
-0.0026150742
 10
1308.757380709469
 20
1066.290913430409
 42
-0.0026373598
 10
1303.729280709469
 20
1066.903013430408
 42
-0.002690016
 10
1298.700980709469
 20
1067.571013430409
 42
-0.0026128557
 10
1293.699780709469
 20
1068.286113430408
 42
-0.0024384203
 10
1288.735580709469
 20
1069.047913430408
 42
-0.0026902987
 10
1283.700380709469
 20
1069.881113430408
 42
-0.003206727
 10
1278.557380709469
 20
1070.797013430408
 42
-0.0024306431
 10
1273.733080709469
 20
1071.687613430408
 42
-0.0008235051
 10
1269.374680709469
 20
1072.518813430408
 42
-0.0034273649
 10
1263.799580709469
 20
1073.705213430409
 42
-0.0059232039
 10
1255.243380709469
 20
1075.686213430409
 42
-0.0028959246
 10
1244.056380709469
 20
1078.372913430409
 42
-0.0015318897
  0
LWPOLYLINE
  5
A43
330
1F
100
AcDbEntity
  8
KONTUR
100
AcDbPolyline
 90
       39
 70
     0
 43
0.0
 10
1244.056380709469
 20
1078.372913430409
 10
1243.560880709469
 20
1078.506613430408
 42
-0.0054916573
 10
1243.068880709469
 20
1078.650913430408
 42
-0.0055096443
 10
1242.580380709469
 20
1078.806313430408
 42
-0.0055074496
 10
1242.095580709469
 20
1078.972113430409
 42
-0.0054905681
 10
1241.614780709469
 20
1079.148813430409
 42
-0.0054810036
 10
1241.137780709469
 20
1079.335813430409
 42
-0.0054726587
 10
1240.665080709469
 20
1079.533513430409
 42
-0.0054629149
 10
1240.196680709469
 20
1079.741313430408
 42
-0.0054543639
 10
1239.733180709469
 20
1079.959513430409
 42
-0.0054433801
 10
1239.274780709469
 20
1080.187413430408
 42
-0.0054357332
 10
1238.822280709469
 20
1080.425113430409
 42
-0.0054363079
 10
1238.375480709469
 20
1080.672213430409
 42
-0.0054218223
 10
1237.934580709469
 20
1080.928913430409
 42
-0.005407852
 10
1237.499280709469
 20
1081.194913430409
 42
-0.005392388
 10
1237.070080709469
 20
1081.470413430408
 42
-0.0053756751
 10
1236.646680709469
 20
1081.755013430409
 42
-0.0053529454
 10
1236.229280709469
 20
1082.049013430409
 42
-0.005330063
 10
1235.817780709469
 20
1082.352013430409
 42
-0.005301852
 10
1235.412380709469
 20
1082.664313430409
 42
-0.0052750436
 10
1235.013080709469
 20
1082.985213430409
 42
-0.0052548732
 10
1234.620380709469
 20
1083.315013430408
 42
-0.005248304
 10
1234.234880709469
 20
1083.652713430408
 42
-0.0052719043
 10
1233.857280709469
 20
1083.998113430408
 42
-0.0052911506
 10
1233.487480709469
 20
1084.350913430408
 42
-0.0052785759
 10
1233.125580709469
 20
1084.711413430408
 42
-0.0052507557
 10
1232.771480709469
 20
1085.079013430408
 42
-0.005210439
 10
1232.425580709469
 20
1085.453813430408
 42
-0.0052441647
 10
1232.087180709469
 20
1085.836113430408
 42
-0.0053315176
 10
1231.756580709469
 20
1086.226313430408
 42
-0.0051655759
 10
1231.434880709469
 20
1086.621513430408
 42
-0.004808035
 10
1231.122780709469
 20
1087.021113430409
 42
-0.0052851788
 10
1230.814880709469
 20
1087.434613430408
 42
-0.0062770654
 10
1230.509680709469
 20
1087.865613430409
 42
-0.0047402999
 10
1230.227680709469
 20
1088.274413430408
 42
-0.0015781113
 10
1229.976580709469
 20
1088.647513430408
 42
-0.0066537952
 10
1229.673680709469
 20
1089.140213430408
 42
-0.011556946
 10
1229.233380709469
 20
1089.915813430408
 42
-0.005646169
 10
1228.672380709469
 20
1090.941613430408
 42
-0.0029756586
  0
LWPOLYLINE
  5
A7D
330
1F
100
AcDbEntity
  8
KONTUR
100
AcDbPolyline
 90
       43
 70
     0
 43
0.0
 10
1215.862680709469
 20
1179.564313430409
 10
1215.855680709469
 20
1179.593713430409
 42
-0.014442974
 10
1215.850580709469
 20
1179.622913430409
 42
-0.016077587
 10
1215.847480709469
 20
1179.651913430409
 42
-0.015530674
 10
1215.845880709469
 20
1179.680813430409
 42
-0.011952189
 10
1215.845680709469
 20
1179.709813430408
 42
-0.010366622
 10
1215.846680709469
 20
1179.738913430409
 42
-0.01074317
 10
1215.848880709469
 20
1179.768013430409
 42
-0.010486253
 10
1215.852280709469
 20
1179.796913430408
 42
-0.0094836304
 10
1215.856780709469
 20
1179.825713430409
 42
-0.0090470852
 10
1215.862280709469
 20
1179.854413430408
 42
-0.0090827144
 10
1215.868880709469
 20
1179.882913430408
 42
-0.0091049087
 10
1215.876480709469
 20
1179.911213430408
 42
-0.0091215737
 10
1215.885180709469
 20
1179.939213430408
 42
-0.0091625507
 10
1215.894880709469
 20
1179.966813430408
 42
-0.0092411652
 10
1215.905580709469
 20
1179.994113430409
 42
-0.0092996388
 10
1215.917280709469
 20
1180.020913430408
 42
-0.0093537464
 10
1215.929980709469
 20
1180.047313430408
 42
-0.0093790103
 10
1215.943780709469
 20
1180.073113430408
 42
-0.0093824494
 10
1215.958380709469
 20
1180.098513430409
 42
-0.0094102743
 10
1215.973980709469
 20
1180.123213430409
 42
-0.009466613
 10
1215.990580709469
 20
1180.147313430408
 42
-0.0095295858
 10
1216.007980709469
 20
1180.170713430408
 42
-0.009610447
 10
1216.026380709469
 20
1180.193413430409
 42
-0.0097123631
 10
1216.045480709469
 20
1180.215413430408
 42
-0.0098564053
 10
1216.065580709469
 20
1180.236613430408
 42
-0.0099409818
 10
1216.086380709469
 20
1180.256913430409
 42
-0.0099778162
 10
1216.108080709469
 20
1180.276413430408
 42
-0.0099377561
 10
1216.130480709469
 20
1180.295013430409
 42
-0.0098011747
 10
1216.153580709469
 20
1180.312713430408
 42
-0.0096607378
 10
1216.177380709469
 20
1180.329613430409
 42
-0.0094977878
 10
1216.201880709469
 20
1180.345513430409
 42
-0.009480261
 10
1216.226980709469
 20
1180.360513430408
 42
-0.009567109
 10
1216.252680709469
 20
1180.374613430409
 42
-0.0092133391
 10
1216.278880709469
 20
1180.387813430408
 42
-0.0085167851
 10
1216.305480709469
 20
1180.399913430409
 42
-0.0094974058
 10
1216.332880709469
 20
1180.411213430408
 42
-0.011673691
 10
1216.361380709469
 20
1180.421413430408
 42
-0.0088881648
 10
1216.388480709469
 20
1180.430313430409
 42
-0.0026967049
 10
1216.413180709469
 20
1180.438013430408
 42
-0.013155971
 10
1216.445380709469
 20
1180.445013430408
 42
-0.024015249
 10
1216.495380709469
 20
1180.452113430409
 42
-0.011911876
 10
1216.561080709469
 20
1180.459313430409
 42
-0.0062390334
  0
LWPOLYLINE
  5
ABB
330
1F
100
AcDbEntity
  8
KONTUR
100
AcDbPolyline
 90
       15
 70
     0
 43
0.0
 10
1226.672380709469
 20
1096.270589051842
 10
1223.754480709469
 20
1110.312613430408
 42
-0.000201597
 10
1223.213580709469
 20
1112.926113430408
 42
-0.000200027
 10
1222.675080709469
 20
1115.539013430408
 42
-0.0002016451
 10
1222.138080709469
 20
1118.155013430408
 42
-0.0002057486
 10
1221.602480709469
 20
1120.775413430409
 42
-0.0001998883
 10
1221.070980709469
 20
1123.385613430408
 42
-0.0001866083
 10
1220.544780709469
 20
1125.980613430409
 42
-0.0002058946
 10
1220.012480709469
 20
1128.617913430408
 42
-0.0002453361
 10
1219.470180709469
 20
1131.317313430408
 42
-0.0001862337
 10
1218.962280709469
 20
1133.851913430408
 42
-0.0000640234
 10
1218.504180709469
 20
1136.143513430408
 42
-0.0002625297
 10
1217.920680709469
 20
1139.087613430409
 42
-0.0004515481
 10
1217.027980709469
 20
1143.623513430408
 42
-0.00003716907954
 10
1215.862680709469
 20
1179.564313430409
 42
-0.0000690597196819
  0
LWPOLYLINE
  5
ACC
330
1F
100
AcDbEntity
  8
KONTUR
100
AcDbPolyline
 90
       23
 70
     0
 43
0.0
 10
1227.547280709469
 20
1038.087213430409
 10
1226.958280709469
 20
1042.530813430408
 42
-0.0004913664
 10
1226.375280709469
 20
1046.995313430408
 42
-0.000481722
 10
1225.798380709469
 20
1051.481613430408
 42
-0.0004824521
 10
1225.227680709469
 20
1055.988513430409
 42
-0.000495249
 10
1224.663780709469
 20
1060.516113430408
 42
-0.00050334
 10
1224.106780709469
 20
1065.062813430408
 42
-0.0005102764
 10
1223.557080709469
 20
1069.629113430408
 42
-0.0005172249
 10
1223.014680709469
 20
1074.214013430409
 42
-0.0005271663
 10
1222.480180709469
 20
1078.817913430409
 42
-0.000532833
 10
1221.953780709469
 20
1083.437813430408
 42
-0.0005377824
 10
1221.435980709469
 20
1088.073313430409
 42
-0.0005503074
 10
1220.926280709469
 20
1092.730113430408
 42
-0.0005718043
 10
1220.425080709469
 20
1097.410413430408
 42
-0.0005614714
 10
1219.934380709469
 20
1102.086613430408
 42
-0.0005298938
 10
1219.455780709469
 20
1106.749613430409
 42
-0.0005970634
 10
1218.980480709469
 20
1111.503313430409
 42
-0.000728683
 10
1218.506280709469
 20
1116.384113430408
 42
-0.0005542041
 10
1218.066780709469
 20
1120.975913430409
 42
-0.0001851974
 10
1217.674380709469
 20
1125.135413430408
 42
-0.0008083119
 10
1217.195480709469
 20
1130.499213430408
 42
-0.001394858
 10
1216.490780709469
 20
1138.784813430409
 42
-0.0001812287549399
 10
1215.587480709469
 20
1179.650313430408
 42
-0.0002829590248025
  0
LWPOLYLINE
  5
B06
330
1F
100
AcDbEntity
  8
KONTUR
100
AcDbPolyline
 90
       31
 70
     0
 43
0.0
 10
1512.757080709469
 20
1179.648213430408
 10
1512.757080709469
 20
1179.648613430408
 42
0.22928557
 10
1512.756580709469
 20
1179.648913430408
 42
0.20678714
 10
1512.755780709469
 20
1179.648913430408
 42
0.066896245
 10
1512.754480709469
 20
1179.648713430408
 42
0.026618238
 10
1512.752880709469
 20
1179.648313430409
 42
0.01291437
 10
1512.750880709469
 20
1179.647713430408
 42
0.007093411
 10
1512.748580709469
 20
1179.647013430409
 42
0.003928728
 10
1512.745880709469
 20
1179.646213430408
 42
0.0018005457
 10
1512.742780709469
 20
1179.645213430409
 42
0.0006669227
 10
1512.739580709469
 20
1179.644213430408
 42
-0.0000078469
 10
1512.736380709469
 20
1179.643213430408
 42
-0.0002825402
 10
1512.733080709469
 20
1179.642213430408
 42
-0.0002594578
 10
1512.729680709469
 20
1179.641113430408
 42
-0.00025825
 10
1512.725980709469
 20
1179.639913430408
 42
-0.0002857518
 10
1512.721880709469
 20
1179.638613430408
 42
-0.0002708423
 10
1512.717380709469
 20
1179.637213430408
 42
-0.00023941
 10
1512.712180709469
 20
1179.635613430408
 42
-0.0001982356
 10
1512.706380709469
 20
1179.633813430408
 42
-0.0001622001
 10
1512.699780709469
 20
1179.631813430408
 42
-0.00013717
 10
1512.692180709469
 20
1179.629413430408
 42
-0.000123044
 10
1512.683580709469
 20
1179.626813430409
 42
-0.000082352
 10
1512.674080709469
 20
1179.623813430409
 42
-0.0000314934
 10
1512.663380709469
 20
1179.620613430408
 42
-0.0000686672
 10
1512.651080709469
 20
1179.616813430408
 42
-0.0001514612
 10
1512.636680709469
 20
1179.612313430408
 42
0.003570533
 10
1512.623280709469
 20
1179.607613430408
 42
0.014975559
 10
1512.611880709469
 20
1179.602813430408
 42
0.0009097379
 10
1512.590480709469
 20
1179.595413430408
 42
-0.021388292
 10
1512.546580709469
 20
1179.582913430409
 42
-0.0069152678
 10
1512.482780709469
 20
1179.565813430409
 42
-0.002191105
  0
LWPOLYLINE
  5
B27
330
1F
100
AcDbEntity
  8
KONTUR
100
AcDbPolyline
 90
       39
 70
     0
 43
0.0
 10
1245.379580709469
 20
1017.837453430408
 10
1245.133180709469
 20
1017.895683430409
 42
-0.022464114
 10
1244.704180709469
 20
1018.018913430409
 42
-0.0061063897
 10
1244.069880709469
 20
1018.213063430409
 42
-0.0040392703
 10
1243.341580709469
 20
1018.453313430408
 42
-0.0072160572
 10
1242.626480709469
 20
1018.717513430408
 42
-0.0092016096
 10
1241.931980709469
 20
1019.001413430408
 42
-0.0080697443
 10
1241.247580709469
 20
1019.306613430409
 42
-0.007514107
 10
1240.573980709469
 20
1019.631713430409
 42
-0.0078360628
 10
1239.914780709469
 20
1019.976813430408
 42
-0.0079682851
 10
1239.269680709469
 20
1020.340613430408
 42
-0.0078115638
 10
1238.638580709469
 20
1020.723413430409
 42
-0.0077332808
 10
1238.021280709469
 20
1021.124013430408
 42
-0.0077227189
 10
1237.418880709469
 20
1021.542613430408
 42
-0.0077048933
 10
1236.831080709469
 20
1021.978013430408
 42
-0.0076529812
 10
1236.258580709469
 20
1022.430513430409
 42
-0.0076190648
 10
1235.701180709469
 20
1022.898913430409
 42
-0.007583411
 10
1235.159780709469
 20
1023.383313430409
 42
-0.0075575177
 10
1234.633980709469
 20
1023.882613430409
 42
-0.0075238516
 10
1234.124680709469
 20
1024.397013430409
 42
-0.0075006588
 10
1233.631580709469
 20
1024.925413430408
 42
-0.0074736128
 10
1233.155580709469
 20
1025.467813430409
 42
-0.0074576453
 10
1232.696280709469
 20
1026.023313430409
 42
-0.0074411399
 10
1232.254580709469
 20
1026.591813430408
 42
-0.0074269947
 10
1231.830180709469
 20
1027.172413430408
 42
-0.0074077486
 10
1231.424080709469
 20
1027.764813430409
 42
-0.0073303587
 10
1231.035880709469
 20
1028.367413430408
 42
-0.0071861792
 10
1230.666580709469
 20
1028.979413430408
 42
-0.0072443883
 10
1230.315480709469
 20
1029.601413430408
 42
-0.0074487873
 10
1229.983380709469
 20
1030.233813430409
 42
-0.0071934401
 10
1229.670580709469
 20
1030.870713430409
 42
-0.0065891376
 10
1229.378480709469
 20
1031.510013430408
 42
-0.0074898357
 10
1229.102580709469
 20
1032.171613430408
 42
-0.009295436
 10
1228.840980709469
 20
1032.867513430409
 42
-0.0070123026
 10
1228.600480709469
 20
1033.543813430409
 42
-0.0022489023
 10
1228.383480709469
 20
1034.187813430408
 42
-0.0098281957
 10
1228.153080709469
 20
1035.041113430409
 42
-0.017365257
 10
1227.871980709469
 20
1036.358113430409
 42
-0.0087967852
 10
1227.547280709469
 20
1038.087213430409
 42
-0.004523824
  0
LWPOLYLINE
  5
B50
330
1F
100
AcDbEntity
  8
KONTUR
100
AcDbPolyline
 90
       39
 70
     0
 43
0.0
 10
1215.587480709469
 20
1179.650313430408
 10
1215.585380709469
 20
1179.665313430408
 42
-0.034321737
 10
1215.584080709469
 20
1179.688613430408
 42
-0.013584839
 10
1215.583580709469
 20
1179.721313430408
 42
-0.008523134
 10
1215.584580709469
 20
1179.757913430408
 42
-0.012784438
 10
1215.587680709469
 20
1179.793313430408
 42
-0.016165415
 10
1215.592780709469
 20
1179.827613430408
 42
-0.013231642
 10
1215.599580709469
 20
1179.862213430408
 42
-0.011343348
 10
1215.608080709469
 20
1179.896813430408
 42
-0.011866049
 10
1215.618380709469
 20
1179.930913430409
 42
-0.011985952
 10
1215.630080709469
 20
1179.964613430408
 42
-0.011393283
 10
1215.643480709469
 20
1179.997713430409
 42
-0.011065636
 10
1215.658180709469
 20
1180.030313430409
 42
-0.011014152
 10
1215.674380709469
 20
1180.062013430409
 42
-0.010989813
 10
1215.691880709469
 20
1180.093013430409
 42
-0.010954993
 10
1215.710580709469
 20
1180.122913430409
 42
-0.011024894
 10
1215.730580709469
 20
1180.151813430408
 42
-0.011176222
 10
1215.751580709469
 20
1180.179613430408
 42
-0.011395846
 10
1215.773680709469
 20
1180.206113430409
 42
-0.011728792
 10
1215.796780709469
 20
1180.231213430408
 42
-0.012090316
 10
1215.820780709469
 20
1180.254913430409
 42
-0.012277352
 10
1215.845980709469
 20
1180.277313430408
 42
-0.012063829
 10
1215.872180709469
 20
1180.298713430408
 42
-0.011268297
 10
1215.899580709469
 20
1180.319013430408
 42
-0.010761936
 10
1215.928080709469
 20
1180.338313430409
 42
-0.010775949
 10
1215.957580709469
 20
1180.356413430408
 42
-0.010747799
 10
1215.987880709469
 20
1180.373313430408
 42
-0.01064374
 10
1216.018880709469
 20
1180.388913430409
 42
-0.010718992
 10
1216.050580709469
 20
1180.403213430408
 42
-0.010991617
 10
1216.082880709469
 20
1180.416013430408
 42
-0.011015808
 10
1216.115480709469
 20
1180.427313430409
 42
-0.010899793
 10
1216.148380709469
 20
1180.437113430408
 42
-0.011801427
 10
1216.181780709469
 20
1180.445213430408
 42
-0.013385939
 10
1216.215580709469
 20
1180.451613430409
 42
-0.01130047
 10
1216.246780709469
 20
1180.456313430408
 42
-0.0075190603
 10
1216.272280709469
 20
1180.459313430409
 42
-0.009596068
 10
1216.294280709469
 20
1180.460813430409
 42
-0.015342719
 10
1216.314880709469
 20
1180.460713430408
 42
-0.017828055
 10
1216.333780709469
 20
1180.459313430409
 42
-0.021861825
  0
LWPOLYLINE
  5
B7A
330
1F
100
AcDbEntity
  8
KONTUR
100
AcDbPolyline
 90
       31
 70
     0
 43
0.0
 10
1214.341380709469
 20
1179.551913430408
 10
1214.337780709469
 20
1179.603213430408
 42
-0.012016909
 10
1214.335880709469
 20
1179.662213430408
 42
-0.0078888339
 10
1214.335780709469
 20
1179.729513430409
 42
-0.0072073378
 10
1214.338080709469
 20
1179.804013430408
 42
-0.0091675758
 10
1214.343680709469
 20
1179.885113430408
 42
-0.0099949917
 10
1214.353380709469
 20
1179.971913430408
 42
-0.010657846
 10
1214.367780709469
 20
1180.064113430408
 42
-0.011203255
 10
1214.387580709469
 20
1180.160913430409
 42
-0.012209705
 10
1214.413580709469
 20
1180.261613430408
 42
-0.012779356
 10
1214.446280709469
 20
1180.365613430409
 42
-0.01355125
 10
1214.486580709469
 20
1180.472213430408
 42
-0.014293665
 10
1214.535180709469
 20
1180.581013430408
 42
-0.015372365
 10
1214.593080709469
 20
1180.691313430408
 42
-0.015262496
 10
1214.658880709469
 20
1180.800113430408
 42
-0.015587249
 10
1214.731480709469
 20
1180.904313430408
 42
-0.016025578
 10
1214.810180709469
 20
1181.003413430408
 42
-0.015754453
 10
1214.894880709469
 20
1181.096913430408
 42
-0.015645439
 10
1214.984980709469
 20
1181.184813430409
 42
-0.015640827
 10
1215.080480709469
 20
1181.266713430408
 42
-0.015687588
 10
1215.180880709469
 20
1181.342613430409
 42
-0.015780981
 10
1215.286080709469
 20
1181.412013430408
 42
-0.015650268
 10
1215.395580709469
 20
1181.474913430408
 42
-0.015328344
 10
1215.508980709469
 20
1181.530813430408
 42
-0.015866855
 10
1215.626780709469
 20
1181.579613430409
 42
-0.017170356
 10
1215.747680709469
 20
1181.620413430408
 42
-0.015102185
 10
1215.862580709469
 20
1181.652513430409
 42
-0.011787229
 10
1215.964480709469
 20
1181.675313430409
 42
-0.015416148
 10
1216.069280709469
 20
1181.691313430409
 42
-0.017385152
 10
1216.193880709469
 20
1181.702713430408
 42
-0.012521032
 10
1216.335180709469
 20
1181.709313430409
 42
-0.010585573
  0
LWPOLYLINE
  5
B9C
330
1F
100
AcDbEntity
  8
KONTUR
100
AcDbPolyline
 90
       23
 70
     0
 43
0.0
 10
1226.306480709469
 20
1037.923413430408
 10
1225.717280709469
 20
1042.368113430408
 42
-0.0004870787
 10
1225.133880709469
 20
1046.835013430409
 42
-0.0004761814
 10
1224.556280709469
 20
1051.325013430408
 42
-0.0004776818
 10
1223.984580709469
 20
1055.836813430408
 42
-0.000493488
 10
1223.419680709469
 20
1060.370613430408
 42
-0.000503709
 10
1222.861380709469
 20
1064.924713430408
 42
-0.0005125659
 10
1222.310480709469
 20
1069.499413430408
 42
-0.0005211891
 10
1221.766780709469
 20
1074.094213430408
 42
-0.0005329948
 10
1221.230980709469
 20
1078.709313430408
 42
-0.0005412907
 10
1220.703480709469
 20
1083.340313430409
 42
-0.000550924
 10
1220.185080709469
 20
1087.985513430408
 42
-0.0005637026
 10
1219.675180709469
 20
1092.650213430409
 42
-0.0005805924
 10
1219.174080709469
 20
1097.336513430409
 42
-0.0005667218
 10
1218.683880709469
 20
1102.016913430408
 42
-0.0005316241
 10
1218.205980709469
 20
1106.682013430408
 42
-0.0005949816
 10
1217.731380709469
 20
1111.436113430409
 42
-0.000721826
 10
1217.257980709469
 20
1116.315313430408
 42
-0.000545494
 10
1216.819280709469
 20
1120.903613430408
 42
-0.0001733791
 10
1216.427480709469
 20
1125.057713430409
 42
-0.0007911397
 10
1215.949080709469
 20
1130.414913430408
 42
-0.0013865067
 10
1215.244580709469
 20
1138.693713430408
 42
-0.0001798882814898
 10
1214.336476210654
 20
1179.632702014345
 42
-0.000280538089752
  0
LWPOLYLINE
  5
BB5
330
1F
100
AcDbEntity
  8
KONTUR
100
AcDbPolyline
 90
       23
 70
     0
 43
0.0
 10
1245.080080709469
 20
1016.626993430409
 10
1243.817180709469
 20
1016.982933430409
 42
-0.012726317
 10
1242.584980709469
 20
1017.398943430409
 42
-0.013079583
 10
1241.384280709469
 20
1017.877833430408
 42
-0.013128769
 10
1240.215680709469
 20
1018.414903430409
 42
-0.01291588
 10
1239.082780709469
 20
1019.009813430408
 42
-0.01281116
 10
1237.985480709469
 20
1019.658413430408
 42
-0.012725158
 10
1236.927080709469
 20
1020.360813430409
 42
-0.012658478
 10
1235.907580709469
 20
1021.112913430409
 42
-0.012576292
 10
1234.930380709469
 20
1021.914713430408
 42
-0.012507689
 10
1233.995080709469
 20
1022.762113430409
 42
-0.012409371
 10
1233.105180709469
 20
1023.654813430408
 42
-0.012419731
 10
1232.261680709469
 20
1024.588713430408
 42
-0.012569685
 10
1231.469580709469
 20
1025.561513430408
 42
-0.012214581
 10
1230.729180709469
 20
1026.562013430409
 42
-0.011358265
 10
1230.044080709469
 20
1027.586513430409
 42
-0.012383722
 10
1229.407480709469
 20
1028.658313430408
 42
-0.014583194
 10
1228.820480709469
 20
1029.785313430408
 42
-0.011143154
 10
1228.300380709469
 20
1030.860013430408
 42
-0.0039983507
 10
1227.856480709469
 20
1031.845313430409
 42
-0.015400078
 10
1227.411880709469
 20
1033.149813430408
 42
-0.026523471
 10
1226.890780709469
 20
1035.204713430408
 42
-0.012997246
 10
1226.306480709469
 20
1037.923413430408
 42
-0.0068653856
  0
LWPOLYLINE
  5
BCE
330
1F
100
AcDbEntity
  8
KONTUR
100
AcDbPolyline
 90
       15
 70
     0
 43
0.0
 10
1226.370280709469
 20
1036.419313430408
 10
1226.370280709469
 20
1036.419313430408
 42
0.012896464
 10
1226.370280709469
 20
1036.419313430408
 42
0.013591657
 10
1226.370280709469
 20
1036.419313430408
 42
0.017544098
 10
1226.370280709469
 20
1036.419313430408
 42
0.032947793
 10
1226.370280709469
 20
1036.419313430408
 42
0.064808396
 10
1226.370280709469
 20
1036.419313430408
 42
0.12340357
 10
1226.370280709469
 20
1036.419313430408
 42
0.22704182
 10
1226.370280709469
 20
1036.419313430408
 42
0.13634079
 10
1226.370280709469
 20
1036.419313430408
 42
0.033392654
 10
1226.370280709469
 20
1036.419313430408
 42
0.001190001
 10
1226.370280709469
 20
1036.419313430408
 42
0.035194445
 10
1226.370180709469
 20
1036.419313430408
 42
0.02270605
 10
1226.370180709469
 20
1036.419213430408
 42
0.0054725248
 10
1226.370180709469
 20
1036.419013430409
 42
0.00212658
  0
LWPOLYLINE
  5
BDF
330
1F
100
AcDbEntity
  8
KONTUR
100
AcDbPolyline
 90
      115
 70
     0
 43
0.0
 10
1226.370280709469
 20
1036.419313430408
 10
1226.379680709469
 20
1036.348613430408
 42
0.000846213
 10
1226.389680709469
 20
1036.274713430409
 42
0.0007164382
 10
1226.400480709469
 20
1036.197313430408
 42
0.0007048691
 10
1226.411880709469
 20
1036.116413430409
 42
0.0007993546
 10
1226.424280709469
 20
1036.031513430409
 42
0.0008448696
 10
1226.437480709469
 20
1035.942613430409
 42
0.0008853346
 10
1226.451680709469
 20
1035.849213430408
 42
0.0009177379
 10
1226.466980709469
 20
1035.751313430409
 42
0.0009760857
 10
1226.483480709469
 20
1035.648313430409
 42
0.0010177113
 10
1226.501380709469
 20
1035.540113430408
 42
0.0010847552
 10
1226.520580709469
 20
1035.426313430408
 42
0.0011308108
 10
1226.541480709469
 20
1035.306813430409
 42
0.0012038522
 10
1226.563980709469
 20
1035.181013430408
 42
0.0012534719
 10
1226.588380709469
 20
1035.048813430408
 42
0.0013329236
 10
1226.614880709469
 20
1034.909813430409
 42
0.0013871673
 10
1226.643480709469
 20
1034.763913430409
 42
0.0014770576
 10
1226.674480709469
 20
1034.610713430408
 42
0.001537758
 10
1226.708080709469
 20
1034.450313430408
 42
0.0016337966
 10
1226.744480709469
 20
1034.282113430409
 42
0.0016942874
 10
1226.783680709469
 20
1034.106413430408
 42
0.0017892289
 10
1226.826180709469
 20
1033.922813430408
 42
0.0018494078
 10
1226.871880709469
 20
1033.731813430408
 42
0.001954448
 10
1226.920980709469
 20
1033.533413430408
 42
0.0020223741
 10
1226.973680709469
 20
1033.328213430409
 42
0.002123428
 10
1227.030080709469
 20
1033.116213430408
 42
0.0021807853
 10
1227.090180709469
 20
1032.897913430409
 42
0.0022637101
 10
1227.154280709469
 20
1032.673513430409
 42
0.002302317
 10
1227.222180709469
 20
1032.443713430408
 42
0.002359787
 10
1227.293980709469
 20
1032.208913430408
 42
0.0024100653
 10
1227.369780709469
 20
1031.969713430408
 42
0.0025037289
 10
1227.449480709469
 20
1031.726713430408
 42
0.0025543962
 10
1227.533180709469
 20
1031.480313430408
 42
0.0026096683
 10
1227.620880709469
 20
1031.230913430408
 42
0.0026287624
 10
1227.712280709469
 20
1030.979013430408
 42
0.0026443979
 10
1227.807780709469
 20
1030.725013430409
 42
0.002664758
 10
1227.906880709469
 20
1030.469313430408
 42
0.0027173669
 10
1228.009880709469
 20
1030.212213430409
 42
0.0027483897
 10
1228.116580709469
 20
1029.954213430408
 42
0.0027814069
 10
1228.226980709469
 20
1029.695513430408
 42
0.0028024814
 10
1228.341080709469
 20
1029.436313430409
 42
0.0028300089
 10
1228.458780709469
 20
1029.176913430409
 42
0.0028589289
 10
1228.580180709469
 20
1028.917613430408
 42
0.002908484
 10
1228.705080709469
 20
1028.658613430408
 42
0.0029259989
 10
1228.833580709469
 20
1028.400013430408
 42
0.0029223553
 10
1228.965580709469
 20
1028.142113430409
 42
0.0029123177
 10
1229.101080709469
 20
1027.884713430408
 42
0.002900233
 10
1229.239980709469
 20
1027.628113430409
 42
0.0028901709
 10
1229.382280709469
 20
1027.372413430408
 42
0.0028861788
 10
1229.528080709469
 20
1027.117613430408
 42
0.0028817928
 10
1229.677080709469
 20
1026.863813430409
 42
0.002881461
 10
1229.829480709469
 20
1026.611113430409
 42
0.002881126
 10
1229.985080709469
 20
1026.359713430409
 42
0.0028854598
 10
1230.143880709469
 20
1026.109613430408
 42
0.0028894294
 10
1230.305880709469
 20
1025.861013430409
 42
0.002897977
 10
1230.471080709469
 20
1025.613813430409
 42
0.0029061439
 10
1230.639380709469
 20
1025.368213430409
 42
0.002919168
 10
1230.810780709469
 20
1025.124413430408
 42
0.0029311691
 10
1230.985180709469
 20
1024.882413430408
 42
0.0029475509
 10
1231.162680709469
 20
1024.642213430408
 42
0.0029646897
 10
1231.342980709469
 20
1024.404113430408
 42
0.0029887257
 10
1231.526380709469
 20
1024.168013430408
 42
0.00300394
 10
1231.712580709469
 20
1023.934113430408
 42
0.0030144098
 10
1231.901680709469
 20
1023.702513430409
 42
0.0030157737
 10
1232.093580709469
 20
1023.473013430409
 42
0.0030081126
 10
1232.288380709469
 20
1023.245913430409
 42
0.0030031583
 10
1232.485880709469
 20
1023.021013430408
 42
0.0030002891
 10
1232.686180709469
 20
1022.798613430409
 42
0.0029975291
 10
1232.889080709469
 20
1022.578513430408
 42
0.002994622
 10
1233.094780709469
 20
1022.360813430408
 42
0.0029923779
 10
1233.303080709469
 20
1022.145513430408
 42
0.0029907057
 10
1233.513980709469
 20
1021.932813430408
 42
0.0029894191
 10
1233.727480709469
 20
1021.722513430409
 42
0.0029886473
 10
1233.943580709469
 20
1021.514713430408
 42
0.002988208
 10
1234.162180709469
 20
1021.309513430409
 42
0.002988436
 10
1234.383280709469
 20
1021.107013430409
 42
0.0029888513
 10
1234.606780709469
 20
1020.907013430408
 42
0.0029899931
 10
1234.832880709469
 20
1020.709713430409
 42
0.0029913251
 10
1235.061180709469
 20
1020.515113430408
 42
0.0029936087
 10
1235.291980709469
 20
1020.323313430409
 42
0.0029955477
 10
1235.525080709469
 20
1020.134213430409
 42
0.0029980531
 10
1235.760580709469
 20
1019.947913430408
 42
0.0029964683
 10
1235.998280709469
 20
1019.764313430408
 42
0.0029908353
 10
1236.238180709469
 20
1019.583713430408
 42
0.0029862838
 10
1236.480280709469
 20
1019.405813430408
 42
0.0029820352
 10
1236.724580709469
 20
1019.230913430408
 42
0.0029785431
 10
1236.970980709469
 20
1019.058913430409
 42
0.002975268
 10
1237.219480709469
 20
1018.889813430409
 42
0.0029727073
 10
1237.469980709469
 20
1018.723613430408
 42
0.002970522
 10
1237.722480709469
 20
1018.560513430408
 42
0.0029689274
 10
1237.976980709469
 20
1018.400333430408
 42
0.0029677938
 10
1238.233380709469
 20
1018.243243430409
 42
0.0029671791
 10
1238.491680709469
 20
1018.089153430408
 42
0.0029671591
 10
1238.751780709469
 20
1017.938193430408
 42
0.0029674519
 10
1239.013680709469
 20
1017.790273430408
 42
0.0029683436
 10
1239.277380709469
 20
1017.645543430408
 42
0.0029698106
 10
1239.542780709469
 20
1017.503903430409
 42
0.0029723229
 10
1239.809980709469
 20
1017.365493430409
 42
0.0029739788
 10
1240.078680709469
 20
1017.230223430408
 42
0.0029755659
 10
1240.349080709469
 20
1017.098243430408
 42
0.0029809056
 10
1240.621080709469
 20
1016.969443430408
 42
0.0029904732
 10
1240.894580709469
 20
1016.843973430408
 42
0.0029870878
 10
1241.169580709469
 20
1016.721743430408
 42
0.0029738
 10
1241.445880709469
 20
1016.602943430409
 42
0.0030049193
 10
1241.723880709469
 20
1016.487333430408
 42
0.003072949
 10
1242.003680709469
 20
1016.375043430408
 42
0.002990647
 10
1242.283680709469
 20
1016.266383430408
 42
0.0027967597
 10
1242.563280709469
 20
1016.161663430409
 42
0.0030969196
 10
1242.848680709469
 20
1016.059103430408
 42
0.0037080624
 10
1243.142280709469
 20
1015.958313430408
 42
0.002815512
 10
1243.418580709469
 20
1015.865683430408
 42
0.0009519087
 10
1243.669080709469
 20
1015.783643430409
 42
0.0039980157
 10
1243.993180709469
 20
1015.686323430409
 42
0.0069245946
 10
1244.495280709469
 20
1015.546883430408
 42
0.003388755
 10
1245.154680709469
 20
1015.370533430408
 42
0.001792784
  0
LWPOLYLINE
  5
C54
330
1F
100
AcDbEntity
  8
KONTUR
100
AcDbPolyline
 90
       43
 70
     0
 43
0.0
 10
1245.154680709469
 20
1015.370533430408
 10
1250.465080709469
 20
1014.086743430409
 42
0.0027519889
 10
1255.788480709469
 20
1012.860743430409
 42
0.0027548747
 10
1261.125580709469
 20
1011.694943430408
 42
0.0027525856
 10
1266.475180709469
 20
1010.586963430409
 42
0.0027459346
 10
1271.836880709469
 20
1009.539293430409
 42
0.002743884
 10
1277.209580709469
 20
1008.549653430408
 42
0.0027455749
 10
1282.593080709469
 20
1007.620603430408
 42
0.0027466623
 10
1287.986380709469
 20
1006.749863430408
 42
0.0027475178
 10
1293.389180709469
 20
1005.939973430408
 42
0.0027488929
 10
1298.800480709469
 20
1005.188653430409
 42
0.0027511214
 10
1304.219880709469
 20
1004.498453430409
 42
0.0027509627
 10
1309.646480709469
 20
1003.866993430408
 42
0.0027483857
 10
1315.079880709469
 20
1003.296733430408
 42
0.0027461344
 10
1320.519180709469
 20
1002.785243430408
 42
0.0027436454
 10
1325.963880709469
 20
1002.334993430408
 42
0.0027418144
 10
1331.413280709469
 20
1001.943543430408
 42
0.0027401879
 10
1336.866680709469
 20
1001.613363430408
 42
0.002739033
 10
1342.323380709469
 20
1001.342033430408
 42
0.0027380682
 10
1347.782780709469
 20
1001.132003430409
 42
0.0027375459
 10
1353.244180709469
 20
1000.980843430408
 42
0.0027373389
 10
1358.706880709469
 20
1000.891033430409
 42
0.002737406
 10
1364.170280709469
 20
1000.860133430408
 42
0.002737786
 10
1369.633780709469
 20
1000.890603430409
 42
0.0027386567
 10
1375.096580709469
 20
1000.980033430409
 42
0.0027401877
 10
1380.558080709469
 20
1001.130873430408
 42
0.0027410824
 10
1386.017580709469
 20
1001.340683430408
 42
0.002741798
 10
1391.474280709469
 20
1001.611903430408
 42
0.0027454269
 10
1396.928080709469
 20
1001.942223430408
 42
0.0027520011
 10
1402.378280709469
 20
1002.334093430408
 42
0.0027451383
 10
1407.822580709469
 20
1002.784563430409
 42
0.0027266523
 10
1413.259380709469
 20
1003.295813430409
 42
0.0027491548
 10
1418.695880709469
 20
1003.867113430409
 42
0.0028042199
 10
1424.133580709469
 20
1004.501413430408
 42
0.0027244124
 10
1429.542580709469
 20
1005.189233430408
 42
0.0025438201
 10
1434.911680709469
 20
1005.930503430408
 42
0.0028079612
 10
1440.357280709469
 20
1006.750273430408
 42
0.003348891
 10
1445.918580709469
 20
1007.660373430409
 42
0.0025424706
 10
1451.134780709469
 20
1008.549583430409
 42
0.0008704784
 10
1455.846180709469
 20
1009.382793430409
 42
0.0035897819
 10
1461.869680709469
 20
1010.586523430409
 42
0.006189078
 10
1471.110480709469
 20
1012.613103430409
 42
0.0030273461
 10
1483.190080709469
 20
1015.370683430408
 42
0.0016033132
  0
LWPOLYLINE
  5
C81
330
1F
100
AcDbEntity
  8
KONTUR
100
AcDbPolyline
 90
      115
 70
     0
 43
0.0
 10
1483.190080709469
 20
1015.370683430408
 10
1483.480880709469
 20
1015.444603430408
 42
0.0029797921
 10
1483.770680709469
 20
1015.521923430409
 42
0.002979926
 10
1484.059480709469
 20
1015.602783430409
 42
0.0029806242
 10
1484.347380709469
 20
1015.687033430409
 42
0.0029838993
 10
1484.634280709469
 20
1015.774793430408
 42
0.0029850787
 10
1484.919980709469
 20
1015.865923430409
 42
0.0029839627
 10
1485.204580709469
 20
1015.960543430409
 42
0.0029836673
 10
1485.488080709469
 20
1016.058493430408
 42
0.0029839874
 10
1485.770380709469
 20
1016.159903430409
 42
0.0029838952
 10
1486.051380709469
 20
1016.264623430408
 42
0.0029835662
 10
1486.331180709469
 20
1016.372783430409
 42
0.0029834844
 10
1486.609580709469
 20
1016.484203430408
 42
0.00298352
 10
1486.886580709469
 20
1016.599023430409
 42
0.0029836272
 10
1487.162280709469
 20
1016.717093430409
 42
0.0029836179
 10
1487.436480709469
 20
1016.838513430409
 42
0.0029832366
 10
1487.709180709469
 20
1016.963153430409
 42
0.0029824772
 10
1487.980380709469
 20
1017.091103430409
 42
0.0029822756
 10
1488.249980709469
 20
1017.222213430408
 42
0.0029823411
 10
1488.517980709469
 20
1017.356613430409
 42
0.0029830231
 10
1488.784280709469
 20
1017.494153430408
 42
0.002984068
 10
1489.048980709469
 20
1017.634943430408
 42
0.0029838038
 10
1489.311980709469
 20
1017.778833430408
 42
0.0029825493
 10
1489.573180709469
 20
1017.925933430408
 42
0.0029815376
 10
1489.832680709469
 20
1018.076093430408
 42
0.0029806197
 10
1490.090280709469
 20
1018.229403430408
 42
0.0029804297
 10
1490.346080709469
 20
1018.385723430408
 42
0.0029808222
 10
1490.599880709469
 20
1018.545143430409
 42
0.002982044
 10
1490.851880709469
 20
1018.707513430408
 42
0.0029842722
 10
1491.101680709469
 20
1018.872913430409
 42
0.0029845476
 10
1491.349580709469
 20
1019.041313430409
 42
0.0029826242
 10
1491.595380709469
 20
1019.212613430409
 42
0.0029808227
 10
1491.839080709469
 20
1019.386813430408
 42
0.0029783979
 10
1492.080680709469
 20
1019.563913430409
 42
0.0029769758
 10
1492.320080709469
 20
1019.743813430408
 42
0.0029759137
 10
1492.557180709469
 20
1019.926613430408
 42
0.0029755597
 10
1492.792180709469
 20
1020.112213430408
 42
0.0029755101
 10
1493.024780709469
 20
1020.300513430409
 42
0.002975792
 10
1493.255180709469
 20
1020.491613430409
 42
0.0029761376
 10
1493.483180709469
 20
1020.685413430409
 42
0.0029770388
 10
1493.708880709469
 20
1020.881813430408
 42
0.002978355
 10
1493.932080709469
 20
1021.080913430409
 42
0.002979918
 10
1494.152880709469
 20
1021.282613430408
 42
0.002981741
 10
1494.371080709469
 20
1021.486913430409
 42
0.0029849858
 10
1494.586880709469
 20
1021.693813430409
 42
0.0029900144
 10
1494.800080709469
 20
1021.903213430408
 42
0.0029883231
 10
1495.010780709469
 20
1022.115113430409
 42
0.0029793297
 10
1495.218780709469
 20
1022.329513430408
 42
0.0029696287
 10
1495.424180709469
 20
1022.546213430408
 42
0.0029562557
 10
1495.626880709469
 20
1022.765213430408
 42
0.002946563
 10
1495.826980709469
 20
1022.986513430409
 42
0.0029371528
 10
1496.024180709469
 20
1023.210113430408
 42
0.0029292031
 10
1496.218680709469
 20
1023.435813430408
 42
0.0029196192
 10
1496.410380709469
 20
1023.663613430409
 42
0.0029178428
 10
1496.599280709469
 20
1023.893413430409
 42
0.0029215672
 10
1496.785280709469
 20
1024.125313430408
 42
0.0029286896
 10
1496.968480709469
 20
1024.359213430409
 42
0.0029392832
 10
1497.148680709469
 20
1024.595113430408
 42
0.0029489466
 10
1497.325980709469
 20
1024.832913430409
 42
0.0029587556
 10
1497.500280709469
 20
1025.072713430408
 42
0.0029684981
 10
1497.671580709469
 20
1025.314413430408
 42
0.0029792643
 10
1497.839880709469
 20
1025.557913430408
 42
0.002989464
 10
1498.005180709469
 20
1025.803313430408
 42
0.0030004162
 10
1498.167380709469
 20
1026.050613430408
 42
0.0030113589
 10
1498.326480709469
 20
1026.299613430408
 42
0.0030238202
 10
1498.482380709469
 20
1026.550513430409
 42
0.0030338192
 10
1498.635280709469
 20
1026.803113430408
 42
0.0030430094
 10
1498.784880709469
 20
1027.057513430409
 42
0.0030583453
 10
1498.931280709469
 20
1027.313513430408
 42
0.0030818967
 10
1499.074480709469
 20
1027.571313430408
 42
0.0030652276
 10
1499.214380709469
 20
1027.830513430409
 42
0.003008373
 10
1499.350880709469
 20
1028.091113430408
 42
0.0029460041
 10
1499.484180709469
 20
1028.352513430409
 42
0.0028613151
 10
1499.613880709469
 20
1028.614513430408
 42
0.0028012097
 10
1499.740080709469
 20
1028.876613430408
 42
0.0027425979
 10
1499.862680709469
 20
1029.138713430408
 42
0.0027013204
 10
1499.981780709469
 20
1029.400313430408
 42
0.0026563539
 10
1500.096980709469
 20
1029.661113430408
 42
0.0026299961
 10
1500.208580709469
 20
1029.920713430408
 42
0.0026013956
 10
1500.316280709469
 20
1030.178913430409
 42
0.0025914438
 10
1500.420180709469
 20
1030.435213430409
 42
0.0025799091
 10
1500.520080709469
 20
1030.689413430408
 42
0.0025863866
 10
1500.616080709469
 20
1030.941113430409
 42
0.0025905767
 10
1500.707980709469
 20
1031.189913430409
 42
0.0026193472
 10
1500.795780709469
 20
1031.435613430408
 42
0.0026544388
 10
1500.879280709469
 20
1031.677713430408
 42
0.002665225
 10
1500.958780709469
 20
1031.916113430409
 42
0.00261378
 10
1501.034180709469
 20
1032.150513430408
 42
0.0025745067
 10
1501.105780709469
 20
1032.380913430409
 42
0.0024996312
 10
1501.173480709469
 20
1032.606913430408
 42
0.0024521633
 10
1501.237580709469
 20
1032.828513430408
 42
0.0023833643
 10
1501.298080709469
 20
1033.045313430408
 42
0.0023386119
 10
1501.355080709469
 20
1033.257413430409
 42
0.0022674706
 10
1501.408780709469
 20
1033.464313430408
 42
0.0022220252
 10
1501.459180709469
 20
1033.666113430409
 42
0.0021500094
 10
1501.506480709469
 20
1033.862513430408
 42
0.0021040294
 10
1501.550780709469
 20
1034.053313430408
 42
0.0020295822
 10
1501.592180709469
 20
1034.238313430409
 42
0.0019817681
 10
1501.630780709469
 20
1034.417513430408
 42
0.0019034516
 10
1501.666580709469
 20
1034.590413430408
 42
0.0018525032
 10
1501.699980709469
 20
1034.757213430409
 42
0.0017684198
 10
1501.730780709469
 20
1034.917313430408
 42
0.001711277
 10
1501.759380709469
 20
1035.070913430408
 42
0.0016171451
 10
1501.785580709469
 20
1035.217513430408
 42
0.001551278
 10
1501.809780709469
 20
1035.357313430408
 42
0.0014420003
 10
1501.831980709469
 20
1035.489813430409
 42
0.0013577483
 10
1501.852180709469
 20
1035.614813430409
 42
0.0012321081
 10
1501.870580709469
 20
1035.731913430408
 42
0.0011129623
 10
1501.887380709469
 20
1035.842113430409
 42
0.0008712474
 10
1501.902880709469
 20
1035.945313430409
 42
0.0007643482
 10
1501.916380709469
 20
1036.037613430408
 42
0.0008889642
 10
1501.927780709469
 20
1036.117213430408
 42
0.0001732251
 10
1501.939880709469
 20
1036.199913430408
 42
-0.0018357041
 10
1501.955580709469
 20
1036.301513430408
 42
-0.0015969861
 10
1501.974380709469
 20
1036.419213430408
 42
-0.0009248002
  0
LWPOLYLINE
  5
CF6
330
1F
100
AcDbEntity
  8
KONTUR
100
AcDbPolyline
 90
       15
 70
     0
 43
0.0
 10
1501.974580709469
 20
1036.419013430409
 10
1501.974580709469
 20
1036.419113430409
 42
0.003539291
 10
1501.974480709469
 20
1036.419213430408
 42
0.0049659588
 10
1501.974480709469
 20
1036.419213430408
 42
0.007038653
 10
1501.974480709469
 20
1036.419213430408
 42
0.0095564557
 10
1501.974480709469
 20
1036.419313430408
 42
0.014008995
 10
1501.974480709469
 20
1036.419313430408
 42
0.021297313
 10
1501.974480709469
 20
1036.419313430408
 42
0.041167087
 10
1501.974480709469
 20
1036.419313430408
 42
0.10286761
 10
1501.974480709469
 20
1036.419313430408
 42
0.19659769
 10
1501.974380709469
 20
1036.419313430408
 42
0.10182338
 10
1501.974380709469
 20
1036.419313430408
 42
0.12286455
 10
1501.974380709469
 20
1036.419313430408
 42
0.059825132
 10
1501.974380709469
 20
1036.419213430408
 42
0.015791759
 10
1501.974380709469
 20
1036.419213430408
 42
0.0070877033
  0
LWPOLYLINE
  5
D07
330
1F
100
AcDbEntity
  8
KONTUR
100
AcDbPolyline
 90
       43
 70
     0
 43
0.0
 10
1501.974580709469
 20
1036.419013430409
 10
1502.282480709469
 20
1038.773013430408
 42
0.000234624
 10
1502.586680709469
 20
1041.115613430409
 42
0.0002385778
 10
1502.886980709469
 20
1043.446713430408
 42
0.0002394527
 10
1503.183680709469
 20
1045.766113430408
 42
0.0002367519
 10
1503.476380709469
 20
1048.072813430409
 42
0.0002358341
 10
1503.765380709469
 20
1050.367113430409
 42
0.0002355204
 10
1504.050580709469
 20
1052.648313430409
 42
0.0002356243
 10
1504.331880709469
 20
1054.916713430408
 42
0.0002352517
 10
1504.609380709469
 20
1057.171613430408
 42
0.0002351922
 10
1504.883180709469
 20
1059.413113430408
 42
0.0002344698
 10
1505.153080709469
 20
1061.640613430408
 42
0.0002338791
 10
1505.419180709469
 20
1063.854213430408
 42
0.000232267
 10
1505.681380709469
 20
1066.053113430408
 42
0.000231449
 10
1505.939880709469
 20
1068.237513430408
 42
0.0002301608
 10
1506.194480709469
 20
1070.406513430409
 42
0.0002295586
 10
1506.445280709469
 20
1072.560313430409
 42
0.000228383
 10
1506.692280709469
 20
1074.698113430408
 42
0.0002279363
 10
1506.935480709469
 20
1076.820213430408
 42
0.0002269458
 10
1507.174780709469
 20
1078.925513430409
 42
0.0002266648
 10
1507.410280709469
 20
1081.014513430408
 42
0.0002258043
 10
1507.641980709469
 20
1083.086113430408
 42
0.0002257564
 10
1507.869880709469
 20
1085.140713430409
 42
0.000225238
 10
1508.093880709469
 20
1087.177313430409
 42
0.000224912
 10
1508.314180709469
 20
1089.196313430408
 42
0.0002233123
 10
1508.530480709469
 20
1091.196713430409
 42
0.0002222971
 10
1508.743180709469
 20
1093.178913430409
 42
0.0002202108
 10
1508.952080709469
 20
1095.142013430408
 42
0.0002192812
 10
1509.157180709469
 20
1097.086613430408
 42
0.0002177831
 10
1509.358580709469
 20
1099.011713430409
 42
0.0002164334
 10
1509.556280709469
 20
1100.917313430409
 42
0.0002136021
 10
1509.750180709469
 20
1102.802013430408
 42
0.000214278
 10
1509.940580709469
 20
1104.668813430408
 42
0.0002162588
 10
1510.127480709469
 20
1106.517413430408
 42
0.00021036
 10
1510.310280709469
 20
1108.339213430409
 42
0.0001967731
 10
1510.488380709469
 20
1110.130213430408
 42
0.0002135494
 10
1510.665480709469
 20
1111.926313430409
 42
0.000248705
 10
1510.842280709469
 20
1113.738813430409
 42
0.0001938536
 10
1511.006280709469
 20
1115.428213430409
 42
0.0000777611
 10
1511.152680709469
 20
1116.945013430408
 42
0.0002617761
 10
1511.332880709469
 20
1118.842613430409
 42
0.0004465663
 10
1511.600180709469
 20
1121.699313430408
 42
0.0002270778
 10
1511.944080709469
 20
1125.401013430409
 42
0.0001244716
  0
LWPOLYLINE
  5
D34
330
1F
100
AcDbEntity
  8
KONTUR
100
AcDbPolyline
 90
       43
 70
     0
 43
0.0
 10
1216.400680709469
 20
1125.400813430409
 10
1216.548380709469
 20
1123.794613430408
 42
0.0002078778
 10
1216.699480709469
 20
1122.166113430408
 42
0.0001987189
 10
1216.854080709469
 20
1120.514513430408
 42
0.0001965474
 10
1217.012080709469
 20
1118.840913430409
 42
0.0002023821
 10
1217.173580709469
 20
1117.144913430408
 42
0.0002045359
 10
1217.338580709469
 20
1115.427413430408
 42
0.0002054591
 10
1217.507180709469
 20
1113.687713430409
 42
0.0002058964
 10
1217.679180709469
 20
1111.926913430409
 42
0.0002077152
 10
1217.854980709469
 20
1110.144313430409
 42
0.0002084021
 10
1218.034280709469
 20
1108.340813430409
 42
0.0002098893
 10
1218.217280709469
 20
1106.515913430409
 42
0.000210435
 10
1218.403880709469
 20
1104.670713430408
 42
0.000211882
 10
1218.594280709469
 20
1102.804613430408
 42
0.000212514
 10
1218.788180709469
 20
1100.918813430408
 42
0.0002140953
 10
1218.985980709469
 20
1099.012713430408
 42
0.0002148564
 10
1219.187380709469
 20
1097.087513430408
 42
0.0002165402
 10
1219.392580709469
 20
1095.142613430408
 42
0.0002174248
 10
1219.601480709469
 20
1093.179113430409
 42
0.0002192257
 10
1219.814180709469
 20
1091.196413430408
 42
0.0002202096
 10
1220.030580709469
 20
1089.195813430409
 42
0.0002220654
 10
1220.250880709469
 20
1087.176613430408
 42
0.0002232212
 10
1220.474880709469
 20
1085.140013430409
 42
0.0002253563
 10
1220.702780709469
 20
1083.085413430409
 42
0.0002260457
 10
1220.934380709469
 20
1081.014013430409
 42
0.0002268281
 10
1221.169980709469
 20
1078.925213430408
 42
0.0002267271
 10
1221.409280709469
 20
1076.820113430409
 42
0.0002270282
 10
1221.652480709469
 20
1074.698413430408
 42
0.0002271891
 10
1221.899380709469
 20
1072.560813430408
 42
0.00022837
 10
1222.150280709469
 20
1070.406913430409
 42
0.000227912
 10
1222.404780709469
 20
1068.238513430409
 42
0.0002272188
 10
1222.663180709469
 20
1066.055513430409
 42
0.000229762
 10
1222.925580709469
 20
1063.855513430408
 42
0.0002358986
 10
1223.192280709469
 20
1061.637213430409
 42
0.0002290529
 10
1223.461480709469
 20
1059.414313430409
 42
0.0002137667
 10
1223.732780709469
 20
1057.191313430408
 42
0.000238559
 10
1224.012780709469
 20
1054.917313430408
 42
0.0002886292
 10
1224.303780709469
 20
1052.574413430408
 42
0.0002162996
 10
1224.579180709469
 20
1050.366913430409
 42
0.0000671532
 10
1224.830180709469
 20
1048.364413430409
 42
0.0003135807
 10
1225.160980709469
 20
1045.765413430408
 42
0.0005452533
 10
1225.681580709469
 20
1041.727713430409
 42
0.0002628962
 10
1226.370180709469
 20
1036.419013430409
 42
0.0001372586
  0
LINE
  5
D62
330
1F
100
AcDbEntity
  8
KONTUR
100
AcDbLine
 10
1488.429780709469
 20
1185.325513430409
 30
0.0
 11
1239.914980709469
 21
1185.325513430409
 31
0.0
  0
LWPOLYLINE
  5
D63
330
1F
100
AcDbEntity
  8
KONTUR
100
AcDbPolyline
 90
       11
 70
     0
 43
0.0
 10
1237.793680709469
 20
1184.485213430408
 10
1237.934780709469
 20
1184.611413430408
 42
-0.016643709
 10
1238.084280709469
 20
1184.729313430409
 42
-0.01499676
 10
1238.242080709469
 20
1184.838613430409
 42
-0.016075388
 10
1238.411080709469
 20
1184.938913430408
 42
-0.019333835
 10
1238.592080709469
 20
1185.028813430409
 42
-0.014994608
 10
1238.766980709469
 20
1185.107113430408
 42
-0.0058238446
 10
1238.929180709469
 20
1185.172413430408
 42
-0.020397907
 10
1239.142880709469
 20
1185.228813430409
 42
-0.03480327
 10
1239.476080709469
 20
1185.280013430408
 42
-0.017342305
 10
1239.914980709469
 20
1185.325513430409
 42
-0.0091880673
  0
LINE
  5
D7D
330
1F
100
AcDbEntity
  8
KONTUR
100
AcDbLine
 10
1237.793680709469
 20
1184.485213430408
 30
0.0
 11
1229.550980709469
 21
1176.602713430409
 31
0.0
  0
LINE
  5
D80
330
1F
100
AcDbEntity
  8
KONTUR
100
AcDbLine
 10
1498.793680709469
 20
1176.602713430409
 30
0.0
 11
1490.550980709469
 21
1184.485213430408
 31
0.0
  0
LINE
  5
D81
330
1F
100
AcDbEntity
  8
KONTUR
100
AcDbLine
 10
1501.672380709469
 20
1137.114313430408
 30
0.0
 11
1504.672380709469
 21
1137.114313430408
 31
0.0
  0
LINE
  5
D82
330
1F
100
AcDbEntity
  8
KONTUR
100
AcDbLine
 10
1504.672380709469
 20
1137.114313430408
 30
0.0
 11
1504.672380709469
 21
1132.332713430409
 31
0.0
  0
LINE
  5
D83
330
1F
100
AcDbEntity
  8
KONTUR
100
AcDbLine
 10
1504.672380709469
 20
1132.332713430409
 30
0.0
 11
1501.672380709469
 21
1132.332713430409
 31
0.0
  0
LINE
  5
D84
330
1F
100
AcDbEntity
  8
KONTUR
100
AcDbLine
 10
1226.672380709469
 20
1132.332713430409
 30
0.0
 11
1223.672380709469
 21
1132.332813430408
 31
0.0
  0
LINE
  5
D85
330
1F
100
AcDbEntity
  8
KONTUR
100
AcDbLine
 10
1223.672380709469
 20
1132.332813430408
 30
0.0
 11
1223.672380709469
 21
1137.114313430408
 31
0.0
  0
LINE
  5
D86
330
1F
100
AcDbEntity
  8
KONTUR
100
AcDbLine
 10
1223.672380709469
 20
1137.114313430408
 30
0.0
 11
1226.672380709469
 21
1137.114313430408
 31
0.0
  0
LWPOLYLINE
  5
D87
330
1F
100
AcDbEntity
  8
KONTUR
100
AcDbPolyline
 90
       11
 70
     0
 43
0.0
 10
1488.429780709469
 20
1185.325513430409
 10
1488.622880709469
 20
1185.319413430409
 42
-0.015981489
 10
1488.815680709469
 20
1185.301613430408
 42
-0.014489639
 10
1489.008080709469
 20
1185.272213430409
 42
-0.015636224
 10
1489.201780709469
 20
1185.228813430409
 42
-0.018958534
 10
1489.396180709469
 20
1185.170013430409
 42
-0.014837695
 10
1489.577780709469
 20
1185.107113430408
 42
-0.0057921236
 10
1489.740780709469
 20
1185.043513430408
 42
-0.020383703
 10
1489.933680709469
 20
1184.938913430408
 42
-0.035311341
 10
1490.206980709469
 20
1184.749813430408
 42
-0.017825045
 10
1490.550980709469
 20
1184.485213430408
 42
-0.0094971209
  0
LWPOLYLINE
  5
DA1
330
1F
100
AcDbEntity
  8
KONTUR
100
AcDbPolyline
 90
       11
 70
     0
 43
0.0
 10
1498.793680709469
 20
1176.602713430409
 10
1498.925680709469
 20
1176.467813430409
 42
-0.016743766
 10
1499.048980709469
 20
1176.324813430409
 42
-0.015255199
 10
1499.163280709469
 20
1176.173913430408
 42
-0.01653045
 10
1499.268180709469
 20
1176.012313430409
 42
-0.020116516
 10
1499.362180709469
 20
1175.839213430409
 42
-0.015785612
 10
1499.443980709469
 20
1175.671913430408
 42
-0.006167369
 10
1499.512280709469
 20
1175.516813430409
 42
-0.021712959
 10
1499.571280709469
 20
1175.312413430408
 42
-0.037564497
 10
1499.624780709469
 20
1174.993813430408
 42
-0.018876439
 10
1499.672380709469
 20
1174.574013430408
 42
-0.010025651
  0
LWPOLYLINE
  5
DBB
330
1F
100
AcDbEntity
  8
KONTUR
100
AcDbPolyline
 90
       11
 70
     0
 43
0.0
 10
1228.672380709469
 20
1174.574013430408
 10
1228.678780709469
 20
1174.758713430409
 42
-0.017471304
 10
1228.697280709469
 20
1174.943213430408
 42
-0.01581775
 10
1228.728080709469
 20
1175.127113430408
 42
-0.017021536
 10
1228.773380709469
 20
1175.312413430408
 42
-0.020539111
 10
1228.834880709469
 20
1175.498313430408
 42
-0.015963145
 10
1228.900680709469
 20
1175.671913430408
 42
-0.0062033087
 10
1228.967180709469
 20
1175.827813430409
 42
-0.021729059
 10
1229.076580709469
 20
1176.012313430409
 42
-0.036990719
 10
1229.274280709469
 20
1176.273713430408
 42
-0.018336494
 10
1229.550980709469
 20
1176.602713430409
 42
-0.0096822081
  0
LINE
  5
DD5
330
1F
100
AcDbEntity
  8
KONTUR
100
AcDbLine
 10
1239.914980709469
 20
1183.412813430409
 30
0.0
 11
1488.429780709469
 21
1183.412813430409
 31
0.0
  0
LWPOLYLINE
  5
DD6
330
1F
100
AcDbEntity
  8
KONTUR
100
AcDbPolyline
 90
       11
 70
     0
 43
0.0
 10
1239.914980709469
 20
1183.412813430409
 10
1239.850580709469
 20
1183.410813430408
 42
0.01598363
 10
1239.786280709469
 20
1183.404913430408
 42
0.014491809
 10
1239.722180709469
 20
1183.395113430408
 42
0.015638779
 10
1239.657680709469
 20
1183.380613430409
 42
0.018961874
 10
1239.592780709469
 20
1183.361013430409
 42
0.014840457
 10
1239.532280709469
 20
1183.340013430408
 42
0.0057932233
 10
1239.477980709469
 20
1183.318913430408
 42
0.020387623
 10
1239.413680709469
 20
1183.284013430408
 42
0.035318142
 10
1239.322580709469
 20
1183.221013430408
 42
0.017828308
 10
1239.207880709469
 20
1183.132713430408
 42
0.0094987877
  0
LINE
  5
DE3
330
1F
100
AcDbEntity
  8
KONTUR
100
AcDbLine
 10
1489.136780709469
 20
1183.132713430408
 30
0.0
 11
1497.379480709469
 21
1175.250313430408
 31
0.0
  0
LWPOLYLINE
  5
DE4
330
1F
100
AcDbEntity
  8
KONTUR
100
AcDbPolyline
 90
       11
 70
     0
 43
0.0
 10
1489.136780709469
 20
1183.132713430408
 10
1489.089780709469
 20
1183.174813430408
 42
0.016646393
 10
1489.039980709469
 20
1183.214113430409
 42
0.014999359
 10
1488.987380709469
 20
1183.250613430409
 42
0.016078325
 10
1488.930980709469
 20
1183.284013430408
 42
0.019337509
 10
1488.870680709469
 20
1183.314013430409
 42
0.014997511
 10
1488.812380709469
 20
1183.340013430408
 42
0.005824973
 10
1488.758280709469
 20
1183.361813430408
 42
0.020401839
 10
1488.687080709469
 20
1183.380613430409
 42
0.034809613
 10
1488.576080709469
 20
1183.397713430408
 42
0.017345147
 10
1488.429780709469
 20
1183.412813430409
 42
0.0091894703
  0
LINE
  5
DF1
330
1F
100
AcDbEntity
  8
KONTUR
100
AcDbLine
 10
1499.672380709469
 20
1132.728713430408
 30
0.0
 11
1499.672380709469
 21
1174.574113430408
 31
0.0
  0
LINE
  5
DF2
330
1F
100
AcDbEntity
  8
KONTUR
100
AcDbLine
 10
1497.672380709469
 20
1174.574113430408
 30
0.0
 11
1497.672380709469
 21
1132.728713430408
 31
0.0
  0
LWPOLYLINE
  5
DF3
330
1F
100
AcDbEntity
  8
KONTUR
100
AcDbPolyline
 90
       11
 70
     0
 43
0.0
 10
1497.672380709469
 20
1174.574013430408
 10
1497.670280709469
 20
1174.635613430408
 42
0.017469125
 10
1497.664080709469
 20
1174.697113430409
 42
0.015815687
 10
1497.653780709469
 20
1174.758413430408
 42
0.017019257
 10
1497.638680709469
 20
1174.820213430408
 42
0.020536338
 10
1497.618180709469
 20
1174.882113430408
 42
0.015961023
 10
1497.596280709469
 20
1174.940013430408
 42
0.0062024999
 10
1497.574080709469
 20
1174.992013430408
 42
0.021726296
 10
1497.537580709469
 20
1175.053513430409
 42
0.036986599
 10
1497.471680709469
 20
1175.140613430408
 42
0.018334823
 10
1497.379480709469
 20
1175.250313430408
 42
0.0096814324
  0
LINE
  5
E00
330
1F
100
AcDbEntity
  8
KONTUR
100
AcDbLine
 10
1497.672380709469
 20
1129.190513430408
 30
0.0
 11
1499.672380709469
 21
1129.190513430408
 31
0.0
  0
LINE
  5
E01
330
1F
100
AcDbEntity
  8
KONTUR
100
AcDbLine
 10
1497.672380709469
 20
1132.728713430408
 30
0.0
 11
1497.672380709469
 21
1129.190513430408
 31
0.0
  0
LINE
  5
E02
330
1F
100
AcDbEntity
  8
KONTUR
100
AcDbLine
 10
1504.672380709469
 20
1137.699013430408
 30
0.0
 11
1504.672380709469
 21
1137.114313430408
 31
0.0
  0
LINE
  5
E03
330
1F
100
AcDbEntity
  8
KONTUR
100
AcDbLine
 10
1501.672380709469
 20
1137.699013430408
 30
0.0
 11
1504.672380709469
 21
1137.699013430408
 31
0.0
  0
LWPOLYLINE
  5
E04
330
1F
100
AcDbEntity
  8
KONTUR
100
AcDbPolyline
 90
       11
 70
     0
 43
0.0
 10
1230.672280709469
 20
1174.574013430408
 10
1230.674480709469
 20
1174.635613430408
 42
-0.017469125
 10
1230.680680709469
 20
1174.697113430409
 42
-0.015815687
 10
1230.690880709469
 20
1174.758413430408
 42
-0.017019258
 10
1230.705980709469
 20
1174.820213430408
 42
-0.020536339
 10
1230.726480709469
 20
1174.882113430408
 42
-0.015961023
 10
1230.748480709469
 20
1174.940013430408
 42
-0.0062025
 10
1230.770580709469
 20
1174.992013430408
 42
-0.021726297
 10
1230.807080709469
 20
1175.053513430409
 42
-0.0369866
 10
1230.872980709469
 20
1175.140613430408
 42
-0.018334823
 10
1230.965280709469
 20
1175.250313430408
 42
-0.0096814327
  0
LINE
  5
E11
330
1F
100
AcDbEntity
  8
KONTUR
100
AcDbLine
 10
1223.672380709469
 20
1137.699013430408
 30
0.0
 11
1226.672380709469
 21
1137.699013430408
 31
0.0
  0
LINE
  5
E12
330
1F
100
AcDbEntity
  8
KONTUR
100
AcDbLine
 10
1239.207880709469
 20
1183.132713430408
 30
0.0
 11
1230.965280709469
 21
1175.250313430408
 31
0.0
  0
LINE
  5
E13
330
1F
100
AcDbEntity
  8
KONTUR
100
AcDbLine
 10
1223.672380709469
 20
1137.699013430408
 30
0.0
 11
1223.672380709469
 21
1137.114313430408
 31
0.0
  0
LINE
  5
E14
330
1F
100
AcDbEntity
  8
KONTUR
100
AcDbLine
 10
1228.672380709469
 20
1129.190513430408
 30
0.0
 11
1230.672280709469
 21
1129.190513430408
 31
0.0
  0
LINE
  5
E15
330
1F
100
AcDbEntity
  8
KONTUR
100
AcDbLine
 10
1230.672380709469
 20
1132.728713430408
 30
0.0
 11
1230.672280709469
 21
1129.190513430408
 31
0.0
  0
LINE
  5
E16
330
1F
100
AcDbEntity
  8
KONTUR
100
AcDbLine
 10
1228.672380709469
 20
1174.574113430408
 30
0.0
 11
1228.672380709469
 21
1132.728713430408
 31
0.0
  0
LINE
  5
E17
330
1F
100
AcDbEntity
  8
KONTUR
100
AcDbLine
 10
1230.672280709469
 20
1174.574013430408
 30
0.0
 11
1230.672380709469
 21
1132.728713430408
 31
0.0
  0
LINE
  5
E2C
330
1F
100
AcDbEntity
  8
KONTUR
100
AcDbLine
 10
2962.221480709469
 20
2120.66186012292
 30
0.0
 11
2962.221480709469
 21
2110.66176012292
 31
0.0
  0
LINE
  5
E2D
330
1F
100
AcDbEntity
  8
KONTUR
100
AcDbLine
 10
3239.721580709469
 20
2110.66176012292
 30
0.0
 11
3239.721480709469
 21
2120.66186012292
 31
0.0
  0
LINE
  5
E2E
330
1F
100
AcDbEntity
  8
KONTUR
100
AcDbLine
 10
2963.471480709469
 20
1520.66186012292
 30
0.0
 11
2965.221480709469
 21
1520.66186012292
 31
0.0
  0
LINE
  5
E2F
330
1F
100
AcDbEntity
  8
KONTUR
100
AcDbLine
 10
2965.221480709469
 20
1520.66186012292
 30
0.0
 11
3236.721480709469
 21
1520.66186012292
 31
0.0
  0
LINE
  5
E30
330
1F
100
AcDbEntity
  8
KONTUR
100
AcDbLine
 10
3236.721480709469
 20
1520.66186012292
 30
0.0
 11
3238.471480709469
 21
1520.66186012292
 31
0.0
  0
LINE
  5
E31
330
1F
100
AcDbEntity
  8
KONTUR
100
AcDbLine
 10
2963.471480709469
 20
1521.91186012292
 30
0.0
 11
2965.221480709469
 21
1521.91186012292
 31
0.0
  0
LINE
  5
E32
330
1F
100
AcDbEntity
  8
KONTUR
100
AcDbLine
 10
3236.721480709469
 20
1521.91186012292
 30
0.0
 11
3238.471480709469
 21
1521.91186012292
 31
0.0
  0
LINE
  5
E33
330
1F
100
AcDbEntity
  8
KONTUR
100
AcDbLine
 10
3238.471480709469
 20
1520.66186012292
 30
0.0
 11
3238.471480709469
 21
1525.66186012292
 31
0.0
  0
LINE
  5
E34
330
1F
100
AcDbEntity
  8
KONTUR
100
AcDbLine
 10
3238.471480709469
 20
1525.66186012292
 30
0.0
 11
3238.471480709469
 21
1527.16186012292
 31
0.0
  0
LINE
  5
E35
330
1F
100
AcDbEntity
  8
KONTUR
100
AcDbLine
 10
3238.471480709469
 20
1527.16186012292
 30
0.0
 11
3238.471480709469
 21
1528.66186012292
 31
0.0
  0
LINE
  5
E36
330
1F
100
AcDbEntity
  8
KONTUR
100
AcDbLine
 10
3238.471480709469
 20
1528.66186012292
 30
0.0
 11
3238.471480709469
 21
1529.91186012292
 31
0.0
  0
LINE
  5
E37
330
1F
100
AcDbEntity
  8
KONTUR
100
AcDbLine
 10
2963.471480709469
 20
1529.91186012292
 30
0.0
 11
2963.471480709469
 21
1528.66186012292
 31
0.0
  0
LINE
  5
E38
330
1F
100
AcDbEntity
  8
KONTUR
100
AcDbLine
 10
2963.471480709469
 20
1528.66186012292
 30
0.0
 11
2963.471480709469
 21
1527.16186012292
 31
0.0
  0
LINE
  5
E39
330
1F
100
AcDbEntity
  8
KONTUR
100
AcDbLine
 10
2963.471480709469
 20
1527.16186012292
 30
0.0
 11
2963.471480709469
 21
1525.66186012292
 31
0.0
  0
LINE
  5
E3A
330
1F
100
AcDbEntity
  8
KONTUR
100
AcDbLine
 10
2963.471480709469
 20
1525.66186012292
 30
0.0
 11
2963.471480709469
 21
1520.66186012292
 31
0.0
  0
LINE
  5
E3B
330
1F
100
AcDbEntity
  8
KONTUR
100
AcDbLine
 10
2963.471480709469
 20
1520.66186012292
 30
0.0
 11
2962.221480709469
 21
1520.66186012292
 31
0.0
  0
LINE
  5
E3C
330
1F
100
AcDbEntity
  8
KONTUR
100
AcDbLine
 10
2963.471480709469
 20
1528.66186012292
 30
0.0
 11
2962.221480709469
 21
1528.66186012292
 31
0.0
  0
LINE
  5
E3D
330
1F
100
AcDbEntity
  8
KONTUR
100
AcDbLine
 10
2965.221480709469
 20
1529.91186012292
 30
0.0
 11
2964.471480709469
 21
1529.91186012292
 31
0.0
  0
LINE
  5
E3E
330
1F
100
AcDbEntity
  8
KONTUR
100
AcDbLine
 10
2965.221480709469
 20
1525.66186012292
 30
0.0
 11
2965.221480709469
 21
1529.91186012292
 31
0.0
  0
LINE
  5
E3F
330
1F
100
AcDbEntity
  8
KONTUR
100
AcDbLine
 10
3236.721480709469
 20
1529.91186012292
 30
0.0
 11
3236.721480709469
 21
1525.66186012292
 31
0.0
  0
LINE
  5
E40
330
1F
100
AcDbEntity
  8
KONTUR
100
AcDbLine
 10
3237.471480709469
 20
1529.91186012292
 30
0.0
 11
3236.721480709469
 21
1529.91186012292
 31
0.0
  0
LINE
  5
E41
330
1F
100
AcDbEntity
  8
KONTUR
100
AcDbLine
 10
3238.471480709469
 20
1528.66186012292
 30
0.0
 11
3239.721480709469
 21
1528.66186012292
 31
0.0
  0
LINE
  5
E42
330
1F
100
AcDbEntity
  8
KONTUR
100
AcDbLine
 10
3238.471480709469
 20
1520.66186012292
 30
0.0
 11
3239.721480709469
 21
1520.66186012292
 31
0.0
  0
LINE
  5
E43
330
1F
100
AcDbEntity
  8
KONTUR
100
AcDbLine
 10
2964.471480709469
 20
2120.66186012292
 30
0.0
 11
3237.471480709469
 21
2120.66186012292
 31
0.0
  0
ARC
  5
E44
330
1F
100
AcDbEntity
  8
KONTUR
100
AcDbCircle
 10
3000.971480709469
 20
1620.66116012292
 30
0.0
 40
2.5
100
AcDbArc
 50
0.0
 51
180.0000000000004
  0
LINE
  5
E45
330
1F
100
AcDbEntity
  8
KONTUR
100
AcDbLine
 10
2998.471480709469
 20
1620.66116012292
 30
0.0
 11
2998.471480709469
 21
1618.61556012292
 31
0.0
  0
ARC
  5
E46
330
1F
100
AcDbEntity
  8
KONTUR
100
AcDbCircle
 10
3000.971480709469
 20
1613.16116012292
 30
0.0
 40
6.0000002
100
AcDbArc
 50
114.6243200000003
 51
65.37568000000094
  0
LINE
  5
E47
330
1F
100
AcDbEntity
  8
KONTUR
100
AcDbLine
 10
3003.471480709469
 20
1618.61556012292
 30
0.0
 11
3003.471480709469
 21
1620.66116012292
 31
0.0
  0
ARC
  5
E48
330
1F
100
AcDbEntity
  8
KONTUR
100
AcDbCircle
 10
3200.971480709469
 20
1620.66116012292
 30
0.0
 40
2.5
100
AcDbArc
 50
0.0
 51
180.0000000000004
  0
LINE
  5
E49
330
1F
100
AcDbEntity
  8
KONTUR
100
AcDbLine
 10
3198.471480709469
 20
1620.66116012292
 30
0.0
 11
3198.471480709469
 21
1618.61556012292
 31
0.0
  0
ARC
  5
E4A
330
1F
100
AcDbEntity
  8
KONTUR
100
AcDbCircle
 10
3200.971480709469
 20
1613.16116012292
 30
0.0
 40
6.0000003
100
AcDbArc
 50
114.6243200000003
 51
65.37568000000094
  0
LINE
  5
E4B
330
1F
100
AcDbEntity
  8
KONTUR
100
AcDbLine
 10
3203.471480709469
 20
1618.61556012292
 30
0.0
 11
3203.471480709469
 21
1620.66116012292
 31
0.0
  0
ARC
  5
E4C
330
1F
100
AcDbEntity
  8
KONTUR
100
AcDbCircle
 10
3200.971480709469
 20
2070.66116012292
 30
0.0
 40
2.5
100
AcDbArc
 50
0.0
 51
180.0000000000004
  0
LINE
  5
E4D
330
1F
100
AcDbEntity
  8
KONTUR
100
AcDbLine
 10
3198.471480709469
 20
2070.66116012292
 30
0.0
 11
3198.471480709469
 21
2068.61556012292
 31
0.0
  0
ARC
  5
E4E
330
1F
100
AcDbEntity
  8
KONTUR
100
AcDbCircle
 10
3200.971480709469
 20
2063.16116012292
 30
0.0
 40
6.0
100
AcDbArc
 50
114.6243200000003
 51
65.37568000000094
  0
LINE
  5
E4F
330
1F
100
AcDbEntity
  8
KONTUR
100
AcDbLine
 10
3203.471480709469
 20
2068.61556012292
 30
0.0
 11
3203.471480709469
 21
2070.66116012292
 31
0.0
  0
ARC
  5
E50
330
1F
100
AcDbEntity
  8
KONTUR
100
AcDbCircle
 10
3000.971480709469
 20
2070.66116012292
 30
0.0
 40
2.5
100
AcDbArc
 50
0.0
 51
180.0000000000004
  0
LINE
  5
E51
330
1F
100
AcDbEntity
  8
KONTUR
100
AcDbLine
 10
2998.471480709469
 20
2070.66116012292
 30
0.0
 11
2998.471480709469
 21
2068.61556012292
 31
0.0
  0
ARC
  5
E52
330
1F
100
AcDbEntity
  8
KONTUR
100
AcDbCircle
 10
3000.971480709469
 20
2063.16116012292
 30
0.0
 40
5.999999900000001
100
AcDbArc
 50
114.6243200000003
 51
65.37568000000094
  0
LINE
  5
E53
330
1F
100
AcDbEntity
  8
KONTUR
100
AcDbLine
 10
3003.471480709469
 20
2068.61556012292
 30
0.0
 11
3003.471480709469
 21
2070.66116012292
 31
0.0
  0
LINE
  5
E54
330
1F
100
AcDbEntity
  8
KONTUR
100
AcDbLine
 10
2964.471480709469
 20
2120.66186012292
 30
0.0
 11
2962.221480709469
 21
2120.66186012292
 31
0.0
  0
LINE
  5
E55
330
1F
100
AcDbEntity
  8
KONTUR
100
AcDbLine
 10
2962.221480709469
 20
1529.91186012292
 30
0.0
 11
2964.471480709469
 21
1529.91186012292
 31
0.0
  0
LINE
  5
E56
330
1F
100
AcDbEntity
  8
KONTUR
100
AcDbLine
 10
3237.471480709469
 20
1529.91186012292
 30
0.0
 11
3239.721480709469
 21
1529.91186012292
 31
0.0
  0
LINE
  5
E57
330
1F
100
AcDbEntity
  8
KONTUR
100
AcDbLine
 10
3239.721480709469
 20
2120.66186012292
 30
0.0
 11
3237.471480709469
 21
2120.66186012292
 31
0.0
  0
LINE
  5
E58
330
1F
100
AcDbEntity
  8
KONTUR
100
AcDbLine
 10
2965.221480709469
 20
1525.66186012292
 30
0.0
 11
2965.221480709469
 21
1520.66186012292
 31
0.0
  0
LINE
  5
E59
330
1F
100
AcDbEntity
  8
KONTUR
100
AcDbLine
 10
3236.721480709469
 20
1520.66186012292
 30
0.0
 11
3236.721480709469
 21
1525.66186012292
 31
0.0
  0
LINE
  5
E96
330
1F
100
AcDbEntity
  8
KONTUR
100
AcDbLine
 10
2958.471580709469
 20
2120.66186012292
 30
0.0
 11
2953.133980709469
 21
2120.66186012292
 31
0.0
  0
ARC
  5
E97
330
1F
100
AcDbEntity
  8
KONTUR
100
AcDbCircle
 10
2958.471480709469
 20
2118.16186012292
 30
0.0
 40
2.5
100
AcDbArc
 50
0.0
 51
89.9984350000002
  0
LINE
  5
E98
330
1F
100
AcDbEntity
  8
KONTUR
100
AcDbLine
 10
2960.971480709469
 20
2112.161860122919
 30
0.0
 11
2960.971480709469
 21
2118.16186012292
 31
0.0
  0
LINE
  5
E99
330
1F
100
AcDbEntity
  8
KONTUR
100
AcDbLine
 10
2959.971480709469
 20
2112.161860122919
 30
0.0
 11
2960.971480709469
 21
2112.161860122919
 31
0.0
  0
ARC
  5
E9A
330
1F
100
AcDbEntity
  8
KONTUR
100
AcDbCircle
 10
2959.971480709469
 20
2111.41186012292
 30
0.0
 40
0.74999993
100
AcDbArc
 50
89.99998300000021
 51
270.0000000000006
  0
LINE
  5
E9B
330
1F
100
AcDbEntity
  8
KONTUR
100
AcDbLine
 10
2960.971480709469
 20
2110.66186012292
 30
0.0
 11
2962.221480709469
 21
2110.66176012292
 31
0.0
  0
LINE
  5
E9C
330
1F
100
AcDbEntity
  8
KONTUR
100
AcDbLine
 10
2953.397680709469
 20
1520.66186012292
 30
0.0
 11
2959.971180709469
 21
1520.66186012292
 31
0.0
  0
LINE
  5
E9D
330
1F
100
AcDbEntity
  8
KONTUR
100
AcDbLine
 10
2959.971180709469
 20
1520.66186012292
 30
0.0
 11
2959.971180709469
 21
1520.66186012292
 31
0.0
  0
LINE
  5
E9E
330
1F
100
AcDbEntity
  8
KONTUR
100
AcDbLine
 10
2962.221480709469
 20
1520.66186012292
 30
0.0
 11
2960.971480709469
 21
1520.66186012292
 31
0.0
  0
LINE
  5
E9F
330
1F
100
AcDbEntity
  8
KONTUR
100
AcDbLine
 10
3241.971580709469
 20
1520.66186012292
 30
0.0
 11
3248.545380709469
 21
1520.66186012292
 31
0.0
  0
LINE
  5
EA0
330
1F
100
AcDbEntity
  8
KONTUR
100
AcDbLine
 10
3240.971480709469
 20
1520.66186012292
 30
0.0
 11
3239.721480709469
 21
1520.66186012292
 31
0.0
  0
LINE
  5
EA1
330
1F
100
AcDbEntity
  8
KONTUR
100
AcDbLine
 10
2962.221480709469
 20
2108.16186012292
 30
0.0
 11
2962.221480709469
 21
2110.66176012292
 31
0.0
  0
LINE
  5
EA2
330
1F
100
AcDbEntity
  8
KONTUR
100
AcDbLine
 10
2962.221480709469
 20
1525.66186012292
 30
0.0
 11
2962.221480709469
 21
1520.66186012292
 31
0.0
  0
LINE
  5
EA3
330
1F
100
AcDbEntity
  8
KONTUR
100
AcDbLine
 10
2962.221480709469
 20
1525.66186012292
 30
0.0
 11
2962.221480709469
 21
2108.16186012292
 31
0.0
  0
LINE
  5
EA4
330
1F
100
AcDbEntity
  8
KONTUR
100
AcDbLine
 10
3239.721480709469
 20
1520.66186012292
 30
0.0
 11
3239.721480709469
 21
1525.66186012292
 31
0.0
  0
LINE
  5
EA5
330
1F
100
AcDbEntity
  8
KONTUR
100
AcDbLine
 10
3239.721480709469
 20
2108.16186012292
 30
0.0
 11
3239.721580709469
 21
2110.66176012292
 31
0.0
  0
LINE
  5
EA6
330
1F
100
AcDbEntity
  8
KONTUR
100
AcDbLine
 10
3239.721480709469
 20
2108.16186012292
 30
0.0
 11
3239.721480709469
 21
1525.66186012292
 31
0.0
  0
LINE
  5
EA7
330
1F
100
AcDbEntity
  8
KONTUR
100
AcDbLine
 10
3240.971480709469
 20
2110.66186012292
 30
0.0
 11
3239.721580709469
 21
2110.66176012292
 31
0.0
  0
ARC
  5
EA8
330
1F
100
AcDbEntity
  8
KONTUR
100
AcDbCircle
 10
3241.971480709469
 20
2111.41186012292
 30
0.0
 40
0.75
100
AcDbArc
 50
270.0000000000006
 51
90.00000000000104
  0
LINE
  5
EA9
330
1F
100
AcDbEntity
  8
KONTUR
100
AcDbLine
 10
3240.971480709469
 20
2112.161860122919
 30
0.0
 11
3241.971480709469
 21
2112.161860122919
 31
0.0
  0
LINE
  5
EAA
330
1F
100
AcDbEntity
  8
KONTUR
100
AcDbLine
 10
3240.971480709469
 20
2118.16186012292
 30
0.0
 11
3240.971480709469
 21
2112.161860122919
 31
0.0
  0
LINE
  5
EAB
330
1F
100
AcDbEntity
  8
KONTUR
100
AcDbLine
 10
3248.808680709469
 20
2120.66186012292
 30
0.0
 11
3243.471180709469
 21
2120.66186012292
 31
0.0
  0
ARC
  5
EAC
330
1F
100
AcDbEntity
  8
KONTUR
100
AcDbCircle
 10
3243.471480709469
 20
2118.16186012292
 30
0.0
 40
2.499988
100
AcDbArc
 50
90.0084730000002
 51
180.0000000000004
  0
LINE
  5
EAD
330
1F
100
AcDbEntity
  8
KONTUR
100
AcDbLine
 10
3240.971480709469
 20
2110.66186012292
 30
0.0
 11
3240.971480709469
 21
2108.16186012292
 31
0.0
  0
LINE
  5
EAE
330
1F
100
AcDbEntity
  8
KONTUR
100
AcDbLine
 10
3240.971480709469
 20
2108.16186012292
 30
0.0
 11
3240.971480709469
 21
1525.66186012292
 31
0.0
  0
LINE
  5
EAF
330
1F
100
AcDbEntity
  8
KONTUR
100
AcDbLine
 10
3240.971480709469
 20
1525.66186012292
 30
0.0
 11
3240.971480709469
 21
1520.66186012292
 31
0.0
  0
LINE
  5
EB0
330
1F
100
AcDbEntity
  8
KONTUR
100
AcDbLine
 10
2960.971480709469
 20
1520.66186012292
 30
0.0
 11
2960.971480709469
 21
1525.66186012292
 31
0.0
  0
LINE
  5
EB1
330
1F
100
AcDbEntity
  8
KONTUR
100
AcDbLine
 10
2960.971480709469
 20
1525.66186012292
 30
0.0
 11
2960.971480709469
 21
2108.16186012292
 31
0.0
  0
LINE
  5
EB2
330
1F
100
AcDbEntity
  8
KONTUR
100
AcDbLine
 10
2960.971480709469
 20
2108.16186012292
 30
0.0
 11
2960.971480709469
 21
2110.66186012292
 31
0.0
  0
CIRCLE
  5
EB3
330
1F
100
AcDbEntity
  8
KONTUR
100
AcDbCircle
 10
2956.552980709469
 20
2080.66186012292
 30
0.0
 40
2.05
  0
LWPOLYLINE
  5
EB4
330
1F
100
AcDbEntity
  8
KONTUR
100
AcDbPolyline
 90
       31
 70
     0
 43
0.0
 10
2953.133980709469
 20
2120.66186012292
 10
2953.111380709469
 20
2120.661460122919
 42
0.0046934322
 10
2953.079180709469
 20
2120.66066012292
 42
0.0023104522
 10
2953.036880709469
 20
2120.65916012292
 42
0.0013308448
 10
2952.985480709469
 20
2120.65726012292
 42
0.000922844
 10
2952.925780709469
 20
2120.654760122919
 42
0.0007044507
 10
2952.858780709469
 20
2120.65186012292
 42
0.0005847857
 10
2952.784780709469
 20
2120.64836012292
 42
0.0005076998
 10
2952.704880709469
 20
2120.64456012292
 42
0.000470674
 10
2952.619680709469
 20
2120.64026012292
 42
0.0004463044
 10
2952.529880709469
 20
2120.63566012292
 42
0.0004423649
 10
2952.436180709469
 20
2120.63056012292
 42
0.0004424163
 10
2952.339580709469
 20
2120.62526012292
 42
0.0004592226
 10
2952.240680709469
 20
2120.61956012292
 42
0.000479456
 10
2952.139880709469
 20
2120.61356012292
 42
0.0005097938
 10
2952.038080709469
 20
2120.60736012292
 42
0.0005542298
 10
2951.937680709469
 20
2120.60096012292
 42
0.0006666533
 10
2951.841680709469
 20
2120.59446012292
 42
0.0008206951
 10
2951.750680709469
 20
2120.58806012292
 42
0.0010097109
 10
2951.665280709469
 20
2120.58166012292
 42
0.0012501089
 10
2951.585480709469
 20
2120.57526012292
 42
0.001566885
 10
2951.511480709469
 20
2120.568760122919
 42
0.0018947664
 10
2951.443480709469
 20
2120.56216012292
 42
0.002241984
 10
2951.381780709469
 20
2120.55566012292
 42
0.0030658424
 10
2951.326280709469
 20
2120.54886012292
 42
0.004637603
 10
2951.277480709469
 20
2120.54186012292
 42
0.0052344962
 10
2951.235480709469
 20
2120.53506012292
 42
0.0039954287
 10
2951.201180709469
 20
2120.52856012292
 42
0.011227288
 10
2951.173280709469
 20
2120.520760122919
 42
0.035099051
 10
2951.150980709469
 20
2120.50966012292
 42
0.054242132
 10
2951.134380709469
 20
2120.49576012292
 42
0.06611548
  0
LWPOLYLINE
  5
ED5
330
1F
100
AcDbEntity
  8
KONTUR
100
AcDbPolyline
 90
       15
 70
     0
 43
0.0
 10
2980.516880709469
 20
1520.66176012292
 10
2980.491180709469
 20
1520.66176012292
 42
0.0000129128
 10
2980.465480709469
 20
1520.66176012292
 42
0.0000132848
 10
2980.439780709469
 20
1520.66176012292
 42
0.0000129449
 10
2980.414080709469
 20
1520.66176012292
 42
0.0000117322
 10
2980.388380709469
 20
1520.66176012292
 42
0.0000105648
 10
2980.362680709469
 20
1520.66176012292
 42
0.0000093513
 10
2980.337280709469
 20
1520.66176012292
 42
0.0000090293
 10
2980.311380709469
 20
1520.66176012292
 42
0.0000087972
 10
2980.284980709469
 20
1520.66176012292
 42
0.0000066232
 10
2980.260080709469
 20
1520.66176012292
 42
0.000003843
 10
2980.237680709469
 20
1520.66176012292
 42
0.000006346
 10
2980.208880709469
 20
1520.66176012292
 42
0.0000068609
 10
2980.164480709469
 20
1520.66176012292
 42
0.0000031067
 10
2980.106480709469
 20
1520.66176012292
 42
0.0000018646
  0
LWPOLYLINE
  5
EE6
330
1F
100
AcDbEntity
  8
KONTUR
100
AcDbPolyline
 90
       15
 70
     0
 43
0.0
 10
2974.023780709469
 20
1520.66186012292
 10
2973.645780709469
 20
1520.66186012292
 42
-0.0000011561
 10
2973.272080709469
 20
1520.66186012292
 42
-0.0000011786
 10
2972.902780709469
 20
1520.66186012292
 42
-0.0000012101
 10
2972.537480709469
 20
1520.66186012292
 42
-0.0000012459
 10
2972.176180709469
 20
1520.66186012292
 42
-0.0000012314
 10
2971.820580709469
 20
1520.66176012292
 42
-0.0000011712
 10
2971.471580709469
 20
1520.66176012292
 42
-0.0000013106
 10
2971.122380709469
 20
1520.66176012292
 42
-0.0000015876
 10
2970.770880709469
 20
1520.66176012292
 42
-0.000001245
 10
2970.443680709469
 20
1520.66176012292
 42
-0.000000452
 10
2970.150180709469
 20
1520.66176012292
 42
-0.0000017838
 10
2969.785180709469
 20
1520.66186012292
 42
-0.000003223
 10
2969.238680709469
 20
1520.66186012292
 42
-0.0000016668
 10
2968.532380709469
 20
1520.66186012292
 42
-0.0000009094
  0
LWPOLYLINE
  5
EF7
330
1F
100
AcDbEntity
  8
KONTUR
100
AcDbPolyline
 90
       15
 70
     0
 43
0.0
 10
3221.426180709469
 20
1520.66176012292
 10
3217.717980709469
 20
1520.66176012292
 42
0.0000001568
 10
3214.005280709469
 20
1520.66176012292
 42
0.0000001607
 10
3210.288680709469
 20
1520.66176012292
 42
0.000000156
 10
3206.563180709469
 20
1520.66176012292
 42
0.000000141
 10
3202.826880709469
 20
1520.66176012292
 42
0.0000001267
 10
3199.101280709469
 20
1520.66176012292
 42
0.0000001118
 10
3195.393480709469
 20
1520.66176012292
 42
0.0000001077
 10
3191.621080709469
 20
1520.66176012292
 42
0.0000001047
 10
3187.755580709469
 20
1520.66186012292
 42
0.0000000786
 10
3184.123880709469
 20
1520.66186012292
 42
0.0000000454
 10
3180.838480709469
 20
1520.66186012292
 42
0.000000075
 10
3176.611280709469
 20
1520.66186012292
 42
0.0000000809
 10
3170.090480709469
 20
1520.66186012292
 42
0.0000000364
 10
3161.545180709469
 20
1520.66186012292
  0
LWPOLYLINE
  5
F08
330
1F
100
AcDbEntity
  8
KONTUR
100
AcDbPolyline
 90
       15
 70
     0
 43
0.0
 10
3131.289780709469
 20
1520.66186012292
 10
3127.499380709469
 20
1520.66186012292
 10
3123.708680709469
 20
1520.66186012292
 10
3119.918380709469
 20
1520.66186012292
 10
3116.123380709469
 20
1520.66186012292
 10
3112.321980709469
 20
1520.66186012292
 10
3108.535480709469
 20
1520.66186012292
 10
3104.771280709469
 20
1520.66186012292
 10
3100.946280709469
 20
1520.66186012292
 10
3097.032180709469
 20
1520.66186012292
 10
3093.357380709469
 20
1520.66186012292
 10
3090.035080709469
 20
1520.66186012292
 10
3085.770080709469
 20
1520.66186012292
 10
3079.203680709469
 20
1520.66186012292
 10
3070.605980709469
 20
1520.66186012292
  0
LWPOLYLINE
  5
F19
330
1F
100
AcDbEntity
  8
KONTUR
100
AcDbPolyline
 90
       15
 70
     0
 43
0.0
 10
3040.359780709469
 20
1520.66186012292
 10
3036.589880709469
 20
1520.66186012292
 42
0.0000000228
 10
3032.823780709469
 20
1520.66186012292
 42
0.0000000171
 10
3029.062580709469
 20
1520.66186012292
 10
3025.300880709469
 20
1520.66186012292
 42
0.0000000408
 10
3021.537280709469
 20
1520.66186012292
 42
0.0000000497
 10
3017.792380709469
 20
1520.66186012292
 42
0.0000000526
 10
3014.073680709469
 20
1520.66186012292
 42
0.0000000734
 10
3010.299780709469
 20
1520.66176012292
 42
0.0000001111
 10
3006.443080709469
 20
1520.66176012292
 42
0.0000000853
 10
3002.824480709469
 20
1520.66176012292
 42
0.0000000108
 10
2999.555280709469
 20
1520.66176012292
 42
0.0000001562
 10
2995.367980709469
 20
1520.66176012292
 42
0.0000003188
 10
2988.933880709469
 20
1520.66176012292
 42
0.0000001597
 10
2980.516880709469
 20
1520.66176012292
 42
0.0000000821
  0
LWPOLYLINE
  5
F2A
330
1F
100
AcDbEntity
  8
KONTUR
100
AcDbPolyline
 90
       27
 70
     0
 43
0.0
 10
3239.743580709469
 20
1520.66186012292
 10
3239.502680709469
 20
1520.66186012292
 42
-0.0000058209
 10
3239.226980709469
 20
1520.66186012292
 42
-0.0000047483
 10
3238.914780709469
 20
1520.66186012292
 42
-0.0000034268
 10
3238.567980709469
 20
1520.66186012292
 42
-0.0000019879
 10
3238.185680709469
 20
1520.66186012292
 42
-0.0000010831
 10
3237.769580709469
 20
1520.66186012292
 42
-0.0000004223
 10
3237.318580709469
 20
1520.66186012292
 42
-0.0000001069
 10
3236.834780709469
 20
1520.66186012292
 42
0.0000000197
 10
3236.317480709469
 20
1520.66186012292
 42
0.0000000521
 10
3235.768580709469
 20
1520.66186012292
 42
0.0000000229
 10
3235.187680709469
 20
1520.66186012292
 10
3234.576680709469
 20
1520.66186012292
 42
0.0000000187
 10
3233.934880709469
 20
1520.66186012292
 10
3233.264680709469
 20
1520.66186012292
 10
3232.565880709469
 20
1520.66176012292
 10
3231.839280709469
 20
1520.66176012292
 42
0.0000000252
 10
3231.084680709469
 20
1520.66176012292
 10
3230.309380709469
 20
1520.66176012292
 42
-0.0000000343
 10
3229.515580709469
 20
1520.66176012292
 42
0.0000000224
 10
3228.684280709469
 20
1520.66176012292
 42
0.0000001756
 10
3227.808680709469
 20
1520.66176012292
 10
3226.973280709469
 20
1520.66176012292
 42
-0.0000005978
 10
3226.207080709469
 20
1520.66176012292
 42
0.0000007437
 10
3225.186280709469
 20
1520.66176012292
 42
0.000002613
 10
3223.569880709469
 20
1520.66176012292
 42
0.0000012932
 10
3221.426180709469
 20
1520.66176012292
 42
0.0000005926
  0
LINE
  5
F47
330
1F
100
AcDbEntity
  8
KONTUR
100
AcDbLine
 10
3250.508480709469
 20
1520.66186012292
 30
0.0
 11
3250.336580709469
 21
1520.66186012292
 31
0.0
  0
LWPOLYLINE
  5
F48
330
1F
100
AcDbEntity
  8
KONTUR
100
AcDbPolyline
 90
       31
 70
     0
 43
0.0
 10
3250.808680709469
 20
2120.49576012292
 10
3250.807480709469
 20
2120.50016012292
 42
0.16014681
 10
3250.803380709469
 20
2120.50486012292
 42
0.081512735
 10
3250.796380709469
 20
2120.509760122919
 42
0.046563116
 10
3250.785880709469
 20
2120.51476012292
 42
0.032535175
 10
3250.771080709469
 20
2120.52006012292
 42
0.021077098
 10
3250.751580709469
 20
2120.52546012292
 42
0.014559821
 10
3250.726780709469
 20
2120.53106012292
 42
0.010220316
 10
3250.696380709469
 20
2120.53686012292
 42
0.007723309
 10
3250.659580709469
 20
2120.54276012292
 42
0.0059684957
 10
3250.615780709469
 20
2120.54886012292
 42
0.0048724854
 10
3250.564280709469
 20
2120.55506012292
 42
0.0036868939
 10
3250.505980709469
 20
2120.56136012292
 42
0.0028663629
 10
3250.441580709469
 20
2120.56766012292
 42
0.0022909979
 10
3250.371880709469
 20
2120.57396012292
 42
0.0018244524
 10
3250.297080709469
 20
2120.58006012292
 42
0.001502405
 10
3250.217680709469
 20
2120.58626012292
 42
0.0012623732
 10
3250.133580709469
 20
2120.59236012292
 42
0.0010671364
 10
3250.045180709469
 20
2120.59836012292
 42
0.0009021913
 10
3249.952580709469
 20
2120.60446012292
 42
0.0007721781
 10
3249.856080709469
 20
2120.61046012292
 42
0.000664555
 10
3249.755980709469
 20
2120.616460122919
 42
0.0005644738
 10
3249.652280709469
 20
2120.62246012292
 42
0.000455137
 10
3249.544980709469
 20
2120.62846012292
 42
0.0004176989
 10
3249.435480709469
 20
2120.63436012292
 42
0.0004595294
 10
3249.326680709469
 20
2120.64006012292
 42
0.0003473163
 10
3249.225380709469
 20
2120.64536012292
 42
0.000054826
 10
3249.135880709469
 20
2120.64986012292
 42
0.0007016763
 10
3249.043580709469
 20
2120.65406012292
 42
0.0021602451
 10
3248.933680709469
 20
2120.65806012292
 42
0.0018041517
 10
3248.808680709469
 20
2120.66186012292
 42
0.00123256
  0
LWPOLYLINE
  5
F69
330
1F
100
AcDbEntity
  8
KONTUR
100
AcDbPolyline
 90
       27
 70
     0
 43
0.0
 10
3250.545280709469
 20
1520.661260122919
 10
3250.581480709469
 20
1542.08396012292
 42
0.0000642879
 10
3250.611980709469
 20
1563.50656012292
 42
0.000072427
 10
3250.636280709469
 20
1584.929260122919
 42
0.0000644892
 10
3250.656180709469
 20
1606.35186012292
 42
0.000038448
 10
3250.673380709469
 20
1627.774560122919
 42
0.0000239383
 10
3250.688980709469
 20
1649.197260122919
 42
0.000017257
 10
3250.703180709469
 20
1670.619860122919
 42
0.0000144399
 10
3250.716080709469
 20
1692.04256012292
 42
0.0000147672
 10
3250.727780709469
 20
1713.46536012292
 42
0.0000143831
 10
3250.738280709469
 20
1734.887860122919
 42
0.0000131909
 10
3250.747680709469
 20
1756.30986012292
 42
0.0000123106
 10
3250.756080709469
 20
1777.733160122919
 42
0.0000115138
 10
3250.763480709469
 20
1799.15866012292
 42
0.0000107436
 10
3250.770080709469
 20
1820.57846012292
 42
0.000009817
 10
3250.775780709469
 20
1841.99016012292
 42
0.0000090648
 10
3250.780780709469
 20
1863.423860122919
 42
0.0000082487
 10
3250.785080709469
 20
1884.88986012292
 42
0.0000073664
 10
3250.788780709469
 20
1906.269160122919
 42
0.0000063379
 10
3250.791880709469
 20
1927.52056012292
 42
0.0000058058
 10
3250.794680709469
 20
1949.11446012292
 42
0.0000051812
 10
3250.797080709469
 20
1971.212760122919
 42
0.0000038859
 10
3250.799080709469
 20
1991.95976012292
 42
0.0000027339
 10
3250.800580709469
 20
2010.71636012292
 42
0.000002788
 10
3250.802480709469
 20
2034.805160122919
 42
0.0000011651
 10
3250.805180709469
 20
2071.90726012292
 42
0.0000003451
 10
3250.808680709469
 20
2120.49576012292
 42
0.0000003767
  0
LINE
  5
F86
330
1F
100
AcDbEntity
  8
KONTUR
100
AcDbLine
 10
3248.545380709469
 20
1520.66186012292
 30
0.0
 11
3250.545280709469
 21
1520.661260122919
 31
0.0
  0
LINE
  5
F87
330
1F
100
AcDbEntity
  8
KONTUR
100
AcDbLine
 10
2951.397680709469
 20
1520.66136012292
 30
0.0
 11
2953.397680709469
 21
1520.66186012292
 31
0.0
  0
LWPOLYLINE
  5
F88
330
1F
100
AcDbEntity
  8
KONTUR
100
AcDbPolyline
 90
       43
 70
     0
 43
0.0
 10
2951.134380709469
 20
2120.49576012292
 10
2951.134680709469
 20
2106.86316012292
 42
0.0000034819
 10
2951.135280709469
 20
2093.23056012292
 42
0.0000053073
 10
2951.136180709469
 20
2079.59796012292
 42
0.000003527
 10
2951.137080709469
 20
2065.96536012292
 42
-0.0000023138
 10
2951.137880709469
 20
2052.332760122919
 42
-0.000003063
 10
2951.138480709469
 20
2038.700160122919
 42
0.000001088
 10
2951.139280709469
 20
2025.06756012292
 42
0.000003399
 10
2951.140280709469
 20
2011.43496012292
 42
0.0000044598
 10
2951.141580709469
 20
1997.80236012292
 42
0.00000479
 10
2951.143180709469
 20
1984.16976012292
 42
0.0000044741
 10
2951.144880709469
 20
1970.537160122919
 42
0.0000042437
 10
2951.146880709469
 20
1956.90456012292
 42
0.0000040396
 10
2951.149080709469
 20
1943.27196012292
 42
0.0000038458
 10
2951.151580709469
 20
1929.63936012292
 42
0.0000036127
 10
2951.154180709469
 20
1916.00676012292
 42
0.0000034104
 10
2951.156980709469
 20
1902.37416012292
 42
0.0000031878
 10
2951.159880709469
 20
1888.74156012292
 42
0.0000029838
 10
2951.162980709469
 20
1875.10896012292
 42
0.0000027464
 10
2951.166280709469
 20
1861.47636012292
 42
0.0000025586
 10
2951.169680709469
 20
1847.84376012292
 42
0.000002372
 10
2951.173180709469
 20
1834.21106012292
 42
0.0000021184
 10
2951.176780709469
 20
1820.57846012292
 42
0.0000017332
 10
2951.180580709469
 20
1806.94596012292
 42
0.000001824
 10
2951.184380709469
 20
1793.313260122919
 42
0.0000024138
 10
2951.188380709469
 20
1779.680560122919
 42
0.0000034101
 10
2951.192580709469
 20
1766.04806012292
 42
0.0000050676
 10
2951.197180709469
 20
1752.41596012292
 42
0.0000064657
 10
2951.202080709469
 20
1738.78286012292
 42
0.000007959
 10
2951.207480709469
 20
1725.14846012292
 42
0.0000092292
 10
2951.213380709469
 20
1711.51766012292
 42
0.0000106134
 10
2951.219980709469
 20
1697.89206012292
 42
0.0000121211
 10
2951.227280709469
 20
1684.25246012292
 42
0.0000140717
 10
2951.235380709469
 20
1670.592260122919
 42
0.000014775
 10
2951.244280709469
 20
1656.987260122919
 42
0.0000147137
 10
2951.253980709469
 20
1643.463660122919
 42
0.0000182598
 10
2951.264980709469
 20
1629.72206012292
 42
0.0000247207
 10
2951.277680709469
 20
1615.659460122919
 42
0.0000188461
 10
2951.290080709469
 20
1602.45686012292
 42
0.0000040938
 10
2951.301880709469
 20
1590.52086012292
 42
0.0000311566
 10
2951.320180709469
 20
1575.19166012292
 42
0.0000597831
 10
2951.352680709469
 20
1551.58116012292
 42
0.0000296136
 10
2951.397780709469
 20
1520.661260122919
 42
0.0000153643
  0
LINE
  5
FB5
330
1F
100
AcDbEntity
  8
KONTUR
100
AcDbLine
 10
3240.971480709469
 20
2110.66186012292
 30
0.0
 11
3241.971480709469
 21
2110.66186012292
 31
0.0
  0
LINE
  5
FB6
330
1F
100
AcDbEntity
  8
KONTUR
100
AcDbLine
 10
3241.971580709469
 20
1520.66186012292
 30
0.0
 11
3240.971480709469
 21
1520.66186012292
 31
0.0
  0
LINE
  5
FB7
330
1F
100
AcDbEntity
  8
KONTUR
100
AcDbLine
 10
2960.971480709469
 20
1520.66186012292
 30
0.0
 11
2959.971180709469
 21
1520.66186012292
 31
0.0
  0
LINE
  5
FB8
330
1F
100
AcDbEntity
  8
KONTUR
100
AcDbLine
 10
2959.971480709469
 20
2110.66186012292
 30
0.0
 11
2960.971480709469
 21
2110.66186012292
 31
0.0
  0
LINE
  5
FB9
330
1F
100
AcDbEntity
  8
KONTUR
100
AcDbLine
 10
2135.267780709469
 20
2120.661960122919
 30
0.0
 11
2135.267780709469
 21
2108.161960122919
 31
0.0
  0
ARC
  5
FBC
330
1F
100
AcDbEntity
  8
KONTUR
100
AcDbCircle
 10
2142.267780709469
 20
2115.661960122919
 30
0.0
 40
5.0
100
AcDbArc
 50
52.93462500000012
 51
90.0000000000002
  0
LINE
  5
FBD
330
1F
100
AcDbEntity
  8
KONTUR
100
AcDbLine
 10
2137.517780709469
 20
2120.661960122919
 30
0.0
 11
2142.267780709469
 21
2120.661960122919
 31
0.0
  0
CIRCLE
  5
FBE
330
1F
100
AcDbEntity
  8
KONTUR
100
AcDbCircle
 10
2141.517780709469
 20
2115.661960122919
 30
0.0
 40
2.05
  0
LINE
  5
FBF
330
1F
100
AcDbEntity
  8
KONTUR
100
AcDbLine
 10
2137.517780709469
 20
2120.661960122919
 30
0.0
 11
2135.267780709469
 21
2120.661960122919
 31
0.0
  0
CIRCLE
  5
FC0
330
1F
100
AcDbEntity
  8
KONTUR
100
AcDbCircle
 10
2140.267680709469
 20
1525.911960122919
 30
0.0
 40
2.05
  0
LINE
  5
FC2
330
1F
100
AcDbEntity
  8
KONTUR
100
AcDbLine
 10
2140.267680709469
 20
1520.661960122919
 30
0.0
 11
2144.267680709469
 21
1520.661960122919
 31
0.0
  0
ARC
  5
FC3
330
1F
100
AcDbEntity
  8
KONTUR
100
AcDbCircle
 10
2140.267680709469
 20
1525.661960122919
 30
0.0
 40
5.0
100
AcDbArc
 50
180.0000000000004
 51
270.0000000000006
  0
LINE
  5
FC4
330
1F
100
AcDbEntity
  8
KONTUR
100
AcDbLine
 10
2135.267780709469
 20
2108.161960122919
 30
0.0
 11
2135.267680709469
 21
1525.661960122919
 31
0.0
  0
ARC
  5
FC5
330
1F
100
AcDbEntity
  8
KONTUR
100
AcDbCircle
 10
2137.767680709469
 20
2108.161960122919
 30
0.0
 40
2.5
100
AcDbArc
 50
90.0000000000002
 51
179.9999900000004
  0
LINE
  5
FC6
330
1F
100
AcDbEntity
  8
KONTUR
100
AcDbLine
 10
2144.267680709469
 20
2110.661960122919
 30
0.0
 11
2137.767680709469
 21
2110.661960122919
 31
0.0
  0
LINE
  5
FC8
330
1F
100
AcDbEntity
  8
KONTUR
100
AcDbLine
 10
2145.267680709469
 20
1520.661960122919
 30
0.0
 11
2145.267680709469
 21
2120.661960122919
 31
0.0
  0
LWPOLYLINE
  5
FCA
330
1F
100
AcDbEntity
  8
KONTUR
100
AcDbPolyline
 90
       15
 70
     0
 43
0.0
 10
2310.349980709469
 20
2083.69276012292
 10
2310.585180709469
 20
2083.577660122919
 42
-0.000161252
 10
2310.818580709469
 20
2083.463160122919
 42
-0.0001657609
 10
2311.049980709469
 20
2083.349460122919
 42
-0.0001663744
 10
2311.279780709469
 20
2083.236360122919
 42
-0.0001614181
 10
2311.507980709469
 20
2083.12386012292
 42
-0.0001531142
 10
2311.733580709469
 20
2083.01256012292
 42
-0.0001411964
 10
2311.955980709469
 20
2082.90256012292
 42
-0.0001484541
 10
2312.179980709469
 20
2082.79176012292
 42
-0.0001650818
 10
2312.406880709469
 20
2082.67916012292
 42
-0.0001272276
 10
2312.618880709469
 20
2082.57396012292
 42
-0.0000561872
 10
2312.809680709469
 20
2082.47926012292
 42
-0.0001598037
 10
2313.050380709469
 20
2082.359360122919
 42
-0.0002518281
 10
2313.415880709469
 20
2082.17706012292
 42
-0.0001247662
 10
2313.891180709469
 20
2081.93966012292
 42
-0.0000687647
  0
LWPOLYLINE
  5
FDB
330
1F
100
AcDbEntity
  8
KONTUR
100
AcDbPolyline
 90
       23
 70
     0
 43
0.0
 10
2316.881880709469
 20
2080.41816012292
 10
2317.257080709469
 20
2080.22526012292
 42
-0.0002520661
 10
2317.623780709469
 20
2080.03626012292
 42
-0.0002711281
 10
2317.981680709469
 20
2079.851260122919
 42
-0.0002768482
 10
2318.331080709469
 20
2079.67016012292
 42
-0.0002648007
 10
2318.671680709469
 20
2079.49316012292
 42
-0.0002591554
 10
2319.003680709469
 20
2079.32016012292
 42
-0.0002544664
 10
2319.326980709469
 20
2079.151360122919
 42
-0.0002511718
 10
2319.641680709469
 20
2078.986560122919
 42
-0.0002437638
 10
2319.947680709469
 20
2078.826060122919
 42
-0.0002385696
 10
2320.244980709469
 20
2078.66966012292
 42
-0.000229833
 10
2320.533480709469
 20
2078.517560122919
 42
-0.0002250787
 10
2320.813580709469
 20
2078.369660122919
 42
-0.0002180104
 10
2321.085080709469
 20
2078.22586012292
 42
-0.0002075996
 10
2321.347480709469
 20
2078.086760122919
 42
-0.0001883836
 10
2321.599880709469
 20
2077.952660122919
 42
-0.0001912607
 10
2321.846480709469
 20
2077.82136012292
 42
-0.000204881
 10
2322.088180709469
 20
2077.69246012292
 42
-0.0001558064
 10
2322.310780709469
 20
2077.57356012292
 42
-0.0000465434
 10
2322.508680709469
 20
2077.46786012292
 42
-0.0001913528
 10
2322.738480709469
 20
2077.34466012292
 42
-0.0004284559
 10
2323.058780709469
 20
2077.17236012292
 42
-0.000258605
 10
2323.458180709469
 20
2076.95716012292
 42
-0.0001487423
  0
LWPOLYLINE
  5
FF4
330
1F
100
AcDbEntity
  8
KONTUR
100
AcDbPolyline
 90
       23
 70
     0
 43
0.0
 10
2324.158280709469
 20
2076.57976012292
 10
2324.238880709469
 20
2076.536060122919
 42
-0.000069063
 10
2324.315980709469
 20
2076.49436012292
 42
-0.0000795886
 10
2324.389480709469
 20
2076.454460122919
 42
-0.0000832391
 10
2324.459580709469
 20
2076.416460122919
 42
-0.000076586
 10
2324.526080709469
 20
2076.380260122919
 42
-0.000073277
 10
2324.589280709469
 20
2076.34596012292
 42
-0.0000702896
 10
2324.648780709469
 20
2076.31366012292
 42
-0.000067642
 10
2324.704980709469
 20
2076.28306012292
 42
-0.0000616481
 10
2324.757680709469
 20
2076.25436012292
 42
-0.0000571677
 10
2324.806980709469
 20
2076.22746012292
 42
-0.0000504263
 10
2324.852780709469
 20
2076.20256012292
 42
-0.0000418956
 10
2324.895280709469
 20
2076.17936012292
 42
-0.000025725
 10
2324.934280709469
 20
2076.15816012292
 42
-0.0000187241
 10
2324.969980709469
 20
2076.13866012292
 42
-0.0000213028
 10
2325.002180709469
 20
2076.12106012292
 42
0.0000331518
 10
2325.031180709469
 20
2076.10536012292
 42
0.000191205
 10
2325.056780709469
 20
2076.091360122919
 42
0.000251824
 10
2325.078880709469
 20
2076.079460122919
 42
0.0001521471
 10
2325.097180709469
 20
2076.06946012292
 42
0.0004477276
 10
2325.113180709469
 20
2076.06096012292
 42
0.0013990013
 10
2325.127880709469
 20
2076.05316012292
 42
0.0018824936
 10
2325.141380709469
 20
2076.046160122919
 42
0.002120558
  0
LWPOLYLINE
  5
100D
330
1F
100
AcDbEntity
  8
KONTUR
100
AcDbPolyline
 90
       23
 70
     0
 43
0.0
 10
2325.141080709469
 20
2076.044560122919
 10
2325.114180709469
 20
2076.06046012292
 42
0.025490806
 10
2325.035080709469
 20
2076.10476012292
 42
0.0022707048
 10
2324.901580709469
 20
2076.17836012292
 42
0.0008865876
 10
2324.715980709469
 20
2076.280160122919
 42
0.0006725568
 10
2324.475980709469
 20
2076.41096012292
 42
0.0005280921
 10
2324.183880709469
 20
2076.56946012292
 42
0.000452688
 10
2323.837580709469
 20
2076.75656012292
 42
0.000401717
 10
2323.439180709469
 20
2076.971060122919
 42
0.0003888863
 10
2322.986480709469
 20
2077.21376012292
 42
0.0003623523
 10
2322.482080709469
 20
2077.483360122919
 42
0.0003487403
 10
2321.923980709469
 20
2077.780660122919
 42
0.0003463681
 10
2321.312780709469
 20
2078.10506012292
 42
0.000367072
 10
2320.646480709469
 20
2078.45756012292
 42
0.0003863366
 10
2319.935780709469
 20
2078.83196012292
 42
0.0004425011
 10
2319.183180709469
 20
2079.22646012292
 42
0.0006048617
 10
2318.367280709469
 20
2079.651160122919
 42
0.0008312683
 10
2317.478180709469
 20
2080.110460122919
 42
0.0005596592
 10
2316.616280709469
 20
2080.554460122919
 42
0.0000220537
 10
2315.814280709469
 20
2080.96656012292
 42
0.0010144246
 10
2314.690980709469
 20
2081.53436012292
 42
0.0018406273
 10
2312.842280709469
 20
2082.456460122919
 42
0.0008111298
 10
2310.349980709469
 20
2083.69276012292
 42
0.0003872158
  0
LWPOLYLINE
  5
1026
330
1F
100
AcDbEntity
  8
KONTUR
100
AcDbPolyline
 90
       15
 70
     0
 43
0.0
 10
2291.764480709469
 20
2092.15986012292
 10
2291.931880709469
 20
2092.08966012292
 42
-0.0002524166
 10
2292.098580709469
 20
2092.01966012292
 42
-0.0002545137
 10
2292.264580709469
 20
2091.949660122919
 42
-0.0002560254
 10
2292.430080709469
 20
2091.87976012292
 42
-0.0002554247
 10
2292.595180709469
 20
2091.80976012292
 42
-0.000245663
 10
2292.758980709469
 20
2091.740160122919
 42
-0.0002282402
 10
2292.921080709469
 20
2091.671160122919
 42
-0.0002469608
 10
2293.085080709469
 20
2091.60106012292
 42
-0.0002865632
 10
2293.252180709469
 20
2091.52946012292
 42
-0.0002191544
 10
2293.408580709469
 20
2091.46226012292
 42
-0.000083753
 10
2293.549680709469
 20
2091.40166012292
 42
-0.0002962568
 10
2293.729280709469
 20
2091.32406012292
 42
-0.000496449
 10
2294.003780709469
 20
2091.20496012292
 42
-0.0002448647
 10
2294.361980709469
 20
2091.04926012292
 42
-0.0001317504
  0
LWPOLYLINE
  5
1037
330
1F
100
AcDbEntity
  8
KONTUR
100
AcDbPolyline
 90
       15
 70
     0
 43
0.0
 10
2296.113580709469
 20
2090.28996012292
 10
2296.209580709469
 20
2090.24776012292
 42
-0.0000429947
 10
2296.305280709469
 20
2090.20566012292
 42
-0.0000406614
 10
2296.400680709469
 20
2090.16366012292
 42
-0.0000434166
 10
2296.495880709469
 20
2090.12176012292
 42
-0.0000518384
 10
2296.590780709469
 20
2090.07996012292
 42
-0.0000549499
 10
2296.684880709469
 20
2090.03846012292
 42
-0.0000543312
 10
2296.777880709469
 20
2089.99736012292
 42
-0.0000671033
 10
2296.871780709469
 20
2089.95596012292
 42
-0.0000912092
 10
2296.967080709469
 20
2089.913760122919
 42
-0.0000706906
 10
2297.056180709469
 20
2089.87436012292
 42
-0.0000161939
 10
2297.136380709469
 20
2089.83886012292
 42
-0.0001171647
 10
2297.237480709469
 20
2089.79406012292
 42
-0.000231752
 10
2297.390480709469
 20
2089.72606012292
 42
-0.0001188307
 10
2297.589280709469
 20
2089.63776012292
 42
-0.0000627293
  0
LWPOLYLINE
  5
1048
330
1F
100
AcDbEntity
  8
KONTUR
100
AcDbPolyline
 90
       23
 70
     0
 43
0.0
 10
2302.415880709469
 20
2087.45986012292
 10
2302.709880709469
 20
2087.32416012292
 42
-0.0001719263
 10
2303.000380709469
 20
2087.18986012292
 42
-0.000168478
 10
2303.287280709469
 20
2087.05706012292
 42
-0.0001800419
 10
2303.570580709469
 20
2086.92556012292
 42
-0.0002092066
 10
2303.849980709469
 20
2086.79556012292
 42
-0.0002156004
 10
2304.125380709469
 20
2086.66726012292
 42
-0.000198064
 10
2304.396180709469
 20
2086.54076012292
 42
-0.0001909878
 10
2304.662580709469
 20
2086.41606012292
 42
-0.0001904486
 10
2304.924380709469
 20
2086.29336012292
 42
-0.000189015
 10
2305.181380709469
 20
2086.17256012292
 42
-0.0001842182
 10
2305.433380709469
 20
2086.05396012292
 42
-0.0001831733
 10
2305.680780709469
 20
2085.93726012292
 42
-0.000182734
 10
2305.923280709469
 20
2085.82266012292
 42
-0.0001775632
 10
2306.160080709469
 20
2085.71066012292
 42
-0.0001660188
 10
2306.390280709469
 20
2085.60146012292
 42
-0.0001768437
 10
2306.618280709469
 20
2085.49316012292
 42
-0.0002004709
 10
2306.844880709469
 20
2085.38526012292
 42
-0.0001604049
 10
2307.054580709469
 20
2085.28526012292
 42
-0.0000742526
 10
2307.241480709469
 20
2085.19616012292
 42
-0.0002062354
 10
2307.468180709469
 20
2085.08766012292
 42
-0.000346263
 10
2307.799780709469
 20
2084.92846012292
 42
-0.000184564
 10
2308.223680709469
 20
2084.72466012292
 42
-0.0001054647
  0
LWPOLYLINE
  5
1061
330
1F
100
AcDbEntity
  8
KONTUR
100
AcDbPolyline
 90
       15
 70
     0
 43
0.0
 10
2191.797780709469
 20
2118.97906012292
 10
2191.892680709469
 20
2118.967260122919
 42
-0.0002629517
 10
2191.987480709469
 20
2118.95546012292
 42
-0.0002140951
 10
2192.082280709469
 20
2118.94346012292
 42
-0.0002618786
 10
2192.177080709469
 20
2118.93146012292
 42
-0.0004168979
 10
2192.272080709469
 20
2118.919160122919
 42
-0.0004898159
 10
2192.366680709469
 20
2118.90676012292
 42
-0.0005094607
 10
2192.460580709469
 20
2118.89416012292
 42
-0.0006925918
 10
2192.556080709469
 20
2118.88106012292
 42
-0.001023633
 10
2192.653680709469
 20
2118.86726012292
 42
-0.0007830987
 10
2192.745280709469
 20
2118.854160122919
 42
-0.0001117151
 10
2192.828080709469
 20
2118.84216012292
 42
-0.0014056527
 10
2192.934280709469
 20
2118.82576012292
 42
-0.0028263846
 10
2193.097580709469
 20
2118.79896012292
 42
-0.0014068751
 10
2193.311480709469
 20
2118.76316012292
 42
-0.0007236973
  0
LWPOLYLINE
  5
1072
330
1F
100
AcDbEntity
  8
KONTUR
100
AcDbPolyline
 90
       15
 70
     0
 43
0.0
 10
2205.440680709469
 20
2117.03216012292
 10
2205.722080709469
 20
2116.98596012292
 42
-0.0002775054
 10
2206.003380709469
 20
2116.93956012292
 42
-0.0002382552
 10
2206.284580709469
 20
2116.89276012292
 42
-0.000276676
 10
2206.565880709469
 20
2116.84566012292
 42
-0.0004009254
 10
2206.847580709469
 20
2116.79796012292
 42
-0.000456702
 10
2207.127980709469
 20
2116.749860122919
 42
-0.0004677193
 10
2207.406680709469
 20
2116.70156012292
 42
-0.000619462
 10
2207.689680709469
 20
2116.651560122919
 42
-0.000895342
 10
2207.979080709469
 20
2116.59936012292
 42
-0.0006844767
 10
2208.250680709469
 20
2116.55006012292
 42
-0.0001104943
 10
2208.496180709469
 20
2116.50496012292
 42
-0.0012040526
 10
2208.810980709469
 20
2116.444560122919
 42
-0.0023951208
 10
2209.295180709469
 20
2116.34796012292
 42
-0.0011910128
 10
2209.928880709469
 20
2116.21936012292
 42
-0.0006138847
  0
LWPOLYLINE
  5
1083
330
1F
100
AcDbEntity
  8
KONTUR
100
AcDbPolyline
 90
       15
 70
     0
 43
0.0
 10
2220.281080709469
 20
2114.32076012292
 10
2220.431280709469
 20
2114.29026012292
 42
-0.0002835227
 10
2220.581580709469
 20
2114.25956012292
 42
-0.0002390921
 10
2220.731680709469
 20
2114.22866012292
 42
-0.0002825636
 10
2220.881880709469
 20
2114.19766012292
 42
-0.000423333
 10
2221.032280709469
 20
2114.16626012292
 42
-0.000487757
 10
2221.181980709469
 20
2114.13466012292
 42
-0.0005024234
 10
2221.330780709469
 20
2114.102960122919
 42
-0.0006720402
 10
2221.481780709469
 20
2114.070160122919
 42
-0.0009797076
 10
2221.636280709469
 20
2114.036060122919
 42
-0.0007491637
 10
2221.781180709469
 20
2114.00386012292
 42
-0.000115479
 10
2221.912180709469
 20
2113.974460122919
 42
-0.001328259
 10
2222.080080709469
 20
2113.93516012292
 42
-0.0026533214
 10
2222.338080709469
 20
2113.87266012292
 42
-0.0013198753
 10
2222.675780709469
 20
2113.78946012292
 42
-0.000679751
  0
LWPOLYLINE
  5
1094
330
1F
100
AcDbEntity
  8
KONTUR
100
AcDbPolyline
 90
       15
 70
     0
 43
0.0
 10
2233.594680709469
 20
2111.36506012292
 10
2234.065180709469
 20
2111.25036012292
 42
-0.000386109
 10
2234.535380709469
 20
2111.13506012292
 42
-0.0003555073
 10
2235.005080709469
 20
2111.01906012292
 42
-0.0003856131
 10
2235.475180709469
 20
2110.90216012292
 42
-0.000481896
 10
2235.945580709469
 20
2110.78416012292
 42
-0.0005183
 10
2236.413880709469
 20
2110.66566012292
 42
-0.0005147383
 10
2236.879080709469
 20
2110.54676012292
 42
-0.000645065
 10
2237.351380709469
 20
2110.42456012292
 42
-0.0008859113
 10
2237.834180709469
 20
2110.29786012292
 42
-0.00067617
 10
2238.287280709469
 20
2110.17816012292
 42
-0.0001394204
 10
2238.696680709469
 20
2110.06936012292
 42
-0.001131579
 10
2239.221380709469
 20
2109.92566012292
 42
-0.0021884201
 10
2240.028080709469
 20
2109.69896012292
 42
-0.0010850769
 10
2241.083480709469
 20
2109.39876012292
 42
-0.000562196
  0
LWPOLYLINE
  5
10A5
330
1F
100
AcDbEntity
  8
KONTUR
100
AcDbPolyline
 90
       15
 70
     0
 43
0.0
 10
2248.288380709469
 20
2107.49516012292
 10
2248.497880709469
 20
2107.43546012292
 42
-0.0003251603
 10
2248.707280709469
 20
2107.37556012292
 42
-0.0002816861
 10
2248.916480709469
 20
2107.31546012292
 42
-0.0003242654
 10
2249.125780709469
 20
2107.254960122919
 42
-0.0004618447
 10
2249.335280709469
 20
2107.19396012292
 42
-0.0005228954
 10
2249.543780709469
 20
2107.13276012292
 42
-0.0005338327
 10
2249.750880709469
 20
2107.07146012292
 42
-0.0007031892
 10
2249.961080709469
 20
2107.00846012292
 42
-0.0010114954
 10
2250.175980709469
 20
2106.94306012292
 42
-0.0007731549
 10
2250.377580709469
 20
2106.88136012292
 42
-0.0001279817
 10
2250.559780709469
 20
2106.82526012292
 42
-0.001353966
 10
2250.793080709469
 20
2106.75106012292
 42
-0.002686607
 10
2251.151480709469
 20
2106.63376012292
 42
-0.001335507
 10
2251.620280709469
 20
2106.47846012292
 42
-0.0006886321
  0
LWPOLYLINE
  5
10B6
330
1F
100
AcDbEntity
  8
KONTUR
100
AcDbPolyline
 90
       15
 70
     0
 43
0.0
 10
2261.885280709469
 20
2103.34346012292
 10
2262.491580709469
 20
2103.144860122919
 42
-0.0004854818
 10
2263.097280709469
 20
2102.94526012292
 42
-0.0004646939
 10
2263.702380709469
 20
2102.74456012292
 42
-0.0004852492
 10
2264.307680709469
 20
2102.542360122919
 42
-0.0005496604
 10
2264.913380709469
 20
2102.33856012292
 42
-0.0005649204
 10
2265.516180709469
 20
2102.13416012292
 42
-0.0005464279
 10
2266.114780709469
 20
2101.92966012292
 42
-0.0006504626
 10
2266.722480709469
 20
2101.72006012292
 42
-0.000847383
 10
2267.343580709469
 20
2101.50346012292
 42
-0.0006455084
 10
2267.926380709469
 20
2101.29926012292
 42
-0.0001645402
 10
2268.452980709469
 20
2101.11386012292
 42
-0.0010199601
 10
2269.127580709469
 20
2100.87116012292
 42
-0.0019036038
 10
2270.164480709469
 20
2100.49156012292
 42
-0.0009400273
 10
2271.521080709469
 20
2099.99076012292
 42
-0.0004902547
  0
LWPOLYLINE
  5
10C7
330
1F
100
AcDbEntity
  8
KONTUR
100
AcDbPolyline
 90
       15
 70
     0
 43
0.0
 10
2275.658480709469
 20
2098.549760122919
 10
2276.501680709469
 20
2098.23676012292
 42
-0.0005983022
 10
2277.343980709469
 20
2097.921860122919
 42
-0.0005936639
 10
2278.185080709469
 20
2097.60496012292
 42
-0.000598491
 10
2279.026280709469
 20
2097.28576012292
 42
-0.0006107096
 10
2279.867980709469
 20
2096.96396012292
 42
-0.0005933488
 10
2280.705480709469
 20
2096.641660122919
 42
-0.000553953
 10
2281.537280709469
 20
2096.319260122919
 42
-0.0006112488
 10
2282.381580709469
 20
2095.98946012292
 42
-0.0007284136
 10
2283.244580709469
 20
2095.64966012292
 42
-0.0005529543
 10
2284.054380709469
 20
2095.32936012292
 42
-0.0001900476
 10
2284.786180709469
 20
2095.038760122919
 42
-0.0007795944
 10
2285.724080709469
 20
2094.66116012292
 42
-0.001341113
 10
2287.166280709469
 20
2094.07366012292
 42
-0.000655747
 10
2289.053680709469
 20
2093.30076012292
 42
-0.0003475299
  0
LWPOLYLINE
  5
10E9
330
1F
100
AcDbEntity
  8
KONTUR
100
AcDbPolyline
 90
       19
 70
     0
 43
0.0
 10
2243.847580709469
 20
1520.65976012292
 10
2243.567380709469
 20
1520.66086012292
 42
0.0003881684
 10
2243.272180709469
 20
1520.66166012292
 42
0.000423869
 10
2242.960780709469
 20
1520.66186012292
 42
0.0003144117
 10
2242.638380709469
 20
1520.661960122919
 42
0.0000879548
 10
2242.309780709469
 20
1520.661960122919
 42
-0.0000030027
 10
2241.976080709469
 20
1520.661960122919
 42
-0.0000002182
 10
2241.637380709469
 20
1520.661960122919
 42
0.0000006086
 10
2241.293380709469
 20
1520.661960122919
 42
-0.0000001933
 10
2240.943780709469
 20
1520.661960122919
 42
-0.0000004586
 10
2240.591080709469
 20
1520.661960122919
 42
-0.000000298
 10
2240.236080709469
 20
1520.661960122919
 42
-0.000000352
 10
2239.870280709469
 20
1520.661960122919
 42
-0.0000005899
 10
2239.490780709469
 20
1520.661960122919
 42
-0.0000004514
 10
2239.131880709469
 20
1520.661960122919
 42
-0.000000047
 10
2238.805180709469
 20
1520.661960122919
 42
-0.0000007994
 10
2238.376780709469
 20
1520.661960122919
 42
-0.0000015849
 10
2237.705780709469
 20
1520.661960122919
 42
-0.000000765
 10
2236.820380709469
 20
1520.66206012292
 42
-0.0000003851
  0
LINE
  5
10FE
330
1F
100
AcDbEntity
  8
KONTUR
100
AcDbLine
 10
2249.769980709469
 20
1520.66186012292
 30
0.0
 11
2265.111280709469
 21
1520.66096012292
 31
0.0
  0
LINE
  5
10FF
330
1F
100
AcDbEntity
  8
KONTUR
100
AcDbLine
 10
2261.200380709469
 20
1520.661960122919
 30
0.0
 11
2259.117180709469
 21
1520.661960122919
 31
0.0
  0
LINE
  5
1100
330
1F
100
AcDbEntity
  8
KONTUR
100
AcDbLine
 10
2256.417080709469
 20
1520.661960122919
 30
0.0
 11
2253.365780709469
 21
1520.661960122919
 31
0.0
  0
LINE
  5
1101
330
1F
100
AcDbEntity
  8
KONTUR
100
AcDbLine
 10
2249.971280709469
 20
1520.661960122919
 30
0.0
 11
2249.769980709469
 21
1520.66186012292
 31
0.0
  0
LWPOLYLINE
  5
1102
330
1F
100
AcDbEntity
  8
KONTUR
100
AcDbPolyline
 90
       27
 70
     0
 43
0.0
 10
2230.172280709469
 20
1520.66206012292
 10
2231.158880709469
 20
1520.661960122919
 42
0.0000008309
 10
2232.134580709469
 20
1520.661960122919
 42
0.0000009368
 10
2233.099180709469
 20
1520.661960122919
 42
0.0000008733
 10
2234.051780709469
 20
1520.661960122919
 42
0.0000006129
 10
2234.990080709469
 20
1520.661960122919
 42
0.000000409
 10
2235.913580709469
 20
1520.661960122919
 42
0.0000002037
 10
2236.820280709469
 20
1520.661960122919
 42
0.000000069
 10
2237.709580709469
 20
1520.661960122919
 42
-0.0000000279
 10
2238.579480709469
 20
1520.661960122919
 42
-0.000000065
 10
2239.429180709469
 20
1520.661960122919
 42
-0.0000000466
 10
2240.256680709469
 20
1520.661960122919
 42
-0.0000000421
 10
2241.061280709469
 20
1520.661960122919
 42
-0.0000000513
 10
2241.840780709469
 20
1520.661960122919
 42
-0.000000056
 10
2242.594780709469
 20
1520.661960122919
 42
-0.0000000558
 10
2243.320680709469
 20
1520.661960122919
 42
-0.000000064
 10
2244.018880709469
 20
1520.661960122919
 42
-0.0000000829
 10
2244.687180709469
 20
1520.661960122919
 42
-0.0000000728
 10
2245.324180709469
 20
1520.661960122919
 10
2245.926680709469
 20
1520.661960122919
 42
-0.0000001037
 10
2246.501480709469
 20
1520.661960122919
 42
-0.0000003633
 10
2247.048180709469
 20
1520.661960122919
 42
-0.0000000952
 10
2247.541680709469
 20
1520.661960122919
 42
0.0000009842
 10
2247.971080709469
 20
1520.661960122919
 42
-0.0000013044
 10
2248.437180709469
 20
1520.661960122919
 42
-0.0000066641
 10
2249.043280709469
 20
1520.66186012292
 42
-0.0000048592
 10
2249.769980709469
 20
1520.66186012292
 42
-0.0000028473
  0
LINE
  5
111F
330
1F
100
AcDbEntity
  8
KONTUR
100
AcDbLine
 10
2144.267680709469
 20
1520.661960122919
 30
0.0
 11
2230.172280709469
 21
1520.66206012292
 31
0.0
  0
LWPOLYLINE
  5
1173
330
1F
100
AcDbEntity
  8
KONTUR
100
AcDbPolyline
 90
       23
 70
     0
 43
0.0
 10
2289.053680709469
 20
2093.30076012292
 10
2284.608980709469
 20
2095.107760122919
 42
0.0031828771
 10
2280.142080709469
 20
2096.85886012292
 42
0.0031824896
 10
2275.651980709469
 20
2098.551760122919
 42
0.0031822457
 10
2271.140180709469
 20
2100.188460122919
 42
0.0031838624
 10
2266.606480709469
 20
2101.76646012292
 42
0.0031838577
 10
2262.052380709469
 20
2103.287860122919
 42
0.00318266
 10
2257.477580709469
 20
2104.74996012292
 42
0.003185935
 10
2252.882780709469
 20
2106.15506012292
 42
0.0031936627
 10
2248.267780709469
 20
2107.50056012292
 42
0.00318495
 10
2243.636680709469
 20
2108.78816012292
 42
0.0031654661
 10
2238.991480709469
 20
2110.01476012292
 42
0.0031937697
 10
2234.326880709469
 20
2111.18326012292
 42
0.003258012
 10
2229.640480709469
 20
2112.29126012292
 42
0.003165674
 10
2224.960180709469
 20
2113.338660122919
 42
0.0029561543
 10
2220.294980709469
 20
2114.32176012292
 42
0.0032630793
 10
2215.540880709469
 20
2115.25326012292
 42
0.003891023
 10
2210.661680709469
 20
2116.13426012292
 42
0.0029531231
 10
2206.073380709469
 20
2116.92616012292
 42
0.001010917
 10
2201.919280709469
 20
2117.612460122919
 42
0.00416774
 10
2196.562080709469
 20
2118.35636012292
 42
0.0071774906
 10
2188.283280709469
 20
2119.32396012292
 42
0.0035064271
 10
2177.424980709469
 20
2120.484360122919
 42
0.00185586
  0
LWPOLYLINE
  5
118C
330
1F
100
AcDbEntity
  8
KONTUR
100
AcDbPolyline
 90
       23
 70
     0
 43
0.0
 10
2310.349980709469
 20
2083.69276012292
 10
2309.994080709469
 20
2083.86686012292
 42
0.0005258657
 10
2309.578080709469
 20
2084.06956012292
 42
0.0003149413
 10
2309.099180709469
 20
2084.30206012292
 42
0.0003016566
 10
2308.562080709469
 20
2084.56196012292
 42
0.0004219581
 10
2307.967180709469
 20
2084.84846012292
 42
0.0004669592
 10
2307.318580709469
 20
2085.15936012292
 42
0.0004970509
 10
2306.616180709469
 20
2085.49416012292
 42
0.0005188162
 10
2305.864080709469
 20
2085.85076012292
 42
0.0005631682
 10
2305.062380709469
 20
2086.22856012292
 42
0.0005800982
 10
2304.214980709469
 20
2086.625460122919
 42
0.0006012561
 10
2303.322180709469
 20
2087.04086012292
 42
0.0006459203
 10
2302.388280709469
 20
2087.47236012292
 42
0.0007407907
 10
2301.415480709469
 20
2087.91816012292
 42
0.000736727
 10
2300.414980709469
 20
2088.373260122919
 42
0.0006788528
 10
2299.390480709469
 20
2088.83576012292
 42
0.0007687692
 10
2298.318780709469
 20
2089.31516012292
 42
0.0009518533
 10
2297.191680709469
 20
2089.814360122919
 42
0.0006876426
 10
2296.116980709469
 20
2090.28846012292
 42
0.0001560098
 10
2295.131680709469
 20
2090.72116012292
 42
0.0010645597
 10
2293.827180709469
 20
2091.28356012292
 42
0.00192464
 10
2291.772380709469
 20
2092.15536012292
 42
0.0009155961
 10
2289.053680709469
 20
2093.30076012292
 42
0.0004649846
  0
LINE
  5
11A6
330
1F
100
AcDbEntity
  8
KONTUR
100
AcDbLine
 10
2144.267680709469
 20
2110.661960122919
 30
0.0
 11
2145.267680709469
 21
2110.661960122919
 31
0.0
  0
LWPOLYLINE
  5
11A8
330
1F
100
AcDbEntity
  8
KONTUR
100
AcDbPolyline
 90
       27
 70
     0
 43
0.0
 10
2265.111280709469
 20
1520.66096012292
 10
2269.895080709469
 20
1540.10036012292
 42
0.0024525386
 10
2274.489480709469
 20
1559.57866012292
 42
0.002451781
 10
2278.886480709469
 20
1579.09746012292
 42
0.0024552153
 10
2283.093880709469
 20
1598.656260122919
 42
0.0024627458
 10
2287.103580709469
 20
1618.25806012292
 42
0.0024659396
 10
2290.923080709469
 20
1637.90026012292
 42
0.0024665187
 10
2294.544280709469
 20
1657.58316012292
 42
0.0024664199
 10
2297.974380709469
 20
1677.30256012292
 42
0.002466269
 10
2301.205180709469
 20
1697.057360122919
 42
0.0024660806
 10
2304.243880709469
 20
1716.84296012292
 42
0.0024660602
 10
2307.082180709469
 20
1736.65786012292
 42
0.0024683581
 10
2309.727680709469
 20
1756.50066012292
 42
0.0024726668
 10
2312.172080709469
 20
1776.37066012292
 42
0.002465897
 10
2314.423380709469
 20
1796.25786012292
 42
0.0024493644
 10
2316.473580709469
 20
1816.15886012292
 42
0.0024695441
 10
2318.329880709469
 20
1836.09896012292
 42
0.0025188351
 10
2319.984080709469
 20
1856.08686012292
 42
0.002447047
 10
2321.446180709469
 20
1876.00866012292
 42
0.0022848076
 10
2322.709080709469
 20
1895.82456012292
 42
0.0025214173
 10
2323.771280709469
 20
1915.97136012292
 42
0.0030057533
 10
2324.621380709469
 20
1936.59886012292
 42
0.0022823239
 10
2325.304080709469
 20
1955.971760122919
 42
0.0007843143
 10
2325.823780709469
 20
1973.49116012292
 42
0.0032200444
 10
2326.043580709469
 20
1995.99436012292
 42
0.0055430383
 10
2325.803280709469
 20
2030.65426012292
 42
0.0027106492
 10
2325.141080709469
 20
2076.044560122919
 42
0.0014360767
  0
LINE
  5
11C5
330
1F
100
AcDbEntity
  8
KONTUR
100
AcDbLine
 10
2141.651580709469
 20
2117.35786012292
 30
0.0
 11
2140.581780709469
 21
2113.85876012292
 31
0.0
  0
LINE
  5
11C6
330
1F
100
AcDbEntity
  8
KONTUR
100
AcDbLine
 10
2142.491880709469
 20
2117.10096012292
 30
0.0
 11
2141.651580709469
 21
2117.35786012292
 31
0.0
  0
LINE
  5
11C7
330
1F
100
AcDbEntity
  8
KONTUR
100
AcDbLine
 10
2142.491880709469
 20
2117.10096012292
 30
0.0
 11
2143.152480709469
 21
2116.89896012292
 31
0.0
  0
DIMENSION
  5
126A
330
1F
100
AcDbEntity
  8
DIM
100
AcDbDimension
  2
*D15
 10
387.2268307094693
 20
2178.671933731613
 30
0.0
 11
482.1636257094693
 21
2216.171933731613
 31
0.0
 70
    32
  1
190
 71
     5
 42
-1.0
 73
     0
 74
     0
 75
     0
  3
Dimensjoner
100
AcDbAlignedDimension
 13
577.1004207094693
 23
2120.661960122919
 33
0.0
 14
387.2268307094693
 24
2076.046160122919
 34
0.0
100
AcDbRotatedDimension
1001
ACAD
1000
DSTYLE
1002
{
1070
   279
1070
     2
1002
}
  0
DIMENSION
  5
1278
330
1F
100
AcDbEntity
  8
DIM
100
AcDbDimension
  2
*D16
 10
656.8233882164659
 20
1520.661960122919
 30
0.0
 11
619.3233882164659
 21
1820.661960122919
 31
0.0
 70
    32
  1
600
 71
     5
 42
-1.0
 73
     0
 74
     0
 75
     0
 53
90.0
  3
Dimensjoner
100
AcDbAlignedDimension
 13
577.1004207094693
 23
2120.661960122919
 33
0.0
 14
567.1004807094691
 24
1520.661960122919
 34
0.0
 50
90.0
100
AcDbRotatedDimension
  0
DIMENSION
  5
1285
330
1F
100
AcDbEntity
  8
DIM
100
AcDbDimension
  2
*D3
 10
577.1004807094691
 20
1430.109077320568
 30
0.0
 11
512.1785907094691
 21
1467.609077320568
 31
0.0
 70
    32
  1
130
 71
     5
 42
-1.0
 73
     0
 74
     0
 75
     0
  3
Dimensjoner
100
AcDbAlignedDimension
 13
447.2567007094691
 23
1520.661960122919
 33
0.0
 14
577.1004807094691
 24
1525.661960637941
 34
0.0
100
AcDbRotatedDimension
  0
DIMENSION
  5
1297
330
1F
100
AcDbEntity
  8
DIM
100
AcDbDimension
  2
*D13
 10
1214.337980709469
 20
2215.90801823009
 30
0.0
 11
1364.171980709469
 21
2253.40801823009
 31
0.0
 70
    32
  1
300
 71
     5
 42
-1.0
 73
     0
 74
     0
 75
     0
  3
Dimensjoner
100
AcDbAlignedDimension
 13
1514.005980709469
 23
2071.907460122919
 33
0.0
 14
1214.337980709469
 24
2065.96556012292
 34
0.0
100
AcDbRotatedDimension
  0
DIMENSION
  5
12A4
330
1F
100
AcDbEntity
  8
DIM
100
AcDbDimension
  2
*D5
 10
2887.334657392405
 20
1520.661260122919
 30
0.0
 11
2849.834657392404
 21
1388.16126012292
 31
0.0
 70
    32
  1
100
 71
     5
 42
-1.0
 73
     0
 74
     0
 75
     0
  3
Dimensjoner
100
AcDbAlignedDimension
 13
3000.971480709469
 23
1620.66116012292
 33
0.0
 14
2951.397780709469
 24
1520.661260122919
 34
0.0
 50
90.0
100
AcDbRotatedDimension
  0
DIMENSION
  5
12B1
330
1F
100
AcDbEntity
  8
DIM
100
AcDbDimension
  2
*D14
 10
2777.704657940036
 20
2070.66116012292
 30
0.0
 11
2740.204657940036
 21
1795.661260135401
 31
0.0
 70
    32
  1
550
 71
     5
 42
-1.0
 73
     0
 74
     0
 75
     0
 53
90.0
  3
Dimensjoner
100
AcDbAlignedDimension
 13
2951.397780557658
 23
1520.661360147882
 33
0.0
 14
3000.971480709469
 24
2070.66116012292
 34
0.0
 50
90.0
100
AcDbRotatedDimension
  0
DIMENSION
  5
12C7
330
1F
100
AcDbEntity
  8
DIM
100
AcDbDimension
  2
*D7
 10
3200.971480709469
 20
1412.973143098965
 30
0.0
 11
3100.971480709469
 21
1450.473143098965
 31
0.0
 70
    32
  1
200
 71
     5
 42
-1.0
 73
     0
 74
     0
 75
     0
  3
Dimensjoner
100
AcDbAlignedDimension
 13
3000.971480709469
 23
1620.66116012292
 33
0.0
 14
3200.971480709469
 24
1620.66116012292
 34
0.0
100
AcDbRotatedDimension
  0
LWPOLYLINE
  5
12D4
330
1F
100
AcDbEntity
  8
TIT07
100
AcDbPolyline
 90
        4
 70
     1
 43
0.0
 10
49.99999999999957
 20
50.00000000000028
 10
3580.195568377425
 20
50.0
 10
3580.195568377425
 20
2589.977666844263
 10
49.99999999999954
 20
2589.977666844263
  0
LWPOLYLINE
  5
12D5
330
1F
100
AcDbEntity
  8
TIT02
100
AcDbPolyline
 90
        4
 70
     1
 43
0.0
 10
0.0
 20
0.0
 10
3630.195568377425
 20
-0.0000000000001421
 10
3630.195568377425
 20
2639.977666844263
 10
-0.0000000000000355
 20
2639.977666844263
  0
TEXT
  5
12D6
330
1F
100
AcDbEntity
  8
TIT02
100
AcDbText
 10
16.16228634031377
 20
258.9444749864287
 30
0.0
 40
40.0
  1
A
 41
0.8
100
AcDbText
  0
TEXT
  5
12D7
330
1F
100
AcDbEntity
  8
TIT02
100
AcDbText
 10
16.16228634031377
 20
674.1575213665399
 30
0.0
 40
40.0
  1
B
 41
0.8
100
AcDbText
  0
TEXT
  5
12D8
330
1F
100
AcDbEntity
  8
TIT02
100
AcDbText
 10
16.16228634031384
 20
1107.675836420158
 30
0.0
 40
40.0
  1
C
 41
0.8
100
AcDbText
  0
TEXT
  5
12D9
330
1F
100
AcDbEntity
  8
TIT02
100
AcDbText
 10
16.16228634031391
 20
1526.846061458457
 30
0.0
 40
40.0
  1
D
 41
0.8
100
AcDbText
  0
TEXT
  5
12DA
330
1F
100
AcDbEntity
  8
TIT02
100
AcDbText
 10
16.16228634031398
 20
1946.016286496755
 30
0.0
 40
40.0
  1
E
 41
0.8
100
AcDbText
  0
TEXT
  5
12DB
330
1F
100
AcDbEntity
  8
TIT02
100
AcDbText
 10
16.16228634031405
 20
2386.708646558032
 30
0.0
 40
40.0
  1
F
 41
0.8
100
AcDbText
  0
TEXT
  5
12DC
330
1F
100
AcDbEntity
  8
TIT02
100
AcDbText
 10
3370.737555807445
 20
2596.479948845667
 30
0.0
 40
30.0
  1
1
 41
0.8
100
AcDbText
  0
TEXT
  5
12DD
330
1F
100
AcDbEntity
  8
TIT02
100
AcDbText
 10
2915.134826811604
 20
2596.479948845667
 30
0.0
 40
30.0
  1
2
 41
0.8
100
AcDbText
  0
TEXT
  5
12DE
330
1F
100
AcDbEntity
  8
TIT02
100
AcDbText
 10
2462.274072444922
 20
2596.479948845667
 30
0.0
 40
30.0
  1
3
 41
0.8
100
AcDbText
  0
TEXT
  5
12DF
330
1F
100
AcDbEntity
  8
TIT02
100
AcDbText
 10
2035.856282526119
 20
2596.479948845667
 30
0.0
 40
30.0
  1
4
 41
0.8
100
AcDbText
  0
TEXT
  5
12E0
330
1F
100
AcDbEntity
  8
TIT02
100
AcDbText
 10
1587.556681121286
 20
2596.479948845667
 30
0.0
 40
30.0
  1
5
 41
0.8
100
AcDbText
  0
TEXT
  5
12E1
330
1F
100
AcDbEntity
  8
TIT02
100
AcDbText
 10
1147.999645569164
 20
2596.479948845667
 30
0.0
 40
30.0
  1
6
 41
0.8
100
AcDbText
  0
TEXT
  5
12E2
330
1F
100
AcDbEntity
  8
TIT02
100
AcDbText
 10
698.4426100170418
 20
2596.479948845667
 30
0.0
 40
30.0
  1
7
 41
0.8
100
AcDbText
  0
TEXT
  5
12E3
330
1F
100
AcDbEntity
  8
TIT02
100
AcDbText
 10
255.4963155768893
 20
2596.479948845667
 30
0.0
 40
30.0
  1
8
 41
0.8
100
AcDbText
  0
LINE
  5
12E4
330
1F
100
AcDbEntity
  8
TIT02
100
AcDbLine
 10
491.2499999999995
 20
2589.977666844263
 30
0.0
 11
491.2499999999995
 21
2639.977666844263
 31
0.0
  0
LINE
  5
12E5
330
1F
100
AcDbEntity
  8
TIT02
100
AcDbLine
 10
932.4999999999995
 20
2589.977666844263
 30
0.0
 11
932.4999999999995
 21
2639.977666844263
 31
0.0
  0
LINE
  5
12E6
330
1F
100
AcDbEntity
  8
TIT02
100
AcDbLine
 10
1373.75
 20
2589.977666844263
 30
0.0
 11
1373.75
 21
2639.977666844263
 31
0.0
  0
LINE
  5
12E7
330
1F
100
AcDbEntity
  8
TIT02
100
AcDbLine
 10
1815.0
 20
2589.977666844263
 30
0.0
 11
1815.0
 21
2639.977666844263
 31
0.0
  0
LINE
  5
12E8
330
1F
100
AcDbEntity
  8
TIT02
100
AcDbLine
 10
2256.25
 20
2589.977666844263
 30
0.0
 11
2256.25
 21
2639.977666844263
 31
0.0
  0
LINE
  5
12E9
330
1F
100
AcDbEntity
  8
TIT02
100
AcDbLine
 10
2697.5
 20
2589.977666844263
 30
0.0
 11
2697.5
 21
2639.977666844263
 31
0.0
  0
LINE
  5
12EA
330
1F
100
AcDbEntity
  8
TIT02
100
AcDbLine
 10
3138.75
 20
2589.977666844263
 30
0.0
 11
3138.75
 21
2639.977666844263
 31
0.0
  0
LINE
  5
12EB
330
1F
100
AcDbEntity
  8
TIT02
100
AcDbLine
 10
49.99999999999946
 20
2182.977666844263
 30
0.0
 11
-0.000000000000114
 21
2182.977666844263
 31
0.0
  0
LINE
  5
12EC
330
1F
100
AcDbEntity
  8
TIT02
100
AcDbLine
 10
49.99999999999937
 20
1755.977666844263
 30
0.0
 11
-0.0000000000001925
 21
1755.977666844263
 31
0.0
  0
LINE
  5
12ED
330
1F
100
AcDbEntity
  8
TIT02
100
AcDbLine
 10
49.9999999999993
 20
1328.977666844263
 30
0.0
 11
-0.0000000000002709
 21
1328.977666844263
 31
0.0
  0
LINE
  5
12EE
330
1F
100
AcDbEntity
  8
TIT02
100
AcDbLine
 10
49.99999999999922
 20
901.977666844263
 30
0.0
 11
-0.0000000000003494
 21
901.977666844263
 31
0.0
  0
LINE
  5
12EF
330
1F
100
AcDbEntity
  8
TIT02
100
AcDbLine
 10
49.99999999999914
 20
474.977666844263
 30
0.0
 11
-0.0000000000004279
 21
474.977666844263
 31
0.0
  0
LINE
  5
12F0
330
1F
100
AcDbEntity
  8
TIT02
100
AcDbLine
 10
3138.75
 20
0.0
 30
0.0
 11
3138.75
 21
50.0
 31
0.0
  0
LINE
  5
12F1
330
1F
100
AcDbEntity
  8
TIT02
100
AcDbLine
 10
2697.5
 20
0.0
 30
0.0
 11
2697.5
 21
50.0
 31
0.0
  0
LINE
  5
12F2
330
1F
100
AcDbEntity
  8
TIT02
100
AcDbLine
 10
2256.249999999999
 20
0.0
 30
0.0
 11
2256.249999999999
 21
50.0
 31
0.0
  0
LINE
  5
12F3
330
1F
100
AcDbEntity
  8
TIT02
100
AcDbLine
 10
1814.999999999999
 20
0.0
 30
0.0
 11
1814.999999999999
 21
50.0
 31
0.0
  0
LINE
  5
12F4
330
1F
100
AcDbEntity
  8
TIT02
100
AcDbLine
 10
1373.749999999999
 20
0.0
 30
0.0
 11
1373.749999999999
 21
50.0
 31
0.0
  0
LINE
  5
12F5
330
1F
100
AcDbEntity
  8
TIT02
100
AcDbLine
 10
932.4999999999994
 20
0.0
 30
0.0
 11
932.4999999999994
 21
50.0
 31
0.0
  0
LINE
  5
12F6
330
1F
100
AcDbEntity
  8
TIT02
100
AcDbLine
 10
491.2499999999994
 20
0.0
 30
0.0
 11
491.2499999999994
 21
50.0
 31
0.0
  0
TEXT
  5
12F7
330
1F
100
AcDbEntity
  8
TIT02
100
AcDbText
 10
255.4963155768891
 20
6.502282001404751
 30
0.0
 40
30.0
  1
8
 41
0.8
100
AcDbText
  0
TEXT
  5
12F8
330
1F
100
AcDbEntity
  8
TIT02
100
AcDbText
 10
698.4426100170415
 20
6.502282001404751
 30
0.0
 40
30.0
  1
7
 41
0.8
100
AcDbText
  0
TEXT
  5
12F9
330
1F
100
AcDbEntity
  8
TIT02
100
AcDbText
 10
1147.999645569164
 20
6.502282001404751
 30
0.0
 40
30.0
  1
6
 41
0.8
100
AcDbText
  0
TEXT
  5
12FA
330
1F
100
AcDbEntity
  8
TIT02
100
AcDbText
 10
1587.556681121285
 20
6.502282001404751
 30
0.0
 40
30.0
  1
5
 41
0.8
100
AcDbText
  0
TEXT
  5
12FB
330
1F
100
AcDbEntity
  8
TIT02
100
AcDbText
 10
2035.856282526119
 20
6.502282001404751
 30
0.0
 40
30.0
  1
4
 41
0.8
100
AcDbText
  0
TEXT
  5
12FC
330
1F
100
AcDbEntity
  8
TIT02
100
AcDbText
 10
2462.274072444922
 20
6.502282001404751
 30
0.0
 40
30.0
  1
3
 41
0.8
100
AcDbText
  0
TEXT
  5
12FD
330
1F
100
AcDbEntity
  8
TIT02
100
AcDbText
 10
2915.134826811604
 20
6.502282001404751
 30
0.0
 40
30.0
  1
2
 41
0.8
100
AcDbText
  0
TEXT
  5
12FE
330
1F
100
AcDbEntity
  8
TIT02
100
AcDbText
 10
3370.737555807445
 20
6.502282001404751
 30
0.0
 40
30.0
  1
1
 41
0.8
100
AcDbText
  0
LINE
  5
12FF
330
1F
100
AcDbEntity
  8
TIT02
100
AcDbLine
 10
3630.195568377425
 20
474.977666844263
 30
0.0
 11
3580.195568377425
 21
474.977666844263
 31
0.0
  0
LINE
  5
1300
330
1F
100
AcDbEntity
  8
TIT02
100
AcDbLine
 10
3630.195568377425
 20
901.9776668442631
 30
0.0
 11
3580.195568377425
 21
901.9776668442631
 31
0.0
  0
LINE
  5
1301
330
1F
100
AcDbEntity
  8
TIT02
100
AcDbLine
 10
3630.195568377425
 20
1328.977666844263
 30
0.0
 11
3580.195568377426
 21
1328.977666844263
 31
0.0
  0
LINE
  5
1302
330
1F
100
AcDbEntity
  8
TIT02
100
AcDbLine
 10
3630.195568377425
 20
1755.977666844263
 30
0.0
 11
3580.195568377426
 21
1755.977666844263
 31
0.0
  0
LINE
  5
1303
330
1F
100
AcDbEntity
  8
TIT02
100
AcDbLine
 10
3630.195568377425
 20
2182.977666844263
 30
0.0
 11
3580.195568377426
 21
2182.977666844263
 31
0.0
  0
TEXT
  5
1304
330
1F
100
AcDbEntity
  8
TIT02
100
AcDbText
 10
3596.35785471774
 20
2386.708646558032
 30
0.0
 40
40.0
  1
F
 41
0.8
100
AcDbText
  0
TEXT
  5
1305
330
1F
100
AcDbEntity
  8
TIT02
100
AcDbText
 10
3596.35785471774
 20
1946.016286496755
 30
0.0
 40
40.0
  1
E
 41
0.8
100
AcDbText
  0
TEXT
  5
1306
330
1F
100
AcDbEntity
  8
TIT02
100
AcDbText
 10
3596.35785471774
 20
1526.846061458457
 30
0.0
 40
40.0
  1
D
 41
0.8
100
AcDbText
  0
TEXT
  5
1307
330
1F
100
AcDbEntity
  8
TIT02
100
AcDbText
 10
3596.357854717739
 20
1107.675836420158
 30
0.0
 40
40.0
  1
C
 41
0.8
100
AcDbText
  0
TEXT
  5
1308
330
1F
100
AcDbEntity
  8
TIT02
100
AcDbText
 10
3596.357854717739
 20
674.1575213665399
 30
0.0
 40
40.0
  1
B
 41
0.8
100
AcDbText
  0
TEXT
  5
1309
330
1F
100
AcDbEntity
  8
TIT02
100
AcDbText
 10
3596.357854717739
 20
258.9444749864287
 30
0.0
 40
40.0
  1
A
 41
0.8
100
AcDbText
  0
LINE
  5
130A
330
1F
100
AcDbEntity
  8
TIT02
100
AcDbLine
 10
1928.021472454041
 20
-0.0000000000000673
 30
0.0
 11
1953.021472454041
 21
50.00000000000014
 31
0.0
  0
LINE
  5
130B
330
1F
100
AcDbEntity
  8
TIT02
100
AcDbLine
 10
1953.021472454041
 20
50.00000000000014
 30
0.0
 11
1978.021472454041
 21
-0.0000000000000826
 31
0.0
  0
LINE
  5
130C
330
1F
100
AcDbEntity
  8
TIT02
100
AcDbLine
 10
882.4999999999994
 20
-0.0000000000004263
 30
0.0
 11
907.4999999999994
 21
49.99999999999979
 31
0.0
  0
LINE
  5
130D
330
1F
100
AcDbEntity
  8
TIT02
100
AcDbLine
 10
857.4999999999994
 20
49.99999999999977
 30
0.0
 11
882.4999999999994
 21
-0.0000000000004263
 31
0.0
  0
LINE
  5
130E
330
1F
100
AcDbEntity
  8
TIT02
100
AcDbLine
 10
1953.021472454041
 20
2639.977666844263
 30
0.0
 11
1978.021472454041
 21
2589.977666844263
 31
0.0
  0
LINE
  5
130F
330
1F
100
AcDbEntity
  8
TIT02
100
AcDbLine
 10
1928.021472454041
 20
2589.977666844263
 30
0.0
 11
1953.021472454041
 21
2639.977666844263
 31
0.0
  0
LINE
  5
1310
330
1F
100
AcDbEntity
  8
TIT02
100
AcDbLine
 10
857.4999999999994
 20
2639.977666844263
 30
0.0
 11
882.4999999999994
 21
2589.977666844262
 31
0.0
  0
LINE
  5
1311
330
1F
100
AcDbEntity
  8
TIT02
100
AcDbLine
 10
882.4999999999994
 20
2589.977666844262
 30
0.0
 11
907.4999999999994
 21
2639.977666844263
 31
0.0
  0
INSERT
  5
1312
330
1F
100
AcDbEntity
  8
TIT02
100
AcDbBlockReference
 66
     1
  2
NYTITTEL
 10
3580.195568377425
 20
50.0
 30
0.0
 41
10.0
 42
10.0
 43
10.0
  0
ATTRIB
  5
1313
330
1312
100
AcDbEntity
  8
TITTEXT
 62
     1
100
AcDbText
 10
2887.733248964764
 20
64.91790607145319
 30
0.0
 40
47.0
  1
30583
 41
2.387896159176945
  7
ROMANC
 72
     5
 11
3420.831066501017
 21
64.91790607145319
 31
0.0
100
AcDbAttribute
  2
TEGN.NR
 70
     0
280
     0
  0
ATTRIB
  5
1314
330
1312
100
AcDbEntity
  8
TITTEXT
 62
     1
100
AcDbText
 10
2162.868594984365
 20
458.253338538764
 30
0.0
 40
40.0
  1
06.11.00
 41
0.8893857483087294
 72
     5
 11
2399.80095833381
 21
458.253338538764
 31
0.0
100
AcDbAttribute
  2
DATO
 70
     0
280
     0
  0
ATTRIB
  5
1315
330
1312
100
AcDbEntity
  8
TITTEXT
 62
     1
100
AcDbText
 10
1777.615569007554
 20
252.2593149532933
 30
0.0
 40
40.0
  1
Millinox
100
AcDbAttribute
  2
LINJE1
 70
     0
280
     0
  0
ATTRIB
  5
1316
330
1312
100
AcDbEntity
  8
TITTEXT
 62
     1
100
AcDbText
 10
1774.498037910852
 20
164.7457660127472
 30
0.0
 40
40.0
  1
MXA3 Avfallsbeholder
100
AcDbAttribute
  2
LINJE2
 70
     0
280
     0
  0
ATTRIB
  5
1317
330
1312
100
AcDbEntity
  8
TITTEXT
 62
     1
100
AcDbText
 10
1774.498037910852
 20
78.21736678261829
 30
0.0
 40
40.0
  1
Salgstegning
  7
ROMANC
100
AcDbAttribute
  2
LINJE3
 70
     0
280
     0
  0
ATTRIB
  5
1318
330
1312
100
AcDbEntity
  8
TITTEXT
 62
     1
100
AcDbText
 10
1763.699255680704
 20
457.9546677293718
 30
0.0
 40
40.0
  1
NS-ISO 2768-1 Grov
 41
0.5442882080361438
 72
     5
 11
2131.420369029922
 21
457.9546677293718
 31
0.0
100
AcDbAttribute
  2
TOLERANSE
 70
     0
280
     0
  0
ATTRIB
  5
1319
330
1312
100
AcDbEntity
  8
TITTEXT
 62
     1
100
AcDbText
 10
2672.665903673532
 20
449.2102544559865
 30
0.0
 40
40.0
  1
1 : 10
 41
0.8407122852400302
 72
     5
 11
2851.905762886706
 21
449.2102544559865
 31
0.0
100
AcDbAttribute
  2
MÅLESTOKK
 70
     0
280
     0
  0
ATTRIB
  5
131A
330
1312
100
AcDbEntity
  8
TITTEXT
100
AcDbText
 10
1762.939071063268
 20
369.0164716256084
 30
0.0
 40
20.0
  1
MXA3 Avfallsbeholder
 41
0.5324124899398045
 72
     5
 11
1932.03327786815
 21
369.0164716256084
 31
0.0
100
AcDbAttribute
  2
FILE
 70
     0
280
     0
  0
ATTRIB
  5
131B
330
1312
100
AcDbEntity
  8
TITTEXT
 62
     1
100
AcDbText
 10
2165.383283258886
 20
358.5564129955591
 30
0.0
 40
40.0
  1

 72
     5
 11
2422.406477602307
 21
358.5564129955591
 31
0.0
100
AcDbAttribute
  2
HENVISNING
 70
     0
280
     0
  0
ATTRIB
  5
131C
330
1312
100
AcDbEntity
  8
TITTEXT
 62
     1
100
AcDbText
 10
3503.65618700122
 20
64.56156026929594
 30
0.0
 40
50.0
  1
A
 41
0.8
100
AcDbAttribute
  2
REV
 70
     0
280
     0
  0
SEQEND
  5
175B
330
1312
100
AcDbEntity
  8
TIT02
  0
LINE
  5
1671
330
1F
100
AcDbEntity
  8
KONTUR
100
AcDbLine
 10
2177.424980709469
 20
2120.484360122919
 30
0.0
 11
2145.267680709469
 21
2120.661960122919
 31
0.0
  0
LINE
  5
167B
330
1F
100
AcDbEntity
  8
KONTUR
100
AcDbLine
 10
534.943190709469
 20
2120.484360122919
 30
0.0
 11
567.100540709469
 21
2120.661960122919
 31
0.0
  0
LINE
  5
16D3
330
1F
100
AcDbEntity
  8
TIT5
100
AcDbLine
 10
49.99999999999957
 20
50.00000000000028
 30
0.0
 11
1149.999999999999
 21
50.00000000000028
 31
0.0
  0
LINE
  5
16D7
330
1F
100
AcDbEntity
  8
TIT5
100
AcDbLine
 10
49.99999999999957
 20
170.0000000000003
 30
0.0
 11
49.99999999999957
 21
50.00000000000028
 31
0.0
  0
ENDSEC
  0
SECTION
  2
OBJECTS
  0
DICTIONARY
  5
C
330
0
100
AcDbDictionary
281
     1
  3
ACAD_COLOR
350
6C
  3
ACAD_GROUP
350
D
  3
ACAD_LAYOUT
350
1A
  3
ACAD_MATERIAL
350
6B
  3
ACAD_MLINESTYLE
350
17
  3
ACAD_PLOTSETTINGS
350
19
  3
ACAD_PLOTSTYLENAME
350
E
  3
ACAD_TABLESTYLE
350
92
  3
AcDbVariableDictionary
350
59
  3
ASE_INDEX_DICTIONARY
350
16A9
  0
DICTIONARY
  5
6C
102
{ACAD_REACTORS
330
C
102
}
330
C
100
AcDbDictionary
281
     1
  0
DICTIONARY
  5
D
102
{ACAD_REACTORS
330
C
102
}
330
C
100
AcDbDictionary
281
     1
  0
DICTIONARY
  5
1A
102
{ACAD_REACTORS
330
C
102
}
330
C
100
AcDbDictionary
281
     1
  3
Layout1
350
74
  3
Model
350
22
  0
DICTIONARY
  5
6B
102
{ACAD_REACTORS
330
C
102
}
330
C
100
AcDbDictionary
281
     1
  0
DICTIONARY
  5
17
102
{ACAD_REACTORS
330
C
102
}
330
C
100
AcDbDictionary
281
     1
  3
Standard
350
18
  0
DICTIONARY
  5
19
102
{ACAD_REACTORS
330
C
102
}
330
C
100
AcDbDictionary
281
     1
  0
ACDBDICTIONARYWDFLT
  5
E
102
{ACAD_REACTORS
330
C
102
}
330
C
100
AcDbDictionary
281
     1
  3
Normal
350
F
100
AcDbDictionaryWithDefault
340
F
  0
DICTIONARY
  5
92
102
{ACAD_REACTORS
330
C
102
}
330
C
100
AcDbDictionary
281
     1
  3
Standard
350
93
  0
DICTIONARY
  5
59
102
{ACAD_REACTORS
330
C
102
}
330
C
100
AcDbDictionary
281
     1
  3
CTABLESTYLE
350
98
  3
DIMASSOC
350
16E5
  3
HIDETEXT
350
5E
  0
DICTIONARY
  5
16A9
102
{ACAD_REACTORS
330
C
102
}
330
C
100
AcDbDictionary
281
     1
  3
ASEBLOCKHIERARCHYINDEXRECORD
350
16AA
  0
LAYOUT
  5
74
102
{ACAD_REACTORS
330
1A
102
}
330
1A
100
AcDbPlotSettings
  1

  2
\\IVNT01\EPSON Stylus COLOR 760
  4

  6

 40
0.0
 41
0.0
 42
0.0
 43
0.0
 44
0.0
 45
0.0
 46
0.0
 47
0.0
 48
0.0
 49
0.0
140
0.0
141
0.0
142
1.0
143
1.0
 70
   688
 72
     0
 73
     0
 74
     5
  7
monochrome.ctb
 75
    16
 76
     0
 77
     2
 78
   300
147
1.0
148
0.0
149
0.0
100
AcDbLayout
  1
Layout1
 70
     0
 71
     1
 10
0.0
 20
0.0
 11
12.0
 21
9.0
 12
0.0
 22
0.0
 32
0.0
 14
1.000000000000000E+20
 24
1.000000000000000E+20
 34
1.000000000000000E+20
 15
-1.000000000000000E+20
 25
-1.000000000000000E+20
 35
-1.000000000000000E+20
146
0.0
 13
0.0
 23
0.0
 33
0.0
 16
1.0
 26
0.0
 36
0.0
 17
0.0
 27
1.0
 37
0.0
 76
     0
330
73
  0
LAYOUT
  5
22
102
{ACAD_REACTORS
330
1A
102
}
330
1A
100
AcDbPlotSettings
  1

  2
\\Intra\PLOTTER
  4
User619
  6

 40
0.0
 41
0.0
 42
0.0
 43
0.0
 44
297.0
 45
420.0
 46
10.0
 47
20.0
 48
0.0
 49
0.0
140
0.0
141
0.0
142
1.0
143
10.0
 70
 11952
 72
     1
 73
     1
 74
     1
  7
monochrome.ctb
 75
    20
 76
     0
 77
     2
 78
   300
147
0.1
148
0.1107763247891853
149
0.0805595781130251
100
AcDbLayout
  1
Model
 70
     1
 71
     0
 10
0.0
 20
0.0
 11
0.0
 21
0.0
 12
0.0
 22
0.0
 32
0.0
 14
0.0
 24
0.0
 34
0.0
 15
3630.195568377425
 25
2639.977666844263
 35
0.0
146
0.0
 13
0.0
 23
0.0
 33
0.0
 16
1.0
 26
0.0
 36
0.0
 17
0.0
 27
1.0
 37
0.0
 76
     0
330
1F
331
97
  0
MLINESTYLE
  5
18
102
{ACAD_REACTORS
330
17
102
}
330
17
100
AcDbMlineStyle
  2
Standard
 70
     0
  3

 62
   256
 51
90.0
 52
90.0
 71
     2
 49
0.5
 62
   256
  6
BYLAYER
 49
-0.5
 62
   256
  6
BYLAYER
  0
ACDBPLACEHOLDER
  5
F
102
{ACAD_REACTORS
330
E
102
}
330
E
  0
TABLESTYLE
  5
93
102
{ACAD_REACTORS
330
92
102
}
330
92
100
AcDbTableStyle
  3
Standard
 70
     0
 71
     0
 40
0.06
 41
0.06
280
     0
281
     0
  7
Standard
140
0.18
170
     2
 62
     0
 63
     7
283
     0
 90
      512
 91
        0
  1

274
    -2
284
     1
 64
     0
275
    -2
285
     1
 65
     0
276
    -2
286
     1
 66
     0
277
    -2
287
     1
 67
     0
278
    -2
288
     1
 68
     0
279
    -2
289
     1
 69
     0
  7
Standard
140
0.25
170
     5
 62
     0
 63
     7
283
     0
 90
      512
 91
        0
  1

274
    -2
284
     1
 64
     0
275
    -2
285
     1
 65
     0
276
    -2
286
     1
 66
     0
277
    -2
287
     1
 67
     0
278
    -2
288
     1
 68
     0
279
    -2
289
     1
 69
     0
  7
Standard
140
0.18
170
     5
 62
     0
 63
     7
283
     0
 90
      512
 91
        0
  1

274
    -2
284
     1
 64
     0
275
    -2
285
     1
 65
     0
276
    -2
286
     1
 66
     0
277
    -2
287
     1
 67
     0
278
    -2
288
     1
 68
     0
279
    -2
289
     1
 69
     0
  0
DICTIONARYVAR
  5
98
102
{ACAD_REACTORS
330
59
102
}
330
59
100
DictionaryVariables
280
     0
  1
Standard
  0
DICTIONARYVAR
  5
16E5
102
{ACAD_REACTORS
330
59
102
}
330
59
100
DictionaryVariables
280
     0
  1
2
  0
DICTIONARYVAR
  5
5E
102
{ACAD_REACTORS
330
59
102
}
330
59
100
DictionaryVariables
280
     0
  1
1
  0
XRECORD
  5
16AA
102
{ACAD_REACTORS
330
16A9
102
}
330
16A9
100
AcDbXrecord
280
     1
330
1312
  0
ENDSEC
  0
EOF
